osu file format v14

[General]
AudioFilename: audio.mp3
AudioLeadIn: 1000
PreviewTime: 12145
Countdown: 0
SampleSet: Normal
StackLeniency: 0.3
Mode: 0
LetterboxInBreaks: 0
WidescreenStoryboard: 1

[Editor]
DistanceSpacing: 0.7
BeatDivisor: 4
GridSize: 32
TimelineZoom: 1.4

[Metadata]
Title:THE DAY
TitleUnicode:THE DAY
Artist:Porno Graffitti
ArtistUnicode:ポルノグラフィティ
Creator:ProfessionalBox
Version:Plus Ultra
Source:僕のヒーローアカデミア
Tags:Boku no Hero Academia my op opening tv size Frey HabiHolic Meyrink
BeatmapID:984019
BeatmapSetID:459293

[Difficulty]
HPDrainRate:6
CircleSize:4
OverallDifficulty:9
ApproachRate:9.2
SliderMultiplier:1.8
SliderTickRate:1

[Events]
//Background and Video events
Video,-135,"VideoOPHD.flv"
0,0,"Might.jpg",0,0
//Break Periods
//Storyboard Layer 0 (Background)
//Storyboard Layer 1 (Fail)
//Storyboard Layer 2 (Pass)
//Storyboard Layer 3 (Foreground)
//Storyboard Sound Samples

[TimingPoints]
-677,322.58064516129,4,3,1,30,1,0
452,-133.333333333333,4,3,1,30,0,0
613,-133.333333333333,4,1,1,30,0,0
1984,-133.333333333333,4,1,1,5,0,0
2064,-133.333333333333,4,1,1,30,0,0
2226,-133.333333333333,4,1,1,20,0,0
2387,-133.333333333333,4,1,1,30,0,0
3194,-133.333333333333,4,2,2,40,0,0
7064,-117.647058823529,4,2,2,40,0,0
8355,-181.818181818181,4,2,2,40,0,0
10935,-153.846153846153,4,2,2,40,0,0
11581,-153.846153846153,4,2,2,40,0,0
12226,-133.333333333333,4,2,2,40,0,0
12548,-133.333333333333,4,2,1,40,0,0
13193,-83.3333333333333,4,1,1,65,0,0
13435,-83.3333333333333,4,1,1,20,0,0
13516,-83.3333333333333,4,1,1,70,0,0
15452,-90.9090909090909,4,1,1,70,0,0
15693,-90.9090909090909,4,1,1,20,0,0
15774,-83.3333333333333,4,1,1,70,0,0
16016,-83.3333333333333,4,1,1,20,0,0
16097,-90.9090909090909,4,1,1,65,0,0
26097,-100,4,1,1,65,0,0
26339,-133.333333333333,4,1,1,40,0,0
26419,-133.333333333333,4,1,1,40,0,0
26742,-133.333333333333,4,2,2,40,0,0
31097,-100,4,2,2,40,0,0
31500,-100,4,2,2,20,0,0
31581,-133.333333333333,4,2,2,40,0,0
35452,-133.333333333333,4,2,1,40,0,0
35774,-133.333333333333,4,2,2,40,0,0
35935,-133.333333333333,4,2,1,40,0,0
36258,-100,4,2,2,40,0,0
36339,-100,4,2,2,20,0,0
36419,-100,4,2,2,40,0,0
36500,-100,4,2,2,20,0,0
36581,-100,4,2,2,40,0,0
36661,-100,4,2,2,20,0,0
36742,-100,4,1,1,55,0,0
39000,-90.9090909090909,4,1,1,55,0,0
39322,-100,4,1,1,55,0,0
45774,-100,4,3,1,60,0,0
47064,-111.111111111111,4,2,1,55,0,0
51903,-100,4,2,1,55,0,0
54806,-100,4,1,1,55,0,0
57387,-100,4,1,1,65,0,0
59968,-100,4,1,1,65,0,0
61419,-90.9090909090909,4,1,1,65,0,0
61903,-83.3333333333333,4,1,1,65,0,0
62226,-83.3333333333333,4,1,1,65,0,0
62548,-90.9090909090909,4,1,1,70,0,1
67387,-83.3333333333333,4,1,1,70,0,1
67629,-90.9090909090909,4,1,1,40,0,1
67710,-90.9090909090909,4,1,1,70,0,1
70855,-90.9090909090909,4,1,1,40,0,1
70935,-90.9090909090909,4,1,1,70,0,1
71903,-76.9230769230769,4,1,1,70,0,1
72145,-76.9230769230769,4,1,1,40,0,1
72226,-76.9230769230769,4,1,1,70,0,1
72871,-90.9090909090909,4,1,1,70,0,1
75371,-90.9090909090909,4,1,1,40,0,1
75452,-90.9090909090909,4,1,1,70,0,1
76339,-90.9090909090909,4,1,1,40,0,1
76419,-90.9090909090909,4,1,1,70,0,1
77952,-90.9090909090909,4,1,1,40,0,1
78032,-90.9090909090909,4,1,1,70,0,1
79242,-90.9090909090909,4,1,1,40,0,1
79323,-90.9090909090909,4,1,1,70,0,1
82468,-90.9090909090909,4,1,1,40,0,1
82548,-90.9090909090909,4,1,1,70,0,1
84645,-76.9230769230769,4,1,1,70,0,1
85774,-76.9230769230769,4,1,1,70,0,1
88193,-76.9230769230769,4,1,1,70,0,0

[Colours]
Combo1 : 205,205,205
Combo2 : 102,255,255
Combo3 : 253,247,134
Combo4 : 185,115,115

[HitObjects]
371,87,452,5,0,0:0:0:0:
371,87,532,1,0,0:0:0:0:
371,87,613,6,0,L|452:78,1,67.5000025749208,2|0,0:3|0:0,0:0:0:0:
291,178,935,2,0,L|210:169,1,67.5000025749208
277,57,1258,1,0,0:0:0:0:
316,273,1419,1,0,0:0:0:0:
316,273,1742,6,0,P|366:268|415:309,1,101.250003862381
430,320,2064,2,0,L|435:235,1,67.5000025749208
242,354,2387,2,0,B|200:308|213:236|213:236|180:284|136:277,1,202.500007724762,0|8,0:0|0:3,0:0:0:0:
25,167,3032,1,2,0:3:0:0:
85,355,3193,1,4,0:1:0:0:
134,188,3516,5,0,0:0:0:0:
214,236,3677,2,0,P|279:237|332:192,1,135.000005149842
246,144,4161,1,2,0:0:0:0:
381,343,4484,5,0,0:0:0:0:
381,343,4645,1,0,0:0:0:0:
401,117,4806,1,0,0:0:0:0:
330,234,4968,2,0,L|479:222,1,135.000005149842
464,223,5452,1,2,0:0:0:0:
193,211,5774,6,0,B|169:169|169:169|186:78,1,135.000005149842
265,155,6258,1,0,0:0:0:0:
265,155,6581,1,0,0:0:0:0:
104,26,6742,2,0,L|86:118,1,67.5000025749208,2|0,0:0|0:0,0:0:0:0:
2,206,7064,6,0,P|57:201|134:264,1,153.000002918243
154,349,7548,1,0,0:0:0:0:
154,349,7871,1,0,0:0:0:0:
384,275,8032,1,2,0:0:0:0:
279,364,8355,6,0,B|348:353|384:275|384:275|428:351|523:350,1,297.000009063721,4|2,0:1|0:0,0:0:0:0:
255,222,9645,6,0,B|193:205|193:205|161:208|134:228|134:228|135:193|97:163|97:163|42:178|42:218|60:234|79:234,1,297.000009063721,0|2,0:0|0:0,0:0:0:0:
331,353,10935,6,0,L|341:228,1,116.999994644165,0|2,0:0|0:0,0:0:0:0:
239,41,11419,1,0,0:0:0:0:
239,41,11581,2,0,L|249:165,1,116.999994644165,0|2,0:0|0:0,0:0:0:0:
428,243,12064,1,0,0:0:0:0:
345,54,12226,6,0,L|353:140,1,67.5000025749208
249,276,12548,1,4,0:1:0:0:
246,291,12871,1,4,0:1:0:0:
20,268,13193,6,0,B|77:254|77:254|121:272|121:272|179:256,1,161.999995056153,2|0,0:0|2:0,0:0:0:0:
128,159,13516,5,6,0:2:0:0:
63,364,13677,1,0,0:0:0:0:
63,364,13839,1,8,0:0:0:0:
34,115,14000,5,2,0:2:0:0:
159,343,14161,1,0,0:0:0:0:
249,104,14322,1,8,0:0:0:0:
20,268,14484,5,6,0:2:0:0:
308,291,14645,1,0,0:0:0:0:
175,33,14806,1,8,0:0:0:0:
148,269,14968,5,2,0:2:0:0:
414,218,15129,1,0,0:0:0:0:
153,169,15290,1,8,0:0:0:0:
302,374,15452,6,0,L|316:186,1,148.50000453186,4|0,0:1|2:0,0:0:0:0:
430,160,15774,6,0,P|479:199|406:188,1,161.999995056153,2|0,0:2|2:0,0:0:0:0:
265,140,16097,6,0,P|251:89|257:37,1,99.0000030212403,4|0,0:0|0:0,0:0:0:0:
368,13,16419,1,8,0:0:0:0:
172,177,16581,1,0,0:0:0:0:
172,177,16661,1,0,0:0:0:0:
172,177,16742,2,0,L|66:167,1,99.0000030212403
207,361,17064,1,8,0:0:0:0:
323,185,17226,1,0,0:0:0:0:
161,267,17387,6,0,B|275:232|239:326|382:282,1,198.000006042481,0|8,0:0|0:0,0:0:0:0:
446,203,17871,1,0,0:0:0:0:
323,185,18032,1,0,0:0:0:0:
435,361,18193,1,0,0:0:0:0:
480,118,18355,2,0,P|417:116|354:181,1,148.50000453186,8|0,0:0|0:0,0:0:0:0:
350,290,18677,6,0,L|453:282,1,99.0000030212403
227,116,19000,2,0,P|214:170|214:222,1,99.0000030212403,8|0,0:0|0:0,0:0:0:0:
216,233,19242,1,0,0:0:0:0:
219,251,19322,1,0,0:0:0:0:
339,144,19484,1,0,0:0:0:0:
238,342,19645,1,8,0:0:0:0:
130,156,19806,1,0,0:0:0:0:
67,333,19968,6,0,B|41:206|41:206|66:252|112:264,1,198.000006042481,0|8,0:0|0:0,0:0:0:0:
122,107,20452,2,0,L|130:157,1,49.5000015106202
224,215,20613,2,0,B|237:171|237:171|223:101,1,99.0000030212403
109,326,20935,1,8,0:0:0:0:
298,333,21097,1,0,0:0:0:0:
109,326,21258,6,0,B|175:316|175:316|232:344|232:344|305:332,1,198.000006042481,0|8,0:0|0:0,0:0:0:0:
474,240,21742,1,0,0:0:0:0:
474,240,21822,1,0,0:0:0:0:
474,240,21903,2,0,L|367:233,1,99.0000030212403
464,343,22226,1,8,0:0:0:0:
432,131,22387,1,0,0:0:0:0:
288,288,22548,6,0,P|273:238|286:178,1,99.0000030212403
468,60,22871,2,0,P|417:102|325:96,1,148.50000453186,8|0,0:0|0:0,0:0:0:0:
262,49,23193,2,0,P|210:34|158:53,1,99.0000030212403
94,229,23516,1,8,0:0:0:0:
35,37,23677,1,0,0:0:0:0:
205,211,23839,6,0,P|253:205|335:195,1,99.0000030212403
484,275,24161,2,0,B|430:281|381:252|381:252|399:272|415:298,1,148.50000453186,8|0,0:0|3:3,0:0:0:0:
400,372,24484,1,2,0:3:0:0:
458,150,24645,1,12,0:0:0:0:
227,275,24806,1,2,0:3:0:0:
406,284,24968,2,0,L|304:279,1,99.0000030212403,12|0,0:0|0:0,0:0:0:0:
37,190,25290,5,0,2:0:0:0:
74,157,25371,1,0,2:0:0:0:
123,152,25452,1,0,2:0:0:0:
169,167,25532,1,0,2:0:0:0:
208,197,25613,1,0,2:0:0:0:
257,196,25693,1,0,2:0:0:0:
303,173,25774,1,0,2:0:0:0:
233,57,25935,5,8,0:0:0:0:
113,250,26097,2,0,L|101:392,1,135
101,384,26419,5,4,0:0:0:0:
375,332,26581,1,0,0:0:0:0:
222,284,26742,5,0,0:0:0:0:
227,303,27064,1,0,0:0:0:0:
230,323,27387,1,2,0:0:0:0:
234,342,27710,5,0,1:2:0:0:
304,121,27871,1,0,1:2:0:0:
238,358,28193,5,0,0:0:0:0:
419,320,28355,1,0,0:0:0:0:
304,212,28516,1,0,0:0:0:0:
337,374,28677,2,0,L|340:279,1,67.5000025749208,2|0,0:0|0:0,0:0:0:0:
398,176,29000,5,0,1:0:0:0:
127,222,29161,1,0,1:0:0:0:
212,40,29322,5,0,0:0:0:0:
215,57,29645,1,0,0:0:0:0:
218,71,29968,1,2,0:0:0:0:
221,89,30290,5,0,1:0:0:0:
47,62,30452,1,0,1:0:0:0:
223,108,30613,1,0,0:0:0:0:
227,128,30935,1,0,0:0:0:0:
52,258,31097,6,0,B|72:196|149:201|149:201|196:251|268:227,1,225,2|0,0:3|0:0,0:0:0:0:
317,205,31581,5,0,1:0:0:0:
354,337,31742,1,0,1:0:0:0:
423,83,31903,5,0,0:0:0:0:
426,103,32226,1,0,0:0:0:0:
430,120,32548,1,2,0:0:0:0:
434,139,32871,5,0,1:0:0:0:
350,358,33032,1,0,1:0:0:0:
486,235,33355,6,0,P|435:248|359:206,1,135.000005149842
321,111,33839,1,2,0:0:0:0:
114,343,34161,5,0,1:0:0:0:
150,81,34322,1,0,1:0:0:0:
30,273,34645,6,0,B|126:242|126:242|228:304,1,202.500007724762,2|2,0:0|0:0,0:0:0:0:
354,365,35290,1,0,3:0:0:0:
354,365,35371,1,0,3:0:0:0:
354,365,35452,5,8,1:0:0:0:
431,175,35613,1,8,1:0:0:0:
354,365,35774,1,2,1:2:0:0:
297,110,35935,1,8,1:0:0:0:
297,110,36258,6,0,L|357:100,1,45
462,159,36419,2,0,L|417:122,1,45
419,1,36581,2,0,L|404:62,1,45
325,204,36742,6,0,P|285:207|238:184,1,90,4|0,0:0|0:0,0:0:0:0:
137,35,37064,2,0,P|167:78|174:136,1,90
148,301,37387,1,0,0:0:0:0:
67,110,37548,1,0,0:0:0:0:
17,233,37710,2,0,L|116:222,1,90
221,235,37952,1,0,0:0:0:0:
233,249,38032,6,0,P|247:301|249:341,1,90,2|0,0:2|0:0,0:0:0:0:
148,301,38355,1,0,0:0:0:0:
294,179,38516,1,0,0:0:0:0:
353,355,38677,1,0,0:0:0:0:
233,249,38839,1,0,0:0:0:0:
470,226,39000,1,0,0:0:0:0:
368,130,39161,2,0,L|376:202,1,49.5000015106202
415,286,39322,6,0,P|476:308|517:292,1,90,2|0,0:2|0:0,0:0:0:0:
373,179,39645,1,0,0:0:0:0:
353,355,39806,1,0,0:0:0:0:
241,169,39968,5,0,0:0:0:0:
259,320,40129,1,0,0:0:0:0:
126,177,40290,5,0,0:0:0:0:
105,352,40452,1,0,0:0:0:0:
20,172,40613,5,2,0:2:0:0:
20,172,40774,1,0,0:0:0:0:
137,272,40935,2,0,B|226:252|226:252|272:282,1,135
340,332,41258,2,0,P|355:294|340:225,1,90,0|4,0:0|0:0,0:0:0:0:
301,46,41581,1,0,0:0:0:0:
178,139,41742,1,0,0:0:0:0:
178,139,41822,1,0,0:0:0:0:
178,139,41903,6,0,L|275:132,1,90,2|0,0:2|0:0,0:0:0:0:
467,114,42226,1,0,0:0:0:0:
301,46,42387,1,0,0:0:0:0:
331,215,42548,1,0,0:0:0:0:
408,21,42710,1,0,0:0:0:0:
331,215,42871,2,0,P|387:213|451:268,1,135
479,337,43193,5,2,0:2:0:0:
467,114,43355,1,0,0:0:0:0:
365,301,43516,1,0,0:0:0:0:
231,203,43677,6,0,B|357:173|357:173|317:236,1,180,2|2,0:0|0:0,0:0:0:0:
269,312,44161,1,0,0:0:0:0:
195,108,44322,1,2,0:0:0:0:
97,319,44484,5,0,0:0:0:0:
97,319,44645,1,0,0:0:0:0:
22,89,44968,6,0,B|125:53|101:147|228:96,1,180,2|0,0:0|0:0,0:0:0:0:
322,56,45452,1,8,0:0:0:0:
198,201,45613,1,0,0:0:0:0:
354,292,45774,5,0,3:0:0:0:
358,257,45855,1,0,3:0:0:0:
361,222,45935,1,0,3:0:0:0:
365,187,46016,1,0,3:0:0:0:
368,152,46097,1,0,3:0:0:0:
180,27,46258,5,0,3:0:0:0:
184,62,46339,1,0,3:0:0:0:
187,97,46419,1,0,3:0:0:0:
191,132,46500,1,0,3:0:0:0:
194,165,46581,2,0,B|253:153|253:153|308:169|308:169|377:150,1,180,4|0,0:1|0:0,0:0:0:0:
258,259,47064,6,0,P|237:308|234:383,1,121.499996292114,2|0,1:2|0:0,0:0:0:0:
9,258,47548,2,0,B|57:242|85:193|85:193|123:231|188:224,1,202.499993820191
161,116,48032,5,2,1:2:0:0:
104,314,48193,1,0,0:0:0:0:
104,314,48355,1,0,0:0:0:0:
161,116,48516,2,0,P|235:124|294:192,1,161.999995056153,2|0,0:2|0:0,0:0:0:0:
300,357,49000,2,0,L|292:254,1,80.9999975280763,0|0,1:0|0:0,0:0:0:0:
474,173,49322,2,0,L|482:276,1,80.9999975280763,8|0,1:0|0:0,0:0:0:0:
504,343,49564,1,0,0:0:0:0:
504,343,49645,6,0,P|454:344|404:305,1,80.9999975280763,2|0,0:0|0:0,0:0:0:0:
358,169,49968,1,0,0:0:0:0:
212,286,50129,2,0,L|37:269,1,161.999995056153
287,348,50613,2,0,P|310:291|307:261,1,80.9999975280763,2|0,1:2|0:0,0:0:0:0:
253,194,50855,1,0,0:0:0:0:
232,192,50935,2,0,L|131:183,1,80.9999975280763,0|2,1:2|0:0,0:0:0:0:
390,254,51258,5,0,0:0:0:0:
418,250,51339,1,0,0:0:0:0:
445,245,51419,1,0,0:0:0:0:
212,306,51581,5,0,0:0:0:0:
184,302,51662,1,0,0:0:0:0:
157,297,51742,1,0,0:0:0:0:
307,347,51903,6,0,B|315:303|315:303|300:259|300:259|314:177,1,135,4|0,0:0|0:0,0:0:0:0:
327,127,52226,5,0,1:0:0:0:
413,332,52387,1,0,1:0:0:0:
456,78,52548,1,0,0:0:0:0:
307,215,52710,2,0,P|201:217|132:152,1,180
213,16,53193,2,0,P|235:59|241:114,1,90,6|0,0:2|0:0,0:0:0:0:
145,174,53435,1,0,0:0:0:0:
145,174,53516,6,0,P|93:169|42:166,1,90,0|2,1:0|0:0,0:0:0:0:
210,322,53839,2,0,P|161:325|120:328,1,90,8|0,0:3|0:0,0:0:0:0:
258,202,54161,1,8,0:3:0:0:
318,362,54322,1,0,0:0:0:0:
400,193,54484,2,0,P|449:187|515:245,1,135,12|0,0:3|0:0,0:0:0:0:
445,360,54806,6,0,P|434:319|438:263,1,90
490,92,55129,1,0,0:0:0:0:
352,272,55290,2,0,B|262:292|262:292|174:238,1,180
59,146,55774,1,0,0:0:0:0:
106,320,55935,1,0,0:0:0:0:
273,190,56097,6,0,L|381:166,1,90,0|2,0:0|0:2,0:0:0:0:
180,125,56419,2,0,P|167:86|175:31,1,90
260,72,56661,1,0,0:0:0:0:
260,72,56742,6,0,L|368:48,1,90,0|2,0:0|0:2,0:0:0:0:
152,215,57064,1,0,0:0:0:0:
257,354,57226,1,0,0:0:0:0:
364,203,57387,6,0,P|430:194|517:280,1,180,4|0,0:0|0:0,0:0:0:0:
257,354,57871,2,0,L|268:265,1,90,8|0,0:3|0:0,0:0:0:0:
128,32,58193,2,0,L|139:121,1,90,8|0,0:3|0:0,0:0:0:0:
16,254,58516,6,0,B|77:241|77:241|128:263|128:263|221:245,1,180
389,154,59000,5,8,3:0:0:0:
159,348,59161,1,0,0:0:0:0:
379,360,59322,5,8,3:0:0:0:
144,161,59484,1,0,3:0:0:0:
276,342,59645,5,0,2:0:0:0:
301,294,59726,1,0,2:0:0:0:
349,267,59806,1,0,2:0:0:0:
403,261,59887,1,0,2:0:0:0:
453,280,59968,5,6,0:2:0:0:
338,118,60129,1,0,0:0:0:0:
379,360,60290,1,8,0:0:0:0:
477,145,60452,5,2,0:2:0:0:
227,193,60613,1,0,0:0:0:0:
379,360,60774,1,8,0:0:0:0:
331,89,60935,5,2,0:2:0:0:
239,336,61097,1,0,0:0:0:0:
477,145,61258,1,8,0:0:0:0:
187,203,61419,6,0,B|164:64|164:64|211:119,1,198.000006042481,2|0,0:1|0:0,0:0:0:0:
231,297,61903,2,0,P|191:307|123:270,1,107.999996704102,2|0,0:2|0:0,0:0:0:0:
70,84,62226,2,0,L|86:197,1,107.999996704102,8|0,0:0|0:0,0:0:0:0:
46,331,62548,5,4,0:0:0:0:
187,203,62710,1,0,0:0:0:0:
317,364,62871,2,0,L|323:258,1,99.0000030212403,8|0,0:0|0:0,0:0:0:0:
387,177,63113,1,0,0:0:0:0:
404,170,63193,2,0,B|443:155|443:155|523:180,1,99.0000030212403
218,310,63516,2,0,B|179:325|179:325|99:300,1,99.0000030212403,8|0,0:0|0:0,0:0:0:0:
145,59,63839,5,0,0:0:0:0:
187,203,64000,1,0,0:0:0:0:
402,56,64161,1,8,0:0:0:0:
234,115,64322,2,0,L|349:104,1,99.0000030212403
448,290,64645,1,0,0:0:0:0:
308,201,64806,1,8,0:0:0:0:
227,349,64968,1,0,0:0:0:0:
227,349,65048,1,0,0:0:0:0:
227,349,65129,6,0,L|114:334,1,99.0000030212403
345,361,65452,1,8,0:0:0:0:
172,225,65613,2,0,B|308:201|308:201|248:257,1,198.000006042481
88,289,66097,2,0,P|68:248|72:187,1,99.0000030212403,8|0,0:0|0:0,0:0:0:0:
144,134,66339,1,0,0:0:0:0:
164,130,66419,6,0,L|278:111,1,99.0000030212403
84,45,66742,1,8,0:0:0:0:
172,225,66903,1,0,0:0:0:0:
337,38,67064,2,0,P|366:95|365:146,1,99.0000030212403
299,291,67387,6,0,B|270:236|277:178|277:178|291:206|329:227,1,161.999995056153,8|0,0:0|0:0,0:0:0:0:
412,243,67710,6,0,B|462:253|462:253|513:224,1,99.0000030212403
443,147,68032,1,8,0:0:0:0:
379,348,68193,1,0,0:0:0:0:
282,178,68355,2,0,P|231:168|119:257,1,198.000006042481,0|8,0:0|0:0,0:0:0:0:
222,374,68839,1,0,0:0:0:0:
222,374,68919,1,0,0:0:0:0:
222,374,69000,6,0,L|226:268,1,99.0000030212403
56,87,69322,2,0,L|52:193,1,99.0000030212403,8|0,0:0|0:0,0:0:0:0:
225,275,69645,1,0,0:0:0:0:
168,89,69806,1,0,0:0:0:0:
77,298,69968,1,8,0:0:0:0:
287,172,70129,1,0,0:0:0:0:
52,185,70290,6,0,L|166:177,1,99.0000030212403
341,267,70613,2,0,P|268:283|197:217,1,148.50000453186,8|0,0:0|0:0,0:0:0:0:
275,79,70935,2,0,B|296:118|296:118|283:192,1,99.0000030212403
119,347,71258,1,8,0:0:0:0:
156,113,71419,1,0,0:0:0:0:
341,267,71581,1,0,0:0:0:0:
80,265,71903,6,0,B|173:234|166:315|274:272,1,175.499991966248,12|0,0:0|0:0,0:0:0:0:
294,276,72226,5,2,2:1:0:0:
341,267,72306,1,0,2:0:0:0:
381,227,72387,1,0,2:0:0:0:
430,222,72468,1,0,2:0:0:0:
474,242,72548,1,8,2:1:0:0:
497,285,72629,1,0,2:0:0:0:
490,334,72710,1,0,2:0:0:0:
450,364,72790,1,0,2:0:0:0:
401,370,72871,6,0,P|385:324|386:267,1,99.0000030212403,4|0,0:0|0:0,0:0:0:0:
489,145,73193,2,0,L|361:134,1,99.0000030212403,8|0,0:0|0:0,0:0:0:0:
253,92,73435,1,0,0:0:0:0:
253,92,73516,2,0,P|265:142|269:212,1,99.0000030212403
136,350,73839,1,8,0:0:0:0:
158,171,74000,1,0,0:0:0:0:
282,338,74161,6,0,L|395:327,1,99.0000030212403
158,171,74484,1,8,0:0:0:0:
33,325,74645,1,0,0:0:0:0:
33,325,74726,1,0,0:0:0:0:
33,325,74806,2,0,P|18:266|22:212,1,99.0000030212403
166,22,75129,2,0,L|157:176,1,148.50000453186,8|0,0:0|0:0,0:0:0:0:
120,269,75452,6,0,B|181:255|181:255|225:281,1,99.0000030212403
341,367,75774,1,8,0:0:0:0:
393,140,75935,1,0,0:0:0:0:
298,256,76097,2,0,B|354:244|354:244|389:259|389:259|467:242,1,148.50000453186
505,189,76419,2,0,P|515:147|490:56,1,99.0000030212403,8|0,0:0|0:0,0:0:0:0:
291,25,76742,5,0,0:0:0:0:
393,140,76903,1,0,0:0:0:0:
463,4,77064,1,8,0:0:0:0:
260,123,77226,1,0,0:0:0:0:
260,123,77306,1,0,0:0:0:0:
260,123,77387,2,0,P|205:125|146:76,1,99.0000030212403
9,189,77710,2,0,P|77:175|150:235,1,148.50000453186,8|0,0:0|0:0,0:0:0:0:
170,303,78032,5,0,0:0:0:0:
286,207,78193,1,0,0:0:0:0:
61,272,78355,1,8,0:0:0:0:
245,380,78516,1,0,0:0:0:0:
145,117,78677,2,0,L|139:229,1,99.0000030212403
300,321,79000,2,0,B|285:207|285:207|315:240,1,148.50000453186,8|0,0:0|0:0,0:0:0:0:
399,273,79322,6,0,P|445:271|495:236,1,99.0000030212403
464,370,79645,1,8,0:0:0:0:
415,168,79806,1,0,0:0:0:0:
300,321,79968,1,0,0:0:0:0:
421,128,80129,1,0,0:0:0:0:
464,370,80290,2,0,L|343:364,1,99.0000030212403,8|0,0:0|0:0,0:0:0:0:
231,364,80532,1,0,0:0:0:0:
219,350,80613,6,0,P|201:301|210:234,1,99.0000030212403
333,108,80935,2,0,P|304:174|269:194,1,99.0000030212403,8|0,0:0|0:0,0:0:0:0:
17,130,81258,2,0,P|120:115|192:170,1,198.000006042481,0|8,0:0|0:0,0:0:0:0:
295,290,81742,1,0,0:0:0:0:
97,321,81903,6,0,B|84:293|84:293|92:219,1,99.0000030212403,4|0,0:0|0:0,0:0:0:0:
481,133,82226,2,0,L|468:315,1,148.50000453186,12|0,0:0|0:0,0:0:0:0:
466,326,82548,5,2,0:0:0:0:
441,294,82629,1,0,2:0:0:0:
397,271,82710,1,0,2:0:0:0:
347,276,82790,1,0,2:0:0:0:
305,302,82871,1,0,2:0:0:0:
255,292,82952,5,0,2:0:0:0:
222,254,83032,1,0,2:0:0:0:
208,206,83113,1,0,2:0:0:0:
223,163,83193,5,2,0:2:0:0:
383,368,83355,1,0,0:0:0:0:
340,120,83516,1,8,0:0:0:0:
340,120,83597,1,0,0:1:0:0:
340,120,83677,1,2,0:2:0:0:
104,258,83839,1,0,0:0:0:0:
305,302,84000,1,2,0:2:0:0:
305,302,84081,1,0,0:0:0:0:
305,302,84161,5,8,0:1:0:0:
154,56,84322,1,2,0:2:0:0:
154,56,84403,1,0,0:0:0:0:
154,56,84484,1,8,0:1:0:0:
86,347,84645,6,0,L|89:264,1,58.4999973220826,2|0,0:2|0:0,0:0:0:0:
95,133,84806,1,8,0:1:0:0:
252,375,84968,2,0,L|248:301,1,58.4999973220826,0|0,0:2|0:0,0:0:0:0:
243,161,85129,1,8,0:1:0:0:
405,277,85290,1,0,0:0:0:0:
205,62,85452,6,0,B|288:32|288:110|384:64,1,175.499991966248,8|0,0:1|0:0,0:0:0:0:
454,50,85774,5,6,0:2:0:0:
306,257,85935,1,0,0:0:0:0:
306,257,86097,1,8,0:0:0:0:
501,200,86258,5,2,0:2:0:0:
187,171,86419,1,0,0:0:0:0:
187,171,86581,1,8,0:0:0:0:
403,360,86742,6,0,L|390:234,1,116.999994644165,2|0,0:0|0:0,0:0:0:0:
93,35,87064,2,0,L|106:161,1,116.999994644165,8|0,0:0|0:0,0:0:0:0:
26,294,87387,2,0,P|99:289|196:368,1,175.499991966248,2|0,0:0|0:0,0:0:0:0:
295,361,87710,2,0,L|286:230,1,116.999994644165,10|0,0:1|0:0,0:0:0:0:
268,57,88032,5,4,0:0:0:0:
181,343,88193,1,4,0:0:0:0:
