osu file format v14

[General]
AudioFilename: audio.mp3
AudioLeadIn: 1000
PreviewTime: 12145
Countdown: 0
SampleSet: Soft
StackLeniency: 0.7
Mode: 0
LetterboxInBreaks: 0
WidescreenStoryboard: 1

[Editor]
Bookmarks: 36749,62555
DistanceSpacing: 1
BeatDivisor: 4
GridSize: 32
TimelineZoom: 1.4

[Metadata]
Title:THE DAY
TitleUnicode:THE DAY
Artist:Porno Graffitti
ArtistUnicode:ポルノグラフィティ
Creator:ProfessionalBox
Version:Normal
Source:僕のヒーローアカデミア
Tags:Boku no Hero Academia my op opening tv size Frey HabiHolic Meyrink
BeatmapID:984293
BeatmapSetID:459293

[Difficulty]
HPDrainRate:4
CircleSize:3.5
OverallDifficulty:4
ApproachRate:6
SliderMultiplier:0.999999999999999
SliderTickRate:1

[Events]
//Background and Video events
0,0,"BG.jpg",0,0
Video,-135,"VideoOPHD.flv"
//Break Periods
//Storyboard Layer 0 (Background)
//Storyboard Layer 1 (Fail)
//Storyboard Layer 2 (Pass)
//Storyboard Layer 3 (Foreground)
//Storyboard Sound Samples

[TimingPoints]
-677,322.58064516129,4,3,1,100,1,0
613,-100,4,1,1,30,0,0
3194,-100,4,2,2,30,0,0
12548,-100,4,2,1,30,0,0
13194,-100,4,1,1,30,0,0
13516,-100,4,1,1,65,0,0
16097,-100,4,1,1,65,0,0
26339,-100,4,1,1,40,0,0
26742,-100,4,2,2,40,0,0
35452,-100,4,2,1,40,0,0
35774,-100,4,2,2,40,0,0
35935,-100,4,2,1,40,0,0
36742,-100,4,1,1,55,0,0
45774,-100,4,3,1,60,0,0
47065,-100,4,2,2,55,0,0
54806,-100,4,1,1,55,0,0
57387,-100,4,1,1,65,0,0
62548,-100,4,1,1,70,0,1
88193,-100,4,1,1,70,0,0

[Colours]
Combo1 : 255,102,102
Combo2 : 255,185,220
Combo3 : 253,247,134
Combo4 : 208,131,254

[HitObjects]
18,156,613,6,0,L|119:147,1,99.9999999999999,2|0,0:3|0:0,0:0:0:0:
208,189,1258,1,0,0:0:0:0:
349,137,1742,2,0,P|364:183|354:242,1,99.9999999999999,0|0,0:0|0:0,0:0:0:0:
286,304,2387,2,0,P|339:265|466:297,1,200,0|2,0:0|0:3,0:0:0:0:
501,323,3193,6,0,B|522:278|522:278|504:165,2,150,4|0|2,0:1|0:0|0:0,0:0:0:0:
405,353,4484,2,0,L|289:344,1,99.9999999999999,0|0,0:0|0:0,0:0:0:0:
264,316,4968,2,0,L|164:323,1,99.9999999999999,0|0,0:0|0:0,0:0:0:0:
125,356,5452,1,2,0:0:0:0:
27,339,5774,6,0,P|4:298|31:194,2,150,0|0|2,0:0|0:0|0:0,0:0:0:0:
102,269,7064,2,0,L|121:100,1,150
58,40,7871,1,0,0:0:0:0:
58,40,8032,1,2,0:0:0:0:
155,15,8355,6,0,P|208:8|318:94,1,200,4|0,0:1|0:0,0:0:0:0:
291,188,9322,1,2,0:0:0:0:
206,241,9645,2,0,P|193:201|207:134,2,99.9999999999999
261,326,10613,1,2,0:0:0:0:
342,268,10935,6,0,L|447:260,1,99.9999999999999,0|2,0:0|0:0,0:0:0:0:
480,229,11419,1,0,0:0:0:0:
480,229,11581,2,0,P|489:179|480:122,1,99.9999999999999,0|2,0:0|0:0,0:0:0:0:
462,84,12064,1,0,0:0:0:0:
462,84,12226,5,0,0:0:0:0:
378,139,12548,1,4,0:1:0:0:
307,68,12871,1,4,0:1:0:0:
235,137,13193,1,0,0:0:0:0:
165,66,13516,6,0,B|98:33|98:33|22:50,1,150,6|2,0:0|0:0,0:0:0:0:
14,199,14484,2,0,B|81:232|81:232|154:215,1,150,6|2,0:1|0:0,0:0:0:0:
297,160,15452,2,0,P|307:202|305:268,1,99.9999999999999,4|2,0:1|0:2,0:0:0:0:
256,345,16097,6,0,L|157:332,1,99.9999999999999,4|8,0:0|0:0,0:0:0:0:
114,359,16581,2,0,L|15:346,1,99.9999999999999,0|0,0:0|0:0,0:0:0:0:
0,305,17064,1,8,0:0:0:0:
0,305,17226,2,0,P|-13:255|2:154,1,150,0|8,0:0|0:0,0:0:0:0:
0,58,18032,2,0,P|43:68|84:107,1,99.9999999999999,0|8,0:0|0:0,0:0:0:0:
135,190,18677,6,0,P|170:204|317:157,1,200,0|0,0:0|0:0,0:0:0:0:
363,138,19484,2,0,P|389:132|417:133,1,50,0|8,0:0|0:0,0:0:0:0:
458,152,19806,2,0,B|475:105|475:105|466:2,1,150,0|8,0:0|0:0,0:0:0:0:
366,20,20613,1,0,0:0:0:0:
276,64,20935,1,8,0:0:0:0:
191,9,21258,6,0,P|174:65|184:108,1,99.9999999999999,0|8,0:0|0:0,0:0:0:0:
220,137,21742,2,0,P|237:193|227:236,1,99.9999999999999,0|0,0:0|0:0,0:0:0:0:
179,244,22226,1,8,0:0:0:0:
179,244,22387,2,0,L|16:232,1,150,0|8,0:0|0:0,0:0:0:0:
41,332,23193,2,0,L|156:343,1,99.9999999999999,0|8,0:0|0:0,0:0:0:0:
240,355,23839,6,0,B|318:365|318:365|396:328,2,150,0|0|2,0:0|0:0|0:3,0:0:0:0:
203,320,24968,2,0,B|130:260|163:140|163:140|215:223|309:210,1,350,4|0,0:0|0:0,0:0:0:0:
374,158,26419,5,4,0:0:0:0:
374,158,26581,1,0,0:0:0:0:
40,262,27710,5,0,1:0:0:0:
40,262,27871,1,0,1:0:0:0:
338,336,29000,5,0,1:0:0:0:
338,336,29161,1,0,1:0:0:0:
178,72,30290,5,0,1:0:0:0:
178,72,30452,1,0,1:0:0:0:
200,270,31097,6,0,L|305:263,1,99.9999999999999,2|0,0:3|0:0,0:0:0:0:
350,257,31581,1,0,1:0:0:0:
350,257,31742,1,0,1:0:0:0:
56,356,32871,5,0,1:0:0:0:
56,356,33032,1,0,1:0:0:0:
37,48,34161,5,0,1:0:0:0:
37,48,34322,1,0,1:0:0:0:
99,126,34645,2,0,P|153:144|234:108,1,150,2|2,0:0|0:0,0:0:0:0:
278,17,35452,2,0,L|343:12,2,50,8|8|2,1:0|1:0|1:2,0:0:0:0:
228,19,35935,1,8,1:0:0:0:
354,235,36742,6,0,L|360:118,1,99.9999999999999,4|0,0:0|0:0,0:0:0:0:
367,85,37226,2,0,P|418:81|501:142,1,150,0|0,0:0|0:0,0:0:0:0:
508,233,38032,1,2,0:2:0:0:
508,233,38193,1,0,0:0:0:0:
508,233,38355,2,0,L|497:333,1,99.9999999999999,0|0,0:0|0:0,0:0:0:0:
403,367,39000,2,0,P|372:363|347:351,1,50,0|0,0:0|0:0,0:0:0:0:
331,311,39322,6,0,B|230:302,1,99.9999999999999,0|0,0:0|0:0,0:0:0:0:
197,338,39806,1,0,0:0:0:0:
197,338,39968,2,0,B|83:346,1,99.9999999999999,0|0,0:0|0:0,0:0:0:0:
24,275,40613,2,0,P|12:238|16:173,1,99.9999999999999,2|0,0:2|0:0,0:0:0:0:
91,113,41258,1,0,0:0:0:0:
91,113,41419,2,0,B|134:100|134:100|190:120,1,99.9999999999999,4|0,0:0|0:0,0:0:0:0:
226,148,41903,6,0,L|236:41,1,99.9999999999999,2|0,0:2|0:0,0:0:0:0:
333,28,42548,2,0,L|323:135,1,99.9999999999999,0|0,0:0|0:0,0:0:0:0:
287,221,43193,1,2,0:2:0:0:
287,221,43355,1,0,0:0:0:0:
385,202,43677,2,0,P|451:208|506:280,1,150,2|0,0:0|0:0,0:0:0:0:
407,304,44484,6,0,L|258:293,1,150,0|2,0:0|0:0,0:0:0:0:
131,374,45452,1,8,0:0:0:0:
131,374,45613,1,0,0:0:0:0:
131,374,45774,2,0,B|115:326|115:326|133:215,1,150,0|0,0:0|0:0,0:0:0:0:
206,162,46581,2,0,P|180:139|108:133,1,99.9999999999999,4|0,0:1|0:0,0:0:0:0:
75,156,47064,6,0,P|51:88|60:5,1,150,2|0,1:2|0:0,0:0:0:0:
194,74,48032,2,0,L|247:67,1,50,2|0,1:2|0:0,0:0:0:0:
290,84,48355,2,0,L|343:77,1,50,0|2,0:0|0:2,0:0:0:0:
438,61,48839,2,0,P|465:112|461:213,1,150,0|8,0:0|0:0,0:0:0:0:
366,224,49645,6,0,B|303:189|303:189|228:211,1,150,2|0,0:0|0:0,0:0:0:0:
101,291,50613,2,0,P|95:268|94:237,1,50,2|0,1:2|0:0,0:0:0:0:
114,196,50935,2,0,P|120:173|121:142,1,50,0|2,1:2|0:0,0:0:0:0:
11,44,51581,1,2,0:0:0:0:
11,44,51742,2,0,L|7:98,2,50,0|4|0,0:0|0:0|0:0,0:0:0:0:
58,27,52226,6,0,P|110:11|193:51,1,150,0|0,1:0|0:0,0:0:0:0:
288,165,53193,2,0,L|283:225,1,50,6|0,0:2|0:0,0:0:0:0:
309,258,53516,2,0,L|304:318,1,50,0|2,1:0|0:0,0:0:0:0:
159,343,54161,1,8,0:3:0:0:
159,343,54322,2,0,L|101:334,2,50,0|12|0,0:0|0:3|0:0,0:0:0:0:
207,356,54806,6,0,P|258:323|357:349,2,150
159,343,55935,1,0,0:0:0:0:
159,343,56097,2,0,P|141:292|152:233,1,99.9999999999999,0|0,0:0|0:0,0:0:0:0:
220,180,56742,2,0,P|233:126|219:74,1,99.9999999999999,8|0,0:0|0:0,0:0:0:0:
132,124,57387,6,0,P|93:135|1:82,1,150,0|8,0:0|0:3,0:0:0:0:
86,30,58193,1,8,0:3:0:0:
186,28,58516,2,0,P|231:81|170:230,1,250,0|8,0:0|3:0,0:0:0:0:
13,356,59968,6,0,P|-6:305|12:205,2,150,4|0|0,0:0|0:0|0:0,0:0:0:0:
162,372,61419,2,0,L|316:364,1,150
392,304,62226,2,0,L|452:308,1,50,2|0,0:0|0:0,0:0:0:0:
491,301,62548,6,0,P|503:253|493:198,1,99.9999999999999,4|8,0:0|0:0,0:0:0:0:
450,180,63032,2,0,L|297:168,1,150,0|8,0:0|0:0,0:0:0:0:
217,224,63839,1,0,0:0:0:0:
217,224,64000,1,0,0:0:0:0:
145,293,64322,2,0,B|115:225|115:225|145:146,1,150,0|8,0:0|0:0,0:0:0:0:
195,69,65129,6,0,P|267:58|337:94,2,150,0|0|8,0:0|0:0|0:0,0:0:0:0:
101,105,66419,2,0,L|39:99,2,50,0|0|8,0:0|0:0|0:0,0:0:0:0:
135,141,66903,2,0,B|156:196|156:196|134:290,1,150,0|8,0:0|0:0,0:0:0:0:
85,371,67710,6,0,P|129:384|186:364,1,99.9999999999999,0|8,0:0|0:0,0:0:0:0:
216,337,68193,1,0,0:0:0:0:
253,303,68355,2,0,P|299:287|347:300,1,99.9999999999999,0|8,0:0|0:0,0:0:0:0:
436,346,69000,2,0,L|444:241,2,99.9999999999999,0|8|0,0:0|0:0|0:0,0:0:0:0:
347,300,69968,2,0,L|351:242,1,50,8|0,0:0|0:0,0:0:0:0:
353,200,70290,6,0,B|312:180|312:180|250:199,1,99.9999999999999,0|8,0:0|0:0,0:0:0:0:
215,219,70774,1,0,0:0:0:0:
215,219,70935,2,0,B|171:233|171:233|108:211,1,99.9999999999999,0|8,0:0|0:0,0:0:0:0:
27,176,71581,1,0,0:0:0:0:
74,87,71903,2,0,B|116:40|166:52|166:52|200:99|272:87,1,200,12|8,0:0|2:1,0:0:0:0:
350,92,72871,6,0,P|415:82|486:10,2,150,4|0|8,0:0|0:0|0:0,0:0:0:0:
249,89,74161,2,0,P|237:143|243:206,1,99.9999999999999,0|8,0:0|0:0,0:0:0:0:
260,232,74645,2,0,L|365:227,1,99.9999999999999,0|8,0:0|0:0,0:0:0:0:
400,321,75290,1,0,0:0:0:0:
400,321,75452,6,0,L|281:325,1,99.9999999999999,0|8,0:0|0:0,0:0:0:0:
250,324,75935,2,0,B|199:299|199:299|141:315,1,99.9999999999999,0|8,0:0|0:0,0:0:0:0:
70,360,76581,1,0,0:0:0:0:
70,360,76742,2,0,P|57:319|60:263,1,99.9999999999999
100,233,77226,2,0,P|111:178|95:122,1,99.9999999999999
45,58,77871,1,0,0:0:0:0:
45,58,78032,6,0,P|94:39|149:51,1,99.9999999999999,0|8,0:0|0:0,0:0:0:0:
182,71,78516,1,0,0:0:0:0:
224,96,78677,2,0,P|272:103|318:84,1,99.9999999999999,0|8,0:0|0:0,0:0:0:0:
417,103,79322,2,0,L|427:217,1,99.9999999999999,0|8,0:0|0:0,0:0:0:0:
506,262,79968,1,0,0:0:0:0:
426,321,80290,1,8,0:0:0:0:
426,321,80452,1,0,0:0:0:0:
426,321,80613,6,0,L|326:315,1,99.9999999999999,0|8,0:0|0:0,0:0:0:0:
244,378,81258,2,0,P|226:339|232:267,1,99.9999999999999,0|8,0:0|0:0,0:0:0:0:
267,189,81903,1,4,0:0:0:0:
169,210,82226,2,0,P|77:218|0:140,1,200,12|8,0:0|1:0,0:0:0:0:
6,48,83193,5,0,0:0:0:0:
256,192,83355,12,4,88193,0:0:0:0:
