osu file format v14

[General]
AudioFilename: audio.mp3
AudioLeadIn: 1000
PreviewTime: 12145
Countdown: 0
SampleSet: Soft
StackLeniency: 0.7
Mode: 0
LetterboxInBreaks: 0
WidescreenStoryboard: 1

[Editor]
DistanceSpacing: 1.3
BeatDivisor: 4
GridSize: 32
TimelineZoom: 1.4

[Metadata]
Title:THE DAY
TitleUnicode:THE DAY
Artist:Porno Graffitti
ArtistUnicode:ポルノグラフィティ
Creator:ProfessionalBox
Version:Hard
Source:僕のヒーローアカデミア
Tags:Boku no Hero Academia my op opening tv size Frey HabiHolic Meyrink
BeatmapID:984334
BeatmapSetID:459293

[Difficulty]
HPDrainRate:5
CircleSize:4
OverallDifficulty:6
ApproachRate:7.5
SliderMultiplier:1.4
SliderTickRate:1

[Events]
//Background and Video events
0,0,"BG.jpg",0,0
Video,-135,"VideoOPHD.flv"
//Break Periods
//Storyboard Layer 0 (Background)
//Storyboard Layer 1 (Fail)
//Storyboard Layer 2 (Pass)
//Storyboard Layer 3 (Foreground)
//Storyboard Sound Samples

[TimingPoints]
-677,322.58064516129,4,3,1,100,1,0
452,-111.111111111111,4,3,1,30,0,0
613,-111.111111111111,4,1,1,30,0,0
3193,-142.857142857143,4,2,2,30,0,0
8355,-125,4,2,2,30,0,0
12548,-125,4,2,1,30,0,0
13194,-125,4,1,1,30,0,0
13516,-111.111111111111,4,1,1,70,0,0
16097,-100,4,1,1,65,0,0
24968,-111.111111111111,4,1,1,65,0,0
26339,-111.111111111111,4,1,1,40,0,0
26419,-125,4,1,1,40,0,0
26742,-125,4,2,2,40,0,0
35452,-125,4,2,1,40,0,0
35774,-125,4,2,2,40,0,0
35935,-125,4,2,1,40,0,0
36742,-111.111111111111,4,1,1,55,0,0
45774,-111.111111111111,4,3,1,60,0,0
47064,-125,4,2,2,55,0,0
54806,-125,4,1,1,55,0,0
57387,-111.111111111111,4,1,1,65,0,0
62548,-100,4,1,1,70,0,1
88193,-100,4,1,1,70,0,0

[Colours]
Combo1 : 255,102,102
Combo2 : 255,185,220
Combo3 : 253,247,134
Combo4 : 208,131,254

[HitObjects]
39,196,452,5,0,0:0:0:0:
39,196,613,2,0,L|125:189,1,62.9999980773926,2|0,0:3|0:0,0:0:0:0:
175,226,935,2,0,L|247:232,1,62.9999980773926,0|0,0:0|0:0,0:0:0:0:
307,187,1258,1,0,0:0:0:0:
343,313,1419,1,0,0:0:0:0:
343,313,1742,6,0,B|393:291|393:291|476:318,1,125.999996154785
270,379,2387,2,0,P|249:339|267:248,1,125.999996154785
307,187,2871,1,8,0:3:0:0:
180,200,3193,6,0,L|15:181,2,146.999995513916,4|0|2,0:1|0:0|0:0,0:0:0:0:
265,114,4484,2,0,P|319:102|364:125,1,97.9999970092774,0|0,0:0|0:0,0:0:0:0:
404,179,4968,2,0,L|395:293,1,97.9999970092774,0|0,0:0|0:0,0:0:0:0:
396,276,5452,1,2,0:0:0:0:
206,331,5774,6,0,P|194:259|198:185,2,146.999995513916,0|0|2,0:0|0:0|0:0,0:0:0:0:
351,366,7064,2,0,L|450:358,1,97.9999970092774,0|0,0:0|0:0,0:0:0:0:
482,271,7548,2,0,L|314:284,1,146.999995513916,0|2,0:0|0:0,0:0:0:0:
141,341,8355,6,0,P|240:353|342:267,1,224,4|0,0:1|0:0,0:0:0:0:
205,215,9322,1,2,0:0:0:0:
69,267,9645,2,0,P|59:212|60:139,1,112
80,85,10129,1,0,0:0:0:0:
141,46,10290,2,0,L|222:40,1,56,0|0,0:0|0:0,0:0:0:0:
261,76,10613,2,0,L|316:71,1,56,2|0,0:0|0:0,0:0:0:0:
396,3,10935,6,0,P|421:53|414:122,1,112,0|2,0:0|0:0,0:0:0:0:
281,181,11581,2,0,P|257:131|260:75,1,112,0|2,0:0|0:0,0:0:0:0:
312,16,12064,1,0,0:0:0:0:
312,16,12226,1,0,0:0:0:0:
281,181,12548,2,0,B|168:236|168:133|53:190,1,224
134,346,13516,6,0,L|121:270,2,62.9999980773926,6|0|0,0:0|0:0|0:0,0:0:0:0:
239,331,14000,2,0,P|296:326|366:341,1,125.999996154785,2|0,0:0|0:0,0:0:0:0:
414,275,14484,2,0,L|400:131,1,125.999996154785,6|0,0:1|0:0,0:0:0:0:
307,101,14968,2,0,L|321:245,1,125.999996154785,2|0,0:0|0:0,0:0:0:0:
269,292,15452,1,4,0:1:0:0:
142,188,15774,1,2,0:2:0:0:
46,343,16097,6,0,P|27:292|40:203,1,140,4|8,0:0|0:0,0:0:0:0:
74,124,16581,1,0,0:0:0:0:
142,188,16742,2,0,L|225:178,1,70,0|0,0:0|0:0,0:0:0:0:
277,242,17064,2,0,L|348:248,1,70,8|0,0:0|0:0,0:0:0:0:
440,312,17387,6,0,B|459:267|459:267|440:162,1,140,0|8,0:0|0:0,0:0:0:0:
422,88,17871,1,0,0:0:0:0:
333,107,18032,1,0,0:0:0:0:
266,43,18193,1,0,0:0:0:0:
266,43,18355,2,0,P|210:34|154:73,1,105,8|0,0:0|0:0,0:0:0:0:
141,91,18677,6,0,L|153:194,1,70,0|0,0:0|0:0,0:0:0:0:
155,251,19000,2,0,B|207:224|207:224|293:250,1,140,8|0,0:0|0:0,0:0:0:0:
368,211,19484,2,0,P|376:259|362:302,1,70,0|8,0:0|0:0,0:0:0:0:
331,360,19806,6,0,P|255:359|214:304,1,140,0|0,0:0|0:0,0:0:0:0:
205,228,20290,1,8,0:0:0:0:
256,155,20452,1,0,0:0:0:0:
338,116,20613,2,0,L|434:129,1,70
455,48,20935,2,0,L|359:35,1,70,8|0,0:0|0:0,0:0:0:0:
292,31,21258,6,0,P|251:88|264:171,1,140,0|8,0:0|0:0,0:0:0:0:
293,240,21742,1,0,0:0:0:0:
371,284,21903,2,0,P|381:231|373:197,1,70,0|0,0:0|0:0,0:0:0:0:
345,130,22226,1,8,0:0:0:0:
192,210,22387,6,0,B|137:201|137:201|102:216|102:216|43:206,1,140,0|0,0:0|0:0,0:0:0:0:
24,122,22871,2,0,L|101:135,1,70,8|0,0:0|0:0,0:0:0:0:
175,95,23193,1,0,0:0:0:0:
175,95,23355,1,0,0:0:0:0:
283,160,23516,2,0,P|298:212|281:273,1,105,8|0,0:0|0:0,0:0:0:0:
259,297,23839,6,0,L|176:283,1,70,0|0,0:0|0:0,0:0:0:0:
119,228,24161,1,8,0:0:0:0:
95,315,24322,1,0,0:0:0:0:
95,315,24484,1,2,0:3:0:0:
21,261,24645,2,0,P|12:223|25:168,1,70,4|2,0:0|0:3,0:0:0:0:
74,134,24968,6,0,B|151:95|221:143|221:143|302:193|391:143,1,314.999990386963,4|0,0:0|2:0,0:0:0:0:
429,90,25935,1,0,0:0:0:0:
429,90,26097,1,0,0:0:0:0:
490,221,26419,6,0,L|484:299,1,56,4|0,0:0|0:0,0:0:0:0:
475,350,26742,1,0,0:0:0:0:
389,325,27064,1,0,0:0:0:0:
311,369,27387,1,2,0:0:0:0:
253,237,27710,5,0,1:0:0:0:
253,237,27871,1,0,1:0:0:0:
50,341,29000,5,0,1:0:0:0:
50,341,29161,1,0,1:0:0:0:
50,341,29322,1,0,0:0:0:0:
79,256,29645,1,0,0:0:0:0:
45,172,29968,1,2,0:0:0:0:
178,115,30290,5,0,1:0:0:0:
178,115,30452,1,0,1:0:0:0:
302,308,31097,2,0,P|354:322|422:304,1,112,2|0,0:3|0:0,0:0:0:0:
471,259,31581,5,0,1:0:0:0:
471,259,31742,1,0,1:0:0:0:
471,259,31903,1,0,0:0:0:0:
428,179,32226,1,0,0:0:0:0:
470,100,32548,1,2,0:0:0:0:
294,32,32871,5,0,1:0:0:0:
294,32,33032,1,0,1:0:0:0:
205,168,33355,2,0,B|108:133|108:133|31:163,1,168,0|2,0:0|0:0,0:0:0:0:
108,265,34161,5,0,1:0:0:0:
108,265,34322,1,0,1:0:0:0:
231,346,34645,2,0,B|287:323|310:269|310:269|349:319|421:323,1,224,2|0,0:0|0:0,0:0:0:0:
492,261,35452,5,8,1:0:0:0:
408,213,35613,1,8,1:0:0:0:
486,162,35774,1,2,1:2:0:0:
486,162,35935,1,8,1:0:0:0:
404,321,36258,5,2,2:0:0:0:
310,251,36419,1,0,0:0:0:0:
292,360,36581,1,0,0:0:0:0:
201,293,36742,6,0,P|136:272|75:283,1,125.999996154785,4|0,0:0|0:0,0:0:0:0:
32,213,37226,2,0,L|42:69,1,125.999996154785,0|0,0:0|0:0,0:0:0:0:
111,37,37710,1,0,0:0:0:0:
178,86,37871,6,0,P|240:91|289:54,1,125.999996154785
367,12,38355,2,0,P|377:52|375:88,1,62.9999980773926
329,140,38677,2,0,P|315:180|317:216,1,62.9999980773926,0|0,0:0|0:0,0:0:0:0:
361,267,39000,1,0,0:0:0:0:
361,267,39161,1,0,0:0:0:0:
253,311,39322,6,0,L|174:300,2,62.9999980773926,0|0|0,0:0|0:0|0:0,0:0:0:0:
316,373,39806,1,0,0:0:0:0:
395,349,39968,2,0,P|432:346|474:376,1,62.9999980773926,0|0,0:0|0:0,0:0:0:0:
498,286,40290,2,0,L|491:210,1,62.9999980773926,0|0,0:0|0:0,0:0:0:0:
398,134,40613,6,0,L|411:273,1,125.999996154785,2|0,0:2|0:0,0:0:0:0:
249,223,41258,1,0,0:0:0:0:
298,288,41419,2,0,P|231:303|177:260,1,125.999996154785,4|0,0:0|0:0,0:0:0:0:
147,174,41903,6,0,L|139:89,1,62.9999980773926,2|0,0:2|0:0,0:0:0:0:
218,83,42226,2,0,L|226:168,1,62.9999980773926
249,223,42548,1,0,0:0:0:0:
249,223,42710,1,0,0:0:0:0:
307,165,42871,2,0,P|357:160|426:210,1,125.999996154785,0|2,0:0|0:2,0:0:0:0:
443,277,43355,1,0,0:0:0:0:
291,338,43677,6,0,B|218:326|218:326|176:341|176:341|100:331,1,188.999994232178,2|0,0:0|0:0,0:0:0:0:
27,307,44322,1,2,0:0:0:0:
27,307,44484,2,0,B|6:255|6:255|26:176,1,125.999996154785,0|0,0:0|0:0,0:0:0:0:
14,105,44968,2,0,P|48:108|107:173,1,125.999996154785,2|0,0:0|0:0,0:0:0:0:
103,254,45452,1,8,0:0:0:0:
260,211,45774,6,0,L|338:206,2,62.9999980773926,0|0|0,0:0|0:0|0:0,0:0:0:0:
198,156,46258,2,0,P|189:123|191:71,1,62.9999980773926,0|0,0:0|0:0,0:0:0:0:
251,42,46581,2,0,L|397:31,1,125.999996154785,4|0,0:1|0:0,0:0:0:0:
473,69,47064,6,0,P|487:107|490:161,1,84,2|0,1:2|0:0,0:0:0:0:
437,245,47548,2,0,B|362:203|362:203|274:223,1,168,0|2,0:0|1:2,0:0:0:0:
213,259,48193,2,0,P|205:234|206:194,2,56,0|0|2,0:0|0:0|0:2,0:0:0:0:
313,365,48839,1,0,0:0:0:0:
313,365,49000,2,0,L|387:350,1,56,0|0,1:0|0:0,0:0:0:0:
436,329,49322,2,0,P|445:276|436:217,1,112,8|2,0:0|0:0,0:0:0:0:
395,158,49806,5,0,0:0:0:0:
264,222,50129,2,0,L|83:199,1,168,0|2,0:0|1:2,0:0:0:0:
30,230,50774,1,0,0:0:0:0:
96,128,50935,6,0,L|76:4,1,112,0|0,1:2|0:0,0:0:0:0:
151,9,51419,2,0,L|171:133,1,112,0|0,1:2|0:0,0:0:0:0:
238,138,51903,2,0,P|278:143|324:128,1,84,4|0,0:0|0:0,0:0:0:0:
348,107,52226,6,0,P|361:65|354:3,1,84,0|0,1:0|1:0,0:0:0:0:
434,131,52710,2,0,L|449:305,1,168,0|6,0:0|0:2,0:0:0:0:
401,357,53355,1,0,0:0:0:0:
401,357,53516,5,0,1:0:0:0:
401,357,53677,2,0,P|341:338|286:353,1,112,2|0,0:0|0:0,0:0:0:0:
228,379,54161,2,0,P|191:384|162:373,1,56,8|0,0:3|0:0,0:0:0:0:
121,327,54484,2,0,L|115:271,1,56,12|0,0:3|0:0,0:0:0:0:
62,171,54806,6,0,P|143:162|213:216,2,168
32,242,55935,1,0,0:0:0:0:
32,242,56097,2,0,L|39:358,1,112,0|0,0:0|0:0,0:0:0:0:
180,320,56742,2,0,B|257:298|257:298|360:339,1,168,8|0,0:0|0:0,0:0:0:0:
449,354,57387,6,0,P|463:297|449:217,1,125.999996154785,0|0,0:0|0:0,0:0:0:0:
394,174,57871,2,0,L|305:158,1,62.9999980773926,8|0,0:3|0:0,0:0:0:0:
258,198,58193,2,0,L|180:205,1,62.9999980773926,8|0,0:3|0:0,0:0:0:0:
114,221,58516,6,0,P|23:160|156:131,1,314.999990386963,0|8,0:0|3:0,0:0:0:0:
174,290,59645,1,0,2:0:0:0:
174,290,59806,1,0,2:0:0:0:
261,375,59968,6,0,P|319:382|381:331,1,125.999996154785,4|8,0:0|0:0,0:0:0:0:
299,298,60452,2,0,L|156:288,1,125.999996154785,0|8,0:0|0:0,0:0:0:0:
89,222,60935,2,0,B|63:281|63:281|94:365,1,125.999996154785,0|8,0:0|0:0,0:0:0:0:
194,199,61419,2,0,P|205:149|189:71,1,125.999996154785,0|0,0:0|0:0,0:0:0:0:
144,8,61903,5,0,0:0:0:0:
54,145,62226,1,2,0:0:0:0:
54,145,62387,1,0,0:0:0:0:
127,241,62548,6,0,L|297:230,1,140,4|8,0:0|0:0,0:0:0:0:
334,292,63032,2,0,P|392:312|476:264,1,140
496,198,63516,1,8,0:0:0:0:
496,198,63677,1,0,0:0:0:0:
404,80,63839,6,0,B|376:126|376:126|390:210,1,140,0|8,0:0|0:0,0:0:0:0:
333,291,64322,2,0,P|265:284|209:323,1,140
138,375,64806,2,0,P|124:329|128:286,1,70,8|0,0:0|0:0,0:0:0:0:
194,197,65129,6,0,L|273:192,2,70,0|0|8,0:0|0:0|0:0,0:0:0:0:
134,127,65613,2,0,B|55:94|55:94|-8:114,1,140,0|0,0:0|0:0,0:0:0:0:
49,188,66097,1,8,0:0:0:0:
131,226,66258,1,0,0:0:0:0:
219,202,66419,6,0,P|239:149|218:65,1,140,0|8,0:0|0:0,0:0:0:0:
104,130,66903,2,0,P|84:183|105:267,1,140,0|0,0:0|0:0,0:0:0:0:
156,336,67387,1,8,0:0:0:0:
264,287,67548,1,0,0:0:0:0:
264,287,67710,6,0,L|408:278,1,140,0|8,0:0|0:0,0:0:0:0:
465,211,68193,1,0,0:0:0:0:
496,125,68355,2,0,P|452:120|376:188,1,140,0|8,0:0|0:0,0:0:0:0:
305,127,68839,1,0,0:0:0:0:
222,164,69000,6,0,B|168:180|168:180|68:142,1,140,0|8,0:0|0:0,0:0:0:0:
11,103,69484,1,0,0:0:0:0:
80,44,69645,2,0,L|151:71,1,70,0|0,0:0|0:0,0:0:0:0:
230,35,69968,1,8,0:0:0:0:
305,85,70129,1,0,0:0:0:0:
357,10,70290,6,0,P|388:44|360:154,1,140,0|8,0:0|0:0,0:0:0:0:
306,184,70774,1,0,0:0:0:0:
218,163,70935,2,0,P|187:197|215:307,1,140,0|8,0:0|0:0,0:0:0:0:
240,363,71419,1,0,0:0:0:0:
388,278,71581,6,0,L|393:185,1,70,0|0,0:0|0:0,0:0:0:0:
321,327,71903,2,0,B|379:368|379:368|464:336,1,140,12|0,0:0|2:0,0:0:0:0:
462,162,72548,1,8,2:1:0:0:
338,138,72710,1,0,2:0:0:0:
338,138,72871,6,0,L|194:132,1,140,4|8,0:0|0:0,0:0:0:0:
76,153,73355,2,0,P|157:166|207:109,1,140,0|0,0:0|0:0,0:0:0:0:
121,15,73839,2,0,L|129:94,1,70,8|0,0:0|0:0,0:0:0:0:
109,257,74161,5,0,0:0:0:0:
109,257,74322,2,0,L|117:336,1,70,0|8,0:0|0:0,0:0:0:0:
207,323,74645,2,0,P|261:319|343:345,1,140,0|0,0:0|0:0,0:0:0:0:
399,273,75129,2,0,L|389:198,1,70,8|0,0:0|0:0,0:0:0:0:
469,101,75452,6,0,L|487:258,1,140,0|8,0:0|0:0,0:0:0:0:
468,328,75935,2,0,P|406:361|320:323,1,140,0|0,0:0|0:0,0:0:0:0:
281,275,76419,1,8,0:0:0:0:
281,275,76581,1,0,0:0:0:0:
322,144,76742,6,0,B|430:133|430:133|398:187,1,140,0|8,0:0|0:0,0:0:0:0:
349,225,77226,2,0,L|179:240,1,140,0|0,0:0|0:0,0:0:0:0:
138,295,77710,2,0,P|115:243|120:201,1,70,8|0,0:0|0:0,0:0:0:0:
192,101,78032,6,0,P|212:157|203:255,1,140,0|8,0:0|0:0,0:0:0:0:
138,295,78516,1,0,0:0:0:0:
51,323,78677,2,0,P|31:267|40:169,1,140,0|8,0:0|0:0,0:0:0:0:
70,103,79161,1,0,0:0:0:0:
192,101,79322,6,0,B|260:119|260:119|341:77,1,140,0|8,0:0|0:0,0:0:0:0:
390,30,79806,1,0,0:0:0:0:
462,85,79968,2,0,P|476:128|476:171,1,70,0|0,0:0|0:0,0:0:0:0:
424,225,80290,2,0,L|336:215,1,70,8|0,0:0|0:0,0:0:0:0:
268,184,80613,6,0,L|128:195,1,140,0|8,0:0|0:0,0:0:0:0:
51,244,81097,1,0,0:0:0:0:
0,324,81258,2,0,P|53:340|133:291,1,140,0|8,0:0|0:0,0:0:0:0:
128,194,81742,1,0,0:0:0:0:
232,319,81903,6,0,L|309:311,1,70,4|0,0:0|0:0,0:0:0:0:
432,315,82226,2,0,B|473:244|435:164|435:164|386:196,1,210,12|0,0:0|2:0,0:0:0:0:
296,188,82871,2,0,P|280:146|282:103,1,70,8|0,2:0|2:0,0:0:0:0:
307,34,83193,6,0,L|386:26,2,70,0|0|8,0:0|0:0|0:3,0:0:0:0:
218,56,83677,2,0,L|139:48,2,70,0|0|2,0:0|0:0|0:2,0:0:0:0:
279,121,84161,2,0,P|295:182|288:266,1,140,8|8,0:3|0:3,0:0:0:0:
196,341,84645,2,0,L|24:328,1,140,2|0,0:2|0:2,0:0:0:0:
13,249,85129,1,8,0:3:0:0:
58,170,85290,1,0,0:0:0:0:
58,170,85452,1,8,0:3:0:0:
228,234,85774,6,0,B|297:256|297:256|380:210,1,140,4|8,0:0|0:0,0:0:0:0:
349,127,86258,2,0,B|280:105|280:105|197:151,1,140,0|8,0:0|0:0,0:0:0:0:
150,195,86742,2,0,P|142:231|159:289,1,70,0|0,0:0|0:0,0:0:0:0:
188,343,87064,2,0,L|263:335,1,70,8|0,0:0|0:0,0:0:0:0:
346,316,87387,2,0,L|415:323,1,70,0|0,0:0|0:0,0:0:0:0:
494,369,87710,5,10,0:1:0:0:
424,180,88032,1,4,0:0:0:0:
424,180,88193,1,4,0:0:0:0:
