osu file format v14

[General]
AudioFilename: audio.mp3
AudioLeadIn: 1000
PreviewTime: 12145
Countdown: 0
SampleSet: Soft
StackLeniency: 0.7
Mode: 0
LetterboxInBreaks: 0
WidescreenStoryboard: 1

[Editor]
DistanceSpacing: 1
BeatDivisor: 4
GridSize: 32
TimelineZoom: 1.4

[Metadata]
Title:THE DAY
TitleUnicode:THE DAY
Artist:Porno Graffitti
ArtistUnicode:ポルノグラフィティ
Creator:ProfessionalBox
Version:Easy
Source:僕のヒーローアカデミア
Tags:Boku no Hero Academia my op opening tv size Frey HabiHolic Meyrink
BeatmapID:984053
BeatmapSetID:459293

[Difficulty]
HPDrainRate:2
CircleSize:3
OverallDifficulty:2
ApproachRate:3
SliderMultiplier:0.799999999999999
SliderTickRate:1

[Events]
//Background and Video events
0,0,"BG.jpg",0,0
Video,-135,"VideoOPHD.flv"
//Break Periods
//Storyboard Layer 0 (Background)
//Storyboard Layer 1 (Fail)
//Storyboard Layer 2 (Pass)
//Storyboard Layer 3 (Foreground)
//Storyboard Sound Samples

[TimingPoints]
-677,322.58064516129,4,1,1,30,1,0
613,-100,4,1,1,30,0,0
3194,-100,4,2,2,30,0,0
12548,-100,4,2,1,30,0,0
13194,-100,4,1,1,30,0,0
13516,-100,4,1,1,65,0,0
16097,-100,4,1,1,65,0,0
26339,-100,4,1,1,40,0,0
26742,-100,4,2,2,40,0,0
35452,-100,4,2,1,40,0,0
36742,-100,4,1,1,55,0,0
45774,-100,4,3,1,60,0,0
47065,-100,4,2,2,55,0,0
54806,-100,4,1,1,55,0,0
57387,-100,4,1,1,65,0,0
62548,-100,4,1,1,70,0,1
88193,-100,4,1,1,70,0,0

[Colours]
Combo1 : 255,102,102
Combo2 : 255,185,220
Combo3 : 253,247,134
Combo4 : 208,131,254

[HitObjects]
46,100,613,6,0,B|136:65|136:65|203:88,1,160,2|0,0:3|0:0,0:0:0:0:
228,201,1742,2,0,B|284:187|309:145|309:145|343:190|402:197,1,200
473,211,2871,1,8,0:3:0:0:
499,135,3193,6,0,L|505:9,2,120,4|0|2,0:1|0:0|0:0,0:0:0:0:
473,211,4484,2,0,B|405:229|356:190|356:190|297:219|304:290,1,240,0|2,0:0|0:0,0:0:0:0:
363,338,5774,6,0,P|318:364|253:348,2,120,0|0|2,0:0|0:0|0:0,0:0:0:0:
303,285,7064,2,0,L|51:282,1,240,0|2,0:0|0:0,0:0:0:0:
9,222,8355,6,0,P|-3:170|11:94,2,120,4|0|2,0:1|0:0|0:0,0:0:0:0:
90,222,9645,2,0,P|129:208|294:299,1,240,0|2,0:0|0:0,0:0:0:0:
349,349,10935,6,0,P|390:345|442:338,1,79.9999999999999,0|2,0:0|0:0,0:0:0:0:
487,285,11581,2,0,P|491:228|480:189,1,79.9999999999999,0|2,0:0|0:0,0:0:0:0:
426,154,12226,2,0,P|415:115|418:61,2,79.9999999999999,0|4|4,0:0|0:1|0:1,0:0:0:0:
487,207,13193,1,0,0:0:0:0:
412,237,13516,6,0,B|366:257|366:257|291:225,1,120,6|2,0:0|0:0,0:0:0:0:
193,177,14484,2,0,B|147:157|147:157|72:187,1,120,6|2,0:1|0:0,0:0:0:0:
9,278,15452,2,0,P|2:328|23:366,1,79.9999999999999,4|2,0:1|0:2,0:0:0:0:
83,312,16097,6,0,P|137:297|237:328,1,160,4|0,0:0|0:0,0:0:0:0:
306,290,17064,1,8,0:0:0:0:
376,329,17387,2,0,P|409:324|450:283,2,79.9999999999999,0|8|0,0:0|0:0|0:0,0:0:0:0:
306,291,18355,1,8,0:0:0:0:
250,234,18677,6,0,B|223:187|223:187|245:74,1,160,0|0,0:0|0:0,0:0:0:0:
305,32,19645,1,8,0:0:0:0:
362,87,19968,2,0,L|445:78,1,79.9999999999999,0|8,0:0|0:0,0:0:0:0:
455,156,20613,2,0,L|372:165,1,79.9999999999999,0|8,0:0|0:0,0:0:0:0:
295,160,21258,6,0,P|271:127|264:80,2,79.9999999999999,0|8|0,0:0|0:0|0:0,0:0:0:0:
375,164,22226,1,8,0:0:0:0:
398,241,22548,2,0,P|372:281|328:300,1,79.9999999999999,0|8,0:0|0:0,0:0:0:0:
264,299,23193,2,0,P|223:279|204:246,1,79.9999999999999,0|8,0:0|0:0,0:0:0:0:
210,170,23839,6,0,B|159:148|159:148|49:183,1,160,0|2,0:0|0:3,0:0:0:0:
52,299,24968,2,0,B|157:265|157:265|220:292|220:292|329:259,1,280,4|0,0:0|0:0,0:0:0:0:
388,226,26419,5,4,0:0:0:0:
353,69,27064,1,0,0:0:0:0:
470,177,27710,2,0,P|482:218|480:267,1,79.9999999999999,0|0,1:0|0:0,0:0:0:0:
255,335,29000,6,0,L|167:325,1,79.9999999999999,0|0,1:0|0:0,0:0:0:0:
100,352,29645,1,0,0:0:0:0:
40,204,30290,2,0,P|101:192|179:249,1,160,0|0,1:0|0:0,0:0:0:0:
287,361,31581,6,0,L|291:274,1,79.9999999999999,0|0,1:0|0:0,0:0:0:0:
248,212,32226,2,0,L|244:125,1,79.9999999999999,0|2,0:0|0:0,0:0:0:0:
285,63,32871,2,0,P|338:42|412:49,2,120,0|0|2,1:0|0:0|0:0,0:0:0:0:
244,132,34161,6,0,P|199:159|41:89,1,240,0|2,1:0|0:0,0:0:0:0:
5,19,35452,2,0,P|48:9|113:53,1,120,8|8,1:0|1:0,0:0:0:0:
72,243,36742,6,0,L|163:236,1,79.9999999999999,4|0,0:0|0:0,0:0:0:0:
220,278,37387,2,0,L|299:284,1,79.9999999999999,0|0,0:0|0:0,0:0:0:0:
338,354,38032,2,0,P|379:292|338:215,1,160,2|0,0:2|0:0,0:0:0:0:
194,170,39322,6,0,P|176:122|182:81,1,79.9999999999999,0|0,0:0|0:0,0:0:0:0:
238,40,39968,2,0,L|329:32,1,79.9999999999999,0|0,0:0|0:0,0:0:0:0:
382,80,40613,2,0,P|441:96|505:66,2,120,2|0|0,0:2|0:0|0:0,0:0:0:0:
317,32,41903,6,0,P|301:67|310:117,1,79.9999999999999,2|0,0:2|0:0,0:0:0:0:
366,159,42548,2,0,P|385:202|380:252,1,79.9999999999999,0|0,0:0|0:0,0:0:0:0:
348,305,43193,2,0,L|224:291,1,120,2|2,0:2|0:0,0:0:0:0:
110,271,44161,1,0,0:0:0:0:
52,215,44484,6,0,P|33:141|43:82,2,120,0|2|8,0:0|0:0|0:0,0:0:0:0:
110,271,45774,2,0,P|204:237|327:300,1,240,0|0,1:0|0:0,0:0:0:0:
367,362,47064,6,0,B|385:201|385:201|365:120,2,240,2|2|0,1:2|1:2|1:0,0:0:0:0:
229,280,49645,2,0,B|113:236|113:236|21:321,2,240,2|2|2,0:0|1:2|0:0,0:0:0:0:
281,130,52226,6,0,B|312:77|386:76|386:76|425:133|497:129,2,240,0|6|8,1:0|0:2|0:3,0:0:0:0:
133,190,54806,2,0,P|112:138|116:69,2,120
192,244,56097,2,0,L|286:233,1,79.9999999999999,0|0,0:0|0:0,0:0:0:0:
350,247,56742,1,8,0:0:0:0:
463,134,57387,6,0,B|489:79|489:79|460:9,1,120,0|8,0:0|0:3,0:0:0:0:
386,34,58193,1,0,0:0:0:0:
327,91,58516,2,0,B|211:123|249:40|116:77,1,200,0|8,0:0|3:0,0:0:0:0:
67,116,59645,1,0,0:0:0:0:
59,195,59968,6,0,L|49:320,2,120,4|0|0,0:0|0:0|0:0,0:0:0:0:
143,109,61419,2,0,P|173:149|177:224,1,120
207,374,62548,6,0,L|287:367,1,79.9999999999999,4|8,0:0|0:0,0:0:0:0:
367,368,63193,2,0,L|447:361,1,79.9999999999999,0|8,0:0|0:0,0:0:0:0:
501,302,63839,2,0,P|509:240|500:206,2,79.9999999999999,0|8|0,0:0|0:0|0:0,0:0:0:0:
446,361,64806,1,8,0:0:0:0:
380,314,65129,6,0,P|348:302|289:306,1,79.9999999999999
232,341,65774,1,0,0:0:0:0:
166,294,66097,1,8,0:0:0:0:
107,348,66419,2,0,P|90:316|90:265,1,79.9999999999999,0|8,0:0|0:0,0:0:0:0:
142,214,67064,2,0,P|184:213|227:237,1,79.9999999999999,0|8,0:0|0:0,0:0:0:0:
264,294,67710,6,0,L|272:164,2,120,0|0|8,0:0|0:0|0:0,0:0:0:0:
343,299,69000,2,0,L|348:218,1,79.9999999999999,0|8,0:0|0:0,0:0:0:0:
353,139,69645,2,0,L|358:58,1,79.9999999999999,0|8,0:0|0:0,0:0:0:0:
279,77,70290,6,0,P|222:81|165:53,2,120,0|0|8,0:0|0:0|0:0,0:0:0:0:
357,59,71581,1,0,0:0:0:0:
435,75,71903,2,0,P|472:114|476:225,1,160,12|8,0:0|2:1,0:0:0:0:
417,266,72871,6,0,L|332:254,1,79.9999999999999,4|8,0:0|0:0,0:0:0:0:
266,290,73516,2,0,L|186:301,1,79.9999999999999,0|8,0:0|0:0,0:0:0:0:
125,352,74161,2,0,P|107:311|112:269,2,79.9999999999999,0|8|0,0:0|0:0|0:0,0:0:0:0:
186,301,75129,1,8,0:0:0:0:
172,222,75452,6,0,P|134:198|60:210,2,120,0|0|8,0:0|0:0|0:0,0:0:0:0:
247,247,76742,2,0,P|289:254|327:242,1,79.9999999999999,0|8,0:0|0:0,0:0:0:0:
388,195,77387,2,0,L|393:113,1,79.9999999999999,0|8,0:0|0:0,0:0:0:0:
445,54,78032,6,0,P|381:78|299:46,1,160
233,92,79000,1,8,0:0:0:0:
170,41,79322,2,0,P|98:9|24:33,1,160,0|0,0:0|0:0,0:0:0:0:
4,110,80290,1,8,0:0:0:0:
66,160,80613,6,0,B|110:175|110:175|194:151,2,120,0|0|8,0:0|0:0|0:0,0:0:0:0:
4,110,81903,1,4,0:0:0:0:
22,32,82226,1,12,0:0:0:0:
176,74,82871,1,8,0:0:0:0:
180,154,83193,5,2,0:2:0:0:
256,192,83355,12,4,88193,0:0:0:0:
