osu file format v14

[General]
AudioFilename: audio.mp3
AudioLeadIn: 0
PreviewTime: -1
Countdown: 0
SampleSet: Normal
StackLeniency: 0.7
Mode: 1
LetterboxInBreaks: 0
WidescreenStoryboard: 0

[Editor]
Bookmarks: 27037,42275,46085,87990
DistanceSpacing: 1.2
BeatDivisor: 4
GridSize: 4
TimelineZoom: 2.1

[Metadata]
Title:Neo Melodramatic
TitleUnicode:ネオメロドラマティック
Artist:Porno Graffitti
ArtistUnicode:ポルノグラフィティ
Creator:Charlotte
Version:Oni
Source:
Tags:
BeatmapID:1787627
BeatmapSetID:855548

[Difficulty]
HPDrainRate:5
CircleSize:5
OverallDifficulty:5
ApproachRate:5
SliderMultiplier:1.4
SliderTickRate:1

[Events]
//Background and Video events
//Break Periods
//Storyboard Layer 0 (Background)
//Storyboard Layer 1 (Fail)
//Storyboard Layer 2 (Pass)
//Storyboard Layer 3 (Foreground)
//Storyboard Sound Samples

[TimingPoints]
371,476.190476190476,4,1,0,70,1,0
4180,-100,4,1,0,70,0,1
19418,-100,4,1,0,70,0,0
72751,-100,4,1,0,70,0,1
87990,-100,4,1,0,70,0,0

[HitObjects]
256,193,371,5,0,0:0:0:0:
261,192,609,1,0,0:0:0:0:
263,193,728,1,0,0:0:0:0:
261,193,847,1,8,0:0:0:0:
261,193,966,1,0,0:0:0:0:
262,194,1204,1,0,0:0:0:0:
262,194,1323,1,8,0:0:0:0:
261,192,1561,1,0,0:0:0:0:
261,193,1799,1,8,0:0:0:0:
262,194,2275,1,0,0:0:0:0:
261,193,2513,1,8,0:0:0:0:
261,193,2632,1,8,0:0:0:0:
261,193,2751,1,0,0:0:0:0:
262,194,2870,1,8,0:0:0:0:
262,194,3109,1,8,0:0:0:0:
262,194,3228,1,0,0:0:0:0:
261,193,3347,1,0,0:0:0:0:
261,192,3466,1,8,0:0:0:0:
261,193,3585,1,8,0:0:0:0:
261,193,3704,1,0,0:0:0:0:
262,194,3823,1,0,0:0:0:0:
262,194,3942,1,8,0:0:0:0:
262,194,4180,1,4,0:0:0:0:
261,193,4656,1,8,0:0:0:0:
262,194,4894,1,0,0:0:0:0:
262,194,5013,1,0,0:0:0:0:
262,194,5132,1,8,0:0:0:0:
261,193,5251,1,0,0:0:0:0:
261,193,5490,1,0,0:0:0:0:
261,193,5609,1,8,0:0:0:0:
262,194,5847,1,0,0:0:0:0:
262,194,6085,1,8,0:0:0:0:
261,193,6204,1,0,0:0:0:0:
261,193,6442,1,0,0:0:0:0:
261,193,6561,1,8,0:0:0:0:
262,194,6799,1,0,0:0:0:0:
262,194,7037,1,8,0:0:0:0:
261,193,7275,1,0,0:0:0:0:
261,193,7394,1,0,0:0:0:0:
261,193,7513,1,8,0:0:0:0:
261,193,7751,1,8,0:0:0:0:
262,194,7990,1,0,0:0:0:0:
261,193,8466,1,8,0:0:0:0:
261,193,8704,1,0,0:0:0:0:
262,194,8942,1,8,0:0:0:0:
261,193,9061,1,0,0:0:0:0:
261,193,9299,1,0,0:0:0:0:
261,193,9418,1,8,0:0:0:0:
261,193,9656,1,0,0:0:0:0:
262,194,9894,1,8,0:0:0:0:
261,193,10013,1,8,0:0:0:0:
261,193,10251,1,0,0:0:0:0:
261,193,10490,1,0,0:0:0:0:
261,193,10609,1,8,0:0:0:0:
262,194,10847,1,0,0:0:0:0:
261,193,11085,1,8,0:0:0:0:
261,193,11204,1,8,0:0:0:0:
261,193,11323,1,0,0:0:0:0:
262,194,11799,1,0,0:0:0:0:
261,193,12275,1,8,0:0:0:0:
262,194,12513,1,0,0:0:0:0:
262,194,12632,1,0,0:0:0:0:
262,194,12751,1,8,0:0:0:0:
261,193,12870,1,0,0:0:0:0:
261,193,13109,1,0,0:0:0:0:
261,193,13228,1,8,0:0:0:0:
262,194,13466,1,0,0:0:0:0:
262,194,13704,1,8,0:0:0:0:
261,193,13823,1,0,0:0:0:0:
261,193,14061,1,0,0:0:0:0:
261,193,14180,1,8,0:0:0:0:
262,194,14418,1,0,0:0:0:0:
262,194,14656,1,8,0:0:0:0:
261,193,14894,1,0,0:0:0:0:
261,193,15013,1,0,0:0:0:0:
261,193,15132,1,8,0:0:0:0:
261,193,15370,1,8,0:0:0:0:
262,194,15609,1,0,0:0:0:0:
261,193,16085,1,8,0:0:0:0:
261,193,16323,1,0,0:0:0:0:
262,194,16561,1,8,0:0:0:0:
261,193,16680,1,0,0:0:0:0:
261,193,16918,1,0,0:0:0:0:
261,193,17037,1,8,0:0:0:0:
261,193,17275,1,0,0:0:0:0:
262,194,17513,1,8,0:0:0:0:
261,193,17632,1,8,0:0:0:0:
261,193,17870,1,0,0:0:0:0:
261,193,18109,1,0,0:0:0:0:
261,193,18228,1,8,0:0:0:0:
262,194,18466,1,0,0:0:0:0:
261,193,18704,1,0,0:0:0:0:
261,193,18823,1,0,0:0:0:0:
261,193,18942,1,8,0:0:0:0:
262,194,19418,1,0,0:0:0:0:
261,193,19656,1,0,0:0:0:0:
254,193,19894,1,8,0:0:0:0:
255,194,20013,1,0,0:0:0:0:
259,186,20251,1,8,0:0:0:0:
262,194,20490,1,0,0:0:0:0:
257,188,20609,1,8,0:0:0:0:
254,193,20847,1,0,0:0:0:0:
255,195,21085,1,8,0:0:0:0:
266,192,21204,1,8,0:0:0:0:
255,195,21323,1,0,0:0:0:0:
261,193,21561,1,8,0:0:0:0:
254,193,21799,1,0,0:0:0:0:
255,194,21918,1,8,0:0:0:0:
259,186,22156,1,0,0:0:0:0:
262,194,22394,1,8,0:0:0:0:
257,188,22513,1,0,0:0:0:0:
254,193,22751,1,8,0:0:0:0:
255,195,22990,1,0,0:0:0:0:
253,194,23109,1,8,0:0:0:0:
255,195,23228,1,0,0:0:0:0:
261,193,23466,1,0,0:0:0:0:
254,193,23704,1,8,0:0:0:0:
255,194,23823,1,0,0:0:0:0:
259,186,24061,1,8,0:0:0:0:
262,194,24299,1,0,0:0:0:0:
257,188,24418,1,8,0:0:0:0:
254,193,24656,1,0,0:0:0:0:
255,195,24894,1,8,0:0:0:0:
254,190,25013,1,8,0:0:0:0:
255,195,25132,1,0,0:0:0:0:
261,193,25370,1,8,0:0:0:0:
254,193,25609,1,0,0:0:0:0:
255,194,25728,1,8,0:0:0:0:
259,186,25966,1,0,0:0:0:0:
262,194,26204,1,8,0:0:0:0:
257,188,26323,1,0,0:0:0:0:
254,193,26561,1,8,0:0:0:0:
256,186,26680,1,0,0:0:0:0:
255,195,26799,1,0,0:0:0:0:
255,195,27037,1,4,0:0:0:0:
257,188,27275,1,0,0:0:0:0:
259,192,27394,1,0,0:0:0:0:
254,188,27513,1,8,0:0:0:0:
255,195,27751,1,8,0:0:0:0:
255,195,27870,1,0,0:0:0:0:
253,192,28109,1,0,0:0:0:0:
254,193,28228,1,8,0:0:0:0:
254,193,28466,1,0,0:0:0:0:
255,195,28942,1,0,0:0:0:0:
254,193,29180,1,8,0:0:0:0:
254,193,29418,1,0,0:0:0:0:
255,195,29537,1,8,0:0:0:0:
255,195,29775,1,0,0:0:0:0:
254,193,30013,1,0,0:0:0:0:
254,193,30132,1,8,0:0:0:0:
254,193,30370,1,0,0:0:0:0:
255,195,30847,1,0,0:0:0:0:
254,193,31085,1,0,0:0:0:0:
254,193,31204,1,0,0:0:0:0:
254,193,31323,1,8,0:0:0:0:
255,195,31561,1,0,0:0:0:0:
255,195,31680,1,0,0:0:0:0:
254,193,31918,1,0,0:0:0:0:
254,193,32037,1,8,0:0:0:0:
254,193,32275,1,0,0:0:0:0:
254,193,32751,1,0,0:0:0:0:
254,193,32990,1,8,0:0:0:0:
254,193,33228,1,0,0:0:0:0:
254,193,33347,1,8,0:0:0:0:
254,193,33585,1,0,0:0:0:0:
258,191,33823,1,8,0:0:0:0:
258,191,33942,1,8,0:0:0:0:
258,191,34180,1,0,0:0:0:0:
255,186,34656,1,0,0:0:0:0:
258,191,34894,1,0,0:0:0:0:
258,191,35013,1,0,0:0:0:0:
258,191,35132,1,8,0:0:0:0:
255,186,35251,1,0,0:0:0:0:
255,186,35490,1,0,0:0:0:0:
260,192,35609,1,8,0:0:0:0:
258,191,35847,1,8,0:0:0:0:
258,191,36085,1,0,0:0:0:0:
255,195,36561,1,0,0:0:0:0:
254,193,36799,1,0,0:0:0:0:
254,193,36918,1,0,0:0:0:0:
254,193,37037,1,8,0:0:0:0:
255,195,37275,1,8,0:0:0:0:
255,195,37394,1,0,0:0:0:0:
254,193,37632,1,0,0:0:0:0:
254,193,37751,1,8,0:0:0:0:
254,193,37989,1,0,0:0:0:0:
254,193,38466,1,0,0:0:0:0:
254,193,38704,1,0,0:0:0:0:
254,193,38823,1,0,0:0:0:0:
254,193,38942,1,8,0:0:0:0:
254,193,39061,1,0,0:0:0:0:
254,193,39299,1,0,0:0:0:0:
254,193,39418,1,8,0:0:0:0:
254,193,39656,1,0,0:0:0:0:
254,193,39894,1,8,0:0:0:0:
254,193,40013,1,0,0:0:0:0:
254,193,40132,1,8,0:0:0:0:
254,193,40370,1,0,0:0:0:0:
254,193,40847,1,0,0:0:0:0:
254,193,41204,1,8,0:0:0:0:
254,193,41561,1,0,0:0:0:0:
254,193,41799,1,8,0:0:0:0:
254,193,41918,1,8,0:0:0:0:
254,193,42037,1,8,0:0:0:0:
254,193,42156,1,8,0:0:0:0:
262,194,42275,1,0,0:0:0:0:
261,193,42513,1,0,0:0:0:0:
254,193,42751,1,8,0:0:0:0:
255,194,42870,1,0,0:0:0:0:
259,186,43108,1,8,0:0:0:0:
262,194,43347,1,0,0:0:0:0:
257,188,43466,1,8,0:0:0:0:
254,193,43704,1,0,0:0:0:0:
255,195,43942,1,8,0:0:0:0:
266,192,44061,1,8,0:0:0:0:
255,195,44180,1,0,0:0:0:0:
261,193,44418,1,8,0:0:0:0:
254,193,44656,1,0,0:0:0:0:
255,194,44775,1,8,0:0:0:0:
259,186,45013,1,0,0:0:0:0:
262,194,45251,1,8,0:0:0:0:
257,188,45370,1,0,0:0:0:0:
254,193,45608,1,8,0:0:0:0:
255,194,45728,1,0,0:0:0:0:
251,191,45847,1,0,0:0:0:0:
254,186,46085,1,4,0:0:0:0:
261,193,46323,1,0,0:0:0:0:
261,193,46442,1,0,0:0:0:0:
254,193,46561,1,8,0:0:0:0:
255,194,46680,1,0,0:0:0:0:
259,186,46918,1,8,0:0:0:0:
262,194,47156,1,0,0:0:0:0:
257,188,47275,1,8,0:0:0:0:
254,193,47513,1,0,0:0:0:0:
263,187,47990,1,0,0:0:0:0:
264,188,48228,1,8,0:0:0:0:
264,188,48466,1,0,0:0:0:0:
262,194,48585,1,8,0:0:0:0:
256,187,48823,1,8,0:0:0:0:
256,187,48942,1,0,0:0:0:0:
256,187,49061,1,0,0:0:0:0:
257,188,49180,1,8,0:0:0:0:
254,193,49418,1,0,0:0:0:0:
254,192,49894,1,0,0:0:0:0:
254,192,50132,1,0,0:0:0:0:
254,193,50251,1,0,0:0:0:0:
254,193,50370,1,8,0:0:0:0:
254,192,50490,1,0,0:0:0:0:
254,192,50728,1,8,0:0:0:0:
253,199,50966,1,0,0:0:0:0:
253,197,51085,1,8,0:0:0:0:
261,195,51323,1,0,0:0:0:0:
253,199,51799,1,0,0:0:0:0:
264,188,52037,1,8,0:0:0:0:
264,188,52275,1,0,0:0:0:0:
262,194,52394,1,8,0:0:0:0:
256,187,52632,1,8,0:0:0:0:
256,187,52751,1,0,0:0:0:0:
256,187,52870,1,0,0:0:0:0:
257,188,52989,1,8,0:0:0:0:
254,193,53227,1,0,0:0:0:0:
254,195,53466,1,8,0:0:0:0:
256,199,53704,1,0,0:0:0:0:
256,199,53942,1,8,0:0:0:0:
256,199,54061,1,8,0:0:0:0:
256,197,54180,1,0,0:0:0:0:
254,195,54299,1,8,0:0:0:0:
256,199,54537,1,0,0:0:0:0:
256,199,54775,1,0,0:0:0:0:
256,199,54894,1,8,0:0:0:0:
256,197,55132,1,0,0:0:0:0:
256,199,55609,1,0,0:0:0:0:
264,188,55847,1,8,0:0:0:0:
268,185,55966,1,8,0:0:0:0:
264,190,56085,1,0,0:0:0:0:
259,182,56204,1,0,0:0:0:0:
256,187,56323,1,8,0:0:0:0:
256,187,56442,1,0,0:0:0:0:
256,187,56680,1,0,0:0:0:0:
257,188,56799,1,8,0:0:0:0:
254,193,57037,1,0,0:0:0:0:
254,192,57513,1,0,0:0:0:0:
254,192,57751,1,8,0:0:0:0:
254,193,57870,1,8,0:0:0:0:
254,192,57989,1,0,0:0:0:0:
254,193,58109,1,8,0:0:0:0:
254,192,58347,1,0,0:0:0:0:
253,199,58585,1,0,0:0:0:0:
253,197,58704,1,8,0:0:0:0:
261,195,58942,1,0,0:0:0:0:
264,188,59180,1,8,0:0:0:0:
253,199,59418,1,0,0:0:0:0:
264,188,59894,1,0,0:0:0:0:
256,187,60251,1,8,0:0:0:0:
257,188,60609,1,0,0:0:0:0:
254,193,60846,1,8,0:0:0:0:
257,193,60966,1,0,0:0:0:0:
254,195,61085,1,0,0:0:0:0:
256,199,61323,1,0,0:0:0:0:
256,199,61680,1,0,0:0:0:0:
256,197,61799,1,8,0:0:0:0:
256,199,62037,1,0,0:0:0:0:
256,199,62275,1,8,0:0:0:0:
256,199,62513,1,8,0:0:0:0:
256,199,62632,1,8,0:0:0:0:
256,197,62751,1,0,0:0:0:0:
256,199,62990,1,8,0:0:0:0:
256,199,63228,1,0,0:0:0:0:
256,199,63466,1,0,0:0:0:0:
256,199,63585,1,0,0:0:0:0:
256,197,63704,1,8,0:0:0:0:
256,199,63942,1,8,0:0:0:0:
256,199,64180,1,0,0:0:0:0:
256,199,64537,1,0,0:0:0:0:
257,202,64656,1,8,0:0:0:0:
256,199,64894,1,0,0:0:0:0:
256,199,65132,1,8,0:0:0:0:
256,199,65370,1,0,0:0:0:0:
256,199,65490,1,0,0:0:0:0:
254,197,65609,1,8,0:0:0:0:
252,195,65847,1,0,0:0:0:0:
256,199,66085,1,8,0:0:0:0:
256,199,66323,1,0,0:0:0:0:
254,197,66442,1,8,0:0:0:0:
256,199,66561,1,0,0:0:0:0:
256,200,66799,1,0,0:0:0:0:
256,199,67037,1,8,0:0:0:0:
256,199,67513,1,0,0:0:0:0:
256,200,67751,1,8,0:0:0:0:
256,199,67990,1,0,0:0:0:0:
256,199,68228,1,0,0:0:0:0:
256,199,68466,1,8,0:0:0:0:
256,200,68704,1,8,0:0:0:0:
256,199,68942,1,0,0:0:0:0:
256,199,69180,1,0,0:0:0:0:
256,199,69418,1,8,0:0:0:0:
254,203,69656,1,8,0:0:0:0:
256,199,69894,1,0,0:0:0:0:
256,199,70370,1,0,0:0:0:0:
257,198,70609,1,0,0:0:0:0:
256,199,70847,1,8,0:0:0:0:
256,199,71323,1,0,0:0:0:0:
256,199,71799,1,0,0:0:0:0:
256,199,72037,1,0,0:0:0:0:
256,199,72275,1,0,0:0:0:0:
259,203,72394,1,0,0:0:0:0:
256,199,72513,1,0,0:0:0:0:
262,194,72751,1,4,0:0:0:0:
261,193,73227,1,8,0:0:0:0:
262,194,73465,1,0,0:0:0:0:
262,194,73584,1,0,0:0:0:0:
262,194,73703,1,8,0:0:0:0:
261,193,73822,1,0,0:0:0:0:
261,193,74061,1,0,0:0:0:0:
261,193,74180,1,8,0:0:0:0:
262,194,74418,1,0,0:0:0:0:
262,194,74656,1,8,0:0:0:0:
261,193,74775,1,0,0:0:0:0:
261,193,75013,1,0,0:0:0:0:
261,193,75132,1,8,0:0:0:0:
262,194,75370,1,0,0:0:0:0:
262,194,75608,1,8,0:0:0:0:
261,193,75846,1,0,0:0:0:0:
261,193,75965,1,0,0:0:0:0:
261,193,76084,1,8,0:0:0:0:
261,193,76322,1,8,0:0:0:0:
262,194,76561,1,0,0:0:0:0:
261,193,77037,1,8,0:0:0:0:
261,193,77275,1,0,0:0:0:0:
262,194,77513,1,8,0:0:0:0:
261,193,77632,1,0,0:0:0:0:
261,193,77870,1,0,0:0:0:0:
261,193,77989,1,8,0:0:0:0:
261,193,78227,1,0,0:0:0:0:
262,194,78465,1,8,0:0:0:0:
261,193,78584,1,8,0:0:0:0:
261,193,78822,1,0,0:0:0:0:
261,193,79061,1,0,0:0:0:0:
261,193,79180,1,8,0:0:0:0:
262,194,79418,1,0,0:0:0:0:
261,193,79656,1,8,0:0:0:0:
261,193,79775,1,8,0:0:0:0:
261,193,79894,1,0,0:0:0:0:
262,194,80370,1,0,0:0:0:0:
261,193,80846,1,8,0:0:0:0:
262,194,81084,1,0,0:0:0:0:
262,194,81203,1,0,0:0:0:0:
262,194,81322,1,8,0:0:0:0:
261,193,81441,1,0,0:0:0:0:
261,193,81680,1,0,0:0:0:0:
261,193,81799,1,8,0:0:0:0:
262,194,82037,1,0,0:0:0:0:
262,194,82275,1,8,0:0:0:0:
261,193,82394,1,0,0:0:0:0:
261,193,82632,1,0,0:0:0:0:
261,193,82751,1,8,0:0:0:0:
262,194,82989,1,0,0:0:0:0:
262,194,83227,1,8,0:0:0:0:
261,193,83465,1,0,0:0:0:0:
261,193,83584,1,0,0:0:0:0:
261,193,83703,1,8,0:0:0:0:
261,193,83941,1,8,0:0:0:0:
262,194,84180,1,0,0:0:0:0:
261,193,84656,1,8,0:0:0:0:
261,193,84894,1,0,0:0:0:0:
262,194,85132,1,8,0:0:0:0:
261,193,85251,1,0,0:0:0:0:
261,193,85489,1,0,0:0:0:0:
261,193,85608,1,8,0:0:0:0:
261,193,85846,1,0,0:0:0:0:
262,194,86084,1,8,0:0:0:0:
261,193,86203,1,8,0:0:0:0:
261,193,86441,1,0,0:0:0:0:
261,193,86680,1,0,0:0:0:0:
261,193,86799,1,8,0:0:0:0:
262,194,87037,1,0,0:0:0:0:
261,193,87275,1,0,0:0:0:0:
261,193,87394,1,0,0:0:0:0:
261,193,87513,1,8,0:0:0:0:
262,194,87989,1,0,0:0:0:0:
