osu file format v14

[General]
AudioFilename: audio.mp3
AudioLeadIn: 0
PreviewTime: 138545
Countdown: 0
SampleSet: Soft
StackLeniency: 0.7
Mode: 0
LetterboxInBreaks: 0
WidescreenStoryboard: 1

[Editor]
Bookmarks: 3790,4116,4931,5584,6399,6725,33464,102104,112539,190799,274275,279492
DistanceSpacing: 1.2
BeatDivisor: 4
GridSize: 16
TimelineZoom: 1.4

[Metadata]
Title:Breath
TitleUnicode:ブレス
Artist:Porno Graffitti
ArtistUnicode:ポルノグラフィティ
Creator:BinFhone
Version:Easy
Source:みんなの物語
Tags:劇場版ポケットモンスター Pokemon movie The Power of Us 神奇寶貝 劇場版 ( 電影版 ) 大家的故事
BeatmapID:1751426
BeatmapSetID:836330

[Difficulty]
HPDrainRate:3
CircleSize:3
OverallDifficulty:4
ApproachRate:4
SliderMultiplier:1.4
SliderTickRate:1

[Events]
//Background and Video events
0,0,"DXAVV6DXcAE9UkH.jpg",0,0
Video,0,"movie_21.mp4"
//Break Periods
//Storyboard Layer 0 (Background)
//Storyboard Layer 1 (Fail)
//Storyboard Layer 2 (Pass)
//Storyboard Layer 3 (Foreground)
//Storyboard Layer 4 (Overlay)
//Storyboard Sound Samples

[TimingPoints]
366,652.173913043478,4,2,0,60,1,0
7540,-100,4,2,0,30,0,0
8192,-100,4,2,0,60,0,0
13410,-100,4,2,0,80,0,0
34279,-100,4,2,0,60,0,0
60365,-100,4,2,0,100,0,1
91670,-100,4,2,0,60,0,0
112539,-100,4,2,0,80,0,0
138626,-100,4,2,0,100,0,1
167322,-100,4,2,0,80,0,0
219494,-100,4,2,0,30,0,0
219495,-100,4,2,0,30,0,0
222105,-100,4,2,0,100,0,1
248192,-100,4,2,0,100,0,0
253409,-100,4,2,0,100,0,1
253450,-100,4,2,0,100,0,0
263844,-100,4,2,0,100,0,1
263885,-100,4,2,0,100,0,0
274279,-100,4,2,0,100,0,1
274319,-100,4,2,0,100,0,0

[Colours]
Combo1 : 0,170,170
Combo2 : 227,233,1
Combo3 : 218,88,172
Combo4 : 128,0,0
Combo5 : 213,158,77
Combo6 : 192,192,192

[HitObjects]
19,20,2974,5,0,0:0:0:0:
228,39,3789,2,0,P|264:31|307:46,1,70
504,17,4931,2,0,B|507:123|507:123|490:181,1,140
501,365,6398,2,0,P|441:372|409:360,1,70
222,368,7539,2,0,B|213:346|213:346|190:344|190:344|181:323|181:323|151:332|120:326|98:304,1,140
164,111,9007,6,0,P|165:182|155:203,1,70
72,263,9822,2,0,P|79:288|116:316,2,70
79,179,10800,1,0,0:0:0:0:
193,3,11615,2,0,P|220:43|226:74,1,70
261,270,12757,2,0,B|270:291|270:291|270:315|270:315|257:337,1,70
181,300,13409,6,0,P|97:325|36:249,1,175
119,243,14550,1,0,0:0:0:0:
41,47,15365,1,0,0:0:0:0:
41,215,16018,2,0,P|49:289|139:323,1,175
119,243,17159,2,0,P|173:251|214:302,1,105
205,369,17974,1,0,0:0:0:0:
372,367,18626,6,0,B|391:324|366:284|366:284|339:240|360:199,1,175
323,124,19768,1,0,0:0:0:0:
297,332,20583,1,0,0:0:0:0:
434,235,21235,2,0,B|477:301|459:368|459:368|420:331,1,175
369,289,22376,2,0,P|351:238|375:175,1,105
438,152,23192,1,0,0:0:0:0:
510,0,23844,6,0,P|468:18|438:15,1,70
375,64,24496,2,0,L|314:69,1,35
269,22,24985,2,0,P|268:110|338:152,1,175
176,98,26452,2,0,P|136:92|101:103,1,70
27,124,27105,2,0,L|24:72,1,35
77,23,27594,2,0,P|135:96|143:176,1,175
160,342,29061,6,0,P|132:355|88:355,1,70
17,320,29713,2,0,L|35:268,1,35
111,274,30202,2,0,B|136:250|136:250|293:288,1,175
425,353,31670,2,0,P|470:362|507:351,1,70
463,278,32322,2,0,L|457:219,1,35
489,164,32811,2,0,P|455:159|402:179,1,70
299,202,33626,1,0,0:0:0:0:
370,49,34279,6,0,L|211:42,1,140
157,85,35257,1,0,0:0:0:0:
91,32,35583,2,0,L|19:29,2,70
157,85,36561,1,0,0:0:0:0:
79,116,36887,2,0,P|62:168|146:193,1,140
208,185,37865,2,0,L|203:243,1,35
154,335,38518,2,0,P|109:343|68:338,1,70
16,188,39496,6,0,B|46:174|84:188|84:188|121:201|152:189,1,140
224,145,40474,1,0,0:0:0:0:
285,88,40800,2,0,P|329:75|368:84,2,70
224,145,41779,1,0,0:0:0:0:
227,228,42105,2,0,P|272:287|338:269,1,140
411,297,43083,2,0,L|416:249,1,35
471,150,43735,2,0,P|475:90|464:58,1,70
309,41,44713,6,0,L|164:30,1,140
86,14,45692,1,0,0:0:0:0:
29,75,46018,2,0,P|24:126|36:167,2,70
111,89,46996,1,0,0:0:0:0:
193,105,47322,2,0,P|229:86|253:160,1,140
224,235,48300,2,0,L|260:241,1,35
340,336,48952,2,0,P|388:322|420:295,1,70
412,142,49931,6,0,P|381:76|414:12,1,140
464,78,50909,2,0,L|505:73,1,35
473,197,51561,2,0,P|429:223|394:222,1,70
337,183,52213,1,0,0:0:0:0:
301,106,52539,2,0,P|248:67|158:107,1,140
198,164,53518,2,0,L|233:146,1,35
173,35,54170,2,0,P|125:69|109:101,1,70
26,217,55148,6,0,P|99:194|157:236,1,140
84,278,56126,1,0,0:0:0:0:
53,356,56452,2,0,B|82:369|123:357|123:357|160:344|192:360,1,140
215,278,57431,1,0,0:0:0:0:
275,220,57757,2,0,L|316:211,1,35
153,72,58735,2,0,L|194:63,1,35
187,64,60365,6,0,B|219:77|252:62|252:62|287:46|323:63,1,140
389,113,61344,1,0,0:0:0:0:
464,76,61670,2,0,L|504:5,2,70
459,159,62648,1,0,0:0:0:0:
383,194,62974,2,0,P|332:172|311:88,1,140
366,34,63952,1,0,0:0:0:0:
389,113,64279,2,0,L|467:119,2,70
308,95,65257,1,0,0:0:0:0:
334,174,65583,6,0,P|320:235|233:269,1,140
186,224,66561,1,0,0:0:0:0:
115,269,66887,2,0,P|66:299|49:336,2,70
186,312,67865,1,0,0:0:0:0:
256,270,68192,2,0,L|268:112,1,140
314,61,69170,1,0,0:0:0:0:
373,120,69496,2,0,P|421:133|464:119,1,70
485,59,70148,2,0,P|452:46|417:49,1,70
