osu file format v14

[General]
AudioFilename: audio.mp3
AudioLeadIn: 0
PreviewTime: 62014
Countdown: 0
SampleSet: Normal
StackLeniency: 0.5
Mode: 0
LetterboxInBreaks: 0
WidescreenStoryboard: 0

[Editor]
Bookmarks: 2820,13143,15723,26046,36369,46691,47014,47336,48143,48304,49272,49756,49917,50401,50885,51207,51369,51852,52014,52498,53465,53788,54433,57014,59594,60885,61852,62175,82820,85401,95723,100885,104756,106046,116369,124110,125401,126369,126691,135723,136691,137014
DistanceSpacing: 1.2
BeatDivisor: 4
GridSize: 4
TimelineZoom: 1.8

[Metadata]
Title:The Day feat. Aruvn (dj-Jo Remix) Extended Version
TitleUnicode:The Day feat. Aruvn (dj-Jo Remix) Extended Version
Artist:Porno Graffiti
ArtistUnicode:Porno Graffiti
Creator:danielexus
Version:Hard
Source:僕のヒーローアカデミア
Tags:Regraz, boku no hero academia, dnb
BeatmapID:1529912
BeatmapSetID:710822

[Difficulty]
HPDrainRate:5
CircleSize:3.6
OverallDifficulty:6.6
ApproachRate:7.6
SliderMultiplier:1.4
SliderTickRate:1

[Events]
//Background and Video events
0,0,"thx wallpaper abyss.jpg",0,0
//Break Periods
2,3020,10562
//Storyboard Layer 0 (Background)
//Storyboard Layer 1 (Fail)
//Storyboard Layer 2 (Pass)
//Storyboard Layer 3 (Foreground)
//Storyboard Sound Samples

[TimingPoints]
240,322.58064516129,4,1,1,60,1,0
320,-100,4,1,1,40,0,0
2820,-100,4,2,1,60,0,0
2901,-100,4,1,1,30,0,0
12175,-100,4,1,1,40,0,0
13143,-100,4,1,1,60,0,0
15723,-100,4,1,1,65,0,0
16046,-100,4,1,1,65,0,0
16369,-100,4,1,1,65,0,0
17014,-100,4,1,1,65,0,0
17659,-100,4,1,1,65,0,0
18304,-100,4,1,1,65,0,0
18949,-100,4,1,1,65,0,0
19594,-90.9090909090909,4,1,1,70,0,0
20078,-90.9090909090909,4,1,1,70,0,0
20562,-90.9090909090909,4,1,1,70,0,0
20885,-100,4,1,1,65,0,0
21530,-100,4,1,1,65,0,0
22175,-100,4,1,1,65,0,0
22820,-100,4,1,1,65,0,0
23465,-100,4,1,1,65,0,0
24110,-100,4,1,1,65,0,0
25401,-100,4,1,1,70,0,0
25723,-100,4,1,1,75,0,0
26046,-100,4,1,1,50,0,0
36369,-100,4,1,1,60,0,0
46691,-100,4,1,1,70,0,0
47336,-100,4,1,1,80,0,0
47417,-100,4,1,1,65,0,0
49272,-100,4,1,1,65,0,0
49352,-100,4,1,1,65,0,0
49433,-100,4,1,1,65,0,0
49514,-100,4,1,1,65,0,0
49594,-100,4,1,1,65,0,0
49675,-100,4,1,1,65,0,0
54433,-100,4,1,1,40,0,0
57014,-100,4,1,1,60,0,0
57820,-100,4,1,1,70,0,0
58223,-100,4,1,1,50,0,0
60885,-100,4,1,1,65,0,0
62175,-100,4,1,1,80,0,1
72175,-100,4,1,1,50,0,0
72498,-100,4,1,1,80,0,1
82820,-100,4,1,1,70,0,0
85401,-100,4,1,1,65,0,0
104917,-100,4,1,1,60,0,0
105078,-100,4,1,1,55,0,0
105239,-100,4,1,1,50,0,0
105401,-100,4,1,1,45,0,0
105562,-100,4,1,1,40,0,0
105723,-100,4,1,1,50,0,0
106046,-100,4,1,1,65,0,0
116369,-100,4,1,1,70,0,0
124110,-100,4,1,1,75,0,0
125401,-100,4,1,1,80,0,0
126369,-100,4,1,1,65,0,0
126691,-100,4,1,1,70,0,0
136691,-100,4,1,1,50,0,0
137014,-100,4,1,1,80,0,1
146046,-100,4,1,1,40,0,0
146369,-100,4,1,1,50,0,1
147014,-100,4,1,1,40,0,0
147336,-100,4,1,1,80,0,1
149917,-100,4,1,1,85,0,0
152175,-100,4,1,1,45,0,0
152336,-100,4,1,1,80,0,0
153788,-100,4,1,1,70,0,0
153949,-100,4,1,1,55,0,0
154110,-100,4,1,1,30,0,0
154272,-100,4,1,1,15,0,0
154433,-100,4,1,1,5,0,0

[Colours]
Combo1 : 207,207,207
Combo2 : 206,28,28

[HitObjects]
115,135,78,5,8,2:0:0:0:
115,135,159,1,8,2:0:0:0:
115,135,240,2,0,P|163:153|212:137,1,105,4|0,1:0|0:0,0:0:0:0:
240,106,562,2,0,L|234:33,1,70,2|2,2:0|2:0,0:0:0:0:
330,82,885,2,0,L|324:151,1,70,2|2,2:0|2:0,0:0:0:0:
224,287,1369,2,0,B|190:301|158:289|158:289|123:275|88:290,2,140,2|2|2,2:0|2:0|2:0,0:0:0:0:
228,291,2498,5,8,2:0:0:0:
311,298,2659,1,8,2:0:0:0:
394,306,2820,1,4,2:0:0:0:
389,144,11852,5,8,2:0:0:0:
389,144,12175,2,0,P|320:174|364:63,1,280,8|8,2:0|2:0,0:0:0:0:
414,236,13143,6,0,L|406:310,2,70,8|8|8,0:0|2:0|2:0,0:0:0:0:
323,265,13627,2,0,B|289:251|257:263|257:263|222:277|187:262,1,140,8|8,0:0|2:0,0:0:0:0:
128,160,14110,2,0,L|120:86,2,70,8|8|8,0:0|2:0|2:0,0:0:0:0:
72,223,14594,2,0,L|64:297,2,70,8|8|8,0:0|2:0|2:0,0:0:0:0:
6,146,15078,2,0,L|2:109,4,35,8|8|8|8|8,0:0|2:0|2:0|2:0|2:0,0:0:0:0:
158,52,15723,6,0,B|224:81|224:81|287:50,1,140,4|8,1:0|0:0,0:0:0:0:
364,81,16207,1,0,0:0:0:0:
299,135,16369,2,0,P|286:167|293:201,1,70,8|8,2:0|2:0,0:0:0:0:
354,284,16691,2,0,B|359:320|330:344|330:344|293:352,1,105,8|0,0:0|0:0,0:0:0:0:
251,356,17014,6,0,L|181:349,1,70,8|0,2:0|0:0,0:0:0:0:
122,261,17336,1,8,0:0:0:0:
39,313,17498,2,0,L|31:382,2,70,0|8|8,0:0|2:0|2:0,0:0:0:0:
141,241,17981,2,0,L|133:172,1,70,8|8,0:0|2:0,0:0:0:0:
124,59,18304,6,0,B|194:73|194:73|228:134,1,140,8|8,2:0|0:0,0:0:0:0:
315,143,18788,1,0,0:0:0:0:
389,95,18949,2,0,P|422:88|454:101,1,70,8|8,2:0|2:0,0:0:0:0:
486,179,19272,2,0,B|480:218|447:233|447:233|411:231,1,105,8|8,0:0|2:0,0:0:0:0:
369,224,19594,6,0,B|321:252|273:229|273:229|225:254,1,154.000004699707,12|8,0:0|2:0,0:0:0:0:
142,312,20078,2,0,B|123:323|110:342|110:342|78:286|102:236,1,154.000004699707,8|8,0:0|2:0,0:0:0:0:
183,173,20562,2,0,P|197:138|190:100,1,77.0000023498536,8|8,0:0|2:0,0:0:0:0:
124,32,20885,6,0,B|190:61|190:61|253:30,1,140,4|8,1:0|0:0,0:0:0:0:
339,45,21369,1,0,0:0:0:0:
393,119,21530,2,0,P|403:152|393:185,1,70,8|8,2:0|2:0,0:0:0:0:
325,255,21852,2,0,B|314:288|314:288|330:356,1,105,8|0,0:0|0:0,0:0:0:0:
363,384,22175,6,0,L|432:379,2,70,8|0|8,2:0|0:0|0:0,0:0:0:0:
245,340,22659,2,0,L|176:335,2,70,0|8|8,0:0|2:0|2:0,0:0:0:0:
325,255,23143,2,0,L|394:250,1,70,8|8,0:0|2:0,0:0:0:0:
434,215,23385,1,8,2:0:0:0:
434,215,23465,6,0,B|463:154|463:154|434:88,1,140,8|8,2:0|0:0,0:0:0:0:
355,55,23949,1,0,0:0:0:0:
292,111,24110,2,0,P|259:121|226:111,1,70,8|8,2:0|2:0,0:0:0:0:
123,52,24433,2,0,B|90:34|55:52|55:52|47:97,1,105,8|8,0:0|2:0,0:0:0:0:
44,128,24756,6,0,L|37:197,2,70,12|8|8,0:0|2:0|2:0,0:0:0:0:
116,170,25239,2,0,P|115:237|63:281,1,140,8|8,0:0|2:0,0:0:0:0:
37,361,25723,2,0,P|74:366|106:354,1,70,8|8,0:0|2:0,0:0:0:0:
226,288,26046,6,0,P|225:322|232:357,1,70,8|0,3:0|0:0,0:0:0:0:
325,379,26369,2,0,P|339:314|337:239,1,140,8|0,2:0|0:0,0:0:0:0:
272,171,26852,1,8,3:0:0:0:
272,171,27014,2,0,P|237:170|202:177,1,70,8|0,2:0|0:0,0:0:0:0:
149,241,27336,5,8,3:0:0:0:
57,99,27659,1,8,2:0:0:0:
57,99,27820,2,0,B|91:85|123:97|123:97|158:111|193:96,1,140,0|8,0:0|3:0,0:0:0:0:
260,44,28304,2,0,P|294:37|329:37,1,70,8|8,2:0|3:0,0:0:0:0:
427,86,28627,6,0,P|426:120|433:155,1,70,8|0,3:0|0:0,0:0:0:0:
483,222,28949,1,8,2:0:0:0:
430,287,29110,1,0,0:0:0:0:
354,249,29272,2,0,L|344:213,2,35,0|0|8,0:0|0:0|3:0,0:0:0:0:
302,315,29594,6,0,P|303:349|296:384,1,70,8|0,2:0|0:0,0:0:0:0:
177,374,29917,2,0,P|163:309|165:234,1,140,0|8,0:0|2:0,0:0:0:0:
243,156,30401,1,0,0:0:0:0:
243,156,30562,2,0,P|209:157|174:150,1,70,0|8,0:0|2:0,0:0:0:0:
82,88,30885,1,8,2:0:0:0:
248,37,31207,6,0,P|282:30|317:30,1,70,8|0,3:0|0:0,0:0:0:0:
399,75,31530,2,0,P|401:144|386:213,1,140,8|0,2:0|0:0,0:0:0:0:
311,261,32014,1,8,3:0:0:0:
311,261,32176,2,0,P|276:262|241:255,1,70,8|0,2:0|0:0,0:0:0:0:
145,288,32498,5,8,3:0:0:0:
145,288,32659,2,0,B|130:253|144:218|144:218|156:186|142:152,2,140,0|0|8,0:0|0:0|3:0,0:0:0:0:
241,255,33465,1,8,2:0:0:0:
264,173,33627,1,8,3:0:0:0:
264,173,33707,1,0,0:0:0:0:
263,172,33788,6,0,P|254:104|207:53,1,140,8|8,3:0|2:0,0:0:0:0:
124,38,34272,1,0,0:0:0:0:
64,97,34433,2,0,L|24:90,2,35,0|0|8,0:0|0:0|3:0,0:0:0:0:
125,154,34756,2,0,P|126:189|119:224,1,70,8|0,2:0|0:0,0:0:0:0:
73,293,35078,5,0,0:0:0:0:
1,249,35239,1,8,3:0:0:0:
43,380,35401,2,0,P|77:385|111:376,1,70,8|0,2:0|0:0,0:0:0:0:
201,311,35723,1,0,0:0:0:0:
201,311,35804,1,0,0:0:0:0:
201,311,35885,2,0,L|195:263,2,35,8|8|8,2:0|2:0|2:0,0:0:0:0:
399,350,36369,6,0,P|432:291|415:224,1,140,6|8,2:0|2:0,0:0:0:0:
356,165,36852,2,0,B|321:150|286:164|286:164|254:176|220:162,1,140,2|8,2:0|3:0,0:0:0:0:
167,95,37336,1,8,2:0:0:0:
257,87,37498,1,0,0:0:0:0:
292,250,37820,6,0,P|258:258|223:253,1,70,2|8,2:0|2:0,0:0:0:0:
158,306,38143,2,0,P|100:271|34:288,1,140,2|8,2:0|3:0,0:0:0:0:
88,354,38627,1,8,2:0:0:0:
160,202,38949,6,0,B|178:173|178:173|163:68,1,140,2|8,2:0|2:0,0:0:0:0:
239,32,39433,2,0,P|304:14|363:49,1,140,2|8,2:0|3:0,0:0:0:0:
371,133,39917,1,8,2:0:0:0:
293,99,40078,1,0,0:0:0:0:
160,202,40401,6,0,P|194:210|229:205,1,70,2|8,2:0|2:0,0:0:0:0:
292,257,40724,2,0,P|358:239|417:275,1,140,2|8,2:0|2:0,0:0:0:0:
346,320,41207,1,8,2:0:0:0:
177,315,41530,6,0,B|159:286|159:286|174:181,1,140,2|8,2:0|2:0,0:0:0:0:
241,130,42014,2,0,B|202:147|171:131|171:131|138:118|105:133,1,140,2|8,2:0|3:0,0:0:0:0:
41,187,42498,1,8,2:0:0:0:
67,271,42659,1,0,0:0:0:0:
67,271,42981,6,0,L|136:273,1,70,2|8,2:0|2:0,0:0:0:0:
196,332,43304,2,0,B|227:313|227:313|330:309,1,140,2|8,2:0|3:0,0:0:0:0:
421,255,43788,1,8,2:0:0:0:
281,91,44110,6,0,B|184:75|184:75|144:89,1,140,2|8,2:0|2:0,0:0:0:0:
96,158,44594,2,0,B|81:191|94:224|94:224|110:255|93:294,1,140,2|8,2:0|3:0,0:0:0:0:
7,257,45078,1,2,2:0:0:0:
7,257,45159,1,0,0:0:0:0:
7,257,45239,1,0,0:0:0:0:
181,354,45562,6,0,L|250:347,1,70,2|8,2:0|2:0,0:0:0:0:
325,269,45885,2,0,L|256:263,1,70,2|0,2:0|0:0,0:0:0:0:
346,364,46207,2,0,P|414:315|417:231,1,175,2|0,2:0|0:0,0:0:0:0:
372,199,46691,1,8,2:0:0:0:
372,199,47014,1,8,2:0:0:0:
197,145,47336,6,0,L|203:214,1,70,4|0,2:0|3:0,0:0:0:0:
111,250,47659,2,0,L|117:181,1,70,0|0,3:0|3:0,0:0:0:0:
23,152,47981,1,0,3:0:0:0:
26,236,48143,1,8,2:0:0:0:
29,319,48304,1,8,2:0:0:0:
195,295,48627,6,0,B|230:285|230:285|261:295,1,70,8|0,2:0|3:0,0:0:0:0:
337,331,48949,2,0,B|372:341|372:341|403:330,1,70,0|0,3:0|3:0,0:0:0:0:
454,262,49272,2,0,L|456:227,5,35,0|0|0|0|0|0,0:0|0:0|0:0|0:0|0:0|0:0,0:0:0:0:
377,127,49917,6,0,B|346:103|346:103|245:107,1,140,8|0,2:0|3:0,0:0:0:0:
161,118,50401,2,0,P|112:165|113:234,1,140,8|0,2:0|3:0,0:0:0:0:
190,265,50885,2,0,P|198:231|188:198,1,70,8|0,2:0|3:0,0:0:0:0:
125,317,51207,5,8,2:0:0:0:
125,317,51369,2,0,P|184:349|249:327,1,140,8|0,2:0|3:0,0:0:0:0:
370,346,51852,1,8,2:0:0:0:
283,250,52014,2,0,B|312:230|312:230|416:237,1,140,8|0,2:0|0:0,0:0:0:0:
482,149,52498,6,0,L|491:77,1,70,8|0,2:0|3:0,0:0:0:0:
397,50,52820,2,0,L|405:122,1,70,0|0,3:0|3:0,0:0:0:0:
307,133,53143,2,0,L|315:60,1,70,0|0,3:0|3:0,0:0:0:0:
230,14,53465,1,8,2:0:0:0:
230,14,53627,1,0,3:0:0:0:
230,14,53788,2,0,P|194:6|160:17,1,70,8|0,2:0|3:0,0:0:0:0:
132,108,54110,2,0,P|168:116|202:105,1,70,0|0,3:0|3:0,0:0:0:0:
34,47,54433,5,12,2:0:0:0:
34,51,54756,1,8,2:0:0:0:
34,56,55078,1,8,2:0:0:0:
35,61,55401,1,8,2:0:0:0:
124,229,55723,5,8,2:0:0:0:
124,221,56046,1,8,2:0:0:0:
124,211,56368,1,8,2:0:0:0:
126,202,56691,1,8,2:0:0:0:
281,145,57014,6,0,L|350:139,2,70,8|8|8,0:0|2:0|2:0,0:0:0:0:
337,250,57498,2,0,L|476:236,2,140,8|8|0,0:0|0:0|0:0,0:0:0:0:
256,192,58223,12,4,59594,1:0:0:0:
125,295,60239,5,8,2:0:0:0:
264,303,60562,1,8,2:0:0:0:
403,311,60885,2,0,B|440:249|440:249|417:186,1,140,8|8,0:0|2:0,0:0:0:0:
364,119,61369,1,8,0:0:0:0:
444,54,61530,6,0,L|439:4,3,46.6666666666667,8|8|8|8,2:0|2:0|2:0|0:0,0:0:0:0:
281,52,62175,6,0,P|254:94|271:179,1,140,4|8,2:0|0:0,0:0:0:0:
342,222,62659,1,0,0:0:0:0:
302,296,62820,2,0,L|228:302,1,70,0|8,0:0|2:0,0:0:0:0:
173,245,63143,2,0,L|99:238,1,70,8|0,0:0|0:0,0:0:0:0:
28,307,63465,6,0,P|19:340|27:374,2,70,8|0|8,2:0|0:0|0:0,0:0:0:0:
104,239,63949,2,0,B|116:207|116:207|99:137,1,105,0|0,0:0|0:0,0:0:0:0:
72,105,64272,2,0,B|105:123|105:123|204:95,1,140,8|0,2:0|0:0,0:0:0:0:
304,140,64756,6,0,P|283:204|316:263,1,140,8|8,2:0|0:0,0:0:0:0:
367,196,65239,1,0,0:0:0:0:
445,227,65401,2,0,L|438:296,1,70,0|8,0:0|2:0,0:0:0:0:
379,355,65723,2,0,L|309:348,1,70,8|0,0:0|0:0,0:0:0:0:
209,300,66046,6,0,P|175:290|141:298,1,70,8|0,2:0|0:0,0:0:0:0:
73,348,66369,1,8,0:0:0:0:
10,292,66530,2,0,P|0:258|8:224,1,70,0|8,0:0|2:0,0:0:0:0:
80,180,66852,1,8,2:0:0:0:
80,180,66933,1,8,2:0:0:0:
80,180,67014,2,0,P|89:146|81:112,1,70,8|8,0:0|2:0,0:0:0:0:
18,57,67336,6,0,B|50:78|50:78|155:57,1,140,0|8,0:0|0:0,0:0:0:0:
231,37,67820,1,0,0:0:0:0:
313,20,67981,2,0,P|333:84|300:143,1,140,8|8,2:0|0:0,0:0:0:0:
227,186,68465,1,0,0:0:0:0:
179,255,68627,6,0,B|211:276|211:276|316:255,1,140,8|8,2:0|0:0,0:0:0:0:
391,232,69110,1,0,0:0:0:0:
467,268,69272,2,0,P|474:302|466:336,1,70,8|0,2:0|0:0,0:0:0:0:
372,378,69594,2,0,P|365:345|372:311,1,70,8|0,0:0|0:0,0:0:0:0:
461,189,69917,6,0,P|494:129|473:65,1,140,8|8,2:0|0:0,0:0:0:0:
407,121,70401,1,0,0:0:0:0:
319,62,70562,2,0,B|289:79|289:79|218:65|218:65|189:80,1,140,8|8,2:0|0:0,0:0:0:0:
122,132,71046,1,8,2:0:0:0:
26,97,71207,5,4,1:0:0:0:
26,97,71530,2,0,B|12:131|24:163|24:163|38:198|23:233,1,140,4|0,1:0|0:0,0:0:0:0:
57,332,72014,2,0,L|49:366,2,35,8|8|8,2:0|2:0|2:0,0:0:0:0:
125,256,72336,1,8,2:0:0:0:
191,307,72498,6,0,P|233:333|318:316,1,140,4|8,2:0|0:0,0:0:0:0:
347,239,72981,1,0,0:0:0:0:
256,248,73143,2,0,L|262:174,1,70,0|8,0:0|2:0,0:0:0:0:
332,113,73465,2,0,L|325:39,1,70,8|0,0:0|0:0,0:0:0:0:
217,91,73788,6,0,P|183:100|149:92,2,70,8|0|8,2:0|0:0|0:0,0:0:0:0:
325,43,74272,2,0,B|357:29|357:29|427:36,1,105,0|0,0:0|0:0,0:0:0:0:
469,40,74594,2,0,L|452:180,1,140,8|0,2:0|0:0,0:0:0:0:
426,289,75078,6,0,P|360:309|299:278,1,140,8|8,2:0|0:0,0:0:0:0:
282,192,75562,1,0,0:0:0:0:
200,208,75723,2,0,L|130:201,1,70,0|8,0:0|2:0,0:0:0:0:
83,271,76046,2,0,L|13:277,1,70,8|0,0:0|0:0,0:0:0:0:
58,366,76369,6,0,B|88:385|88:385|191:369,1,140,8|8,2:0|0:0,0:0:0:0:
269,337,76852,1,0,0:0:0:0:
342,378,77014,1,8,2:0:0:0:
416,328,77175,1,8,2:0:0:0:
416,328,77256,1,8,2:0:0:0:
416,328,77336,2,0,P|423:294|416:260,1,70,8|8,0:0|2:0,0:0:0:0:
333,172,77659,6,0,B|311:147|311:147|335:44,1,140,8|8,2:0|0:0,0:0:0:0:
261,2,78143,1,0,0:0:0:0:
239,83,78304,2,0,B|224:117|224:117|172:127|126:97,1,140,8|8,2:0|0:0,0:0:0:0:
77,27,78788,1,0,0:0:0:0:
17,114,78949,6,0,B|11:170|11:170|29:194|29:194|24:247,1,140,8|8,2:0|0:0,0:0:0:0:
12,336,79433,1,0,0:0:0:0:
97,363,79594,2,0,P|131:370|165:363,1,70,8|0,2:0|0:0,0:0:0:0:
226,304,79917,2,0,P|260:297|294:304,1,70,8|0,0:0|0:0,0:0:0:0:
371,384,80239,6,0,P|403:322|392:254,1,140,8|8,2:0|0:0,0:0:0:0:
310,210,80723,1,0,0:0:0:0:
364,126,80885,2,0,B|317:100|266:121|266:121|236:94,1,140,8|8,2:0|0:0,0:0:0:0:
157,41,81369,1,8,2:0:0:0:
45,107,81530,5,4,1:0:0:0:
45,107,81852,2,0,B|60:142|46:177|46:177|34:209|48:243,1,140,4|0,1:0|0:0,0:0:0:0:
138,317,82336,1,8,2:0:0:0:
138,317,82417,1,8,2:0:0:0:
138,317,82498,2,0,P|171:316|202:299,1,70,8|8,2:0|2:0,0:0:0:0:
262,188,82820,5,8,2:0:0:0:
256,192,82901,12,4,85401,2:0:0:0:
96,104,86046,6,0,P|87:137|95:171,1,70,0|8,0:0|2:0,0:0:0:0:
171,206,86369,1,8,0:0:0:0:
294,136,86691,6,0,L|363:130,1,70,8|0,2:0|0:0,0:0:0:0:
422,68,87014,2,0,P|398:132|415:199,1,140,8|0,0:0|0:0,0:0:0:0:
477,256,87498,1,8,2:0:0:0:
410,307,87659,2,0,L|341:301,1,70,8|8,0:0|2:0,0:0:0:0:
280,242,87981,6,0,B|247:223|247:223|146:239,1,140,8|8,2:0|0:0,0:0:0:0:
72,193,88465,1,0,0:0:0:0:
15,280,88627,2,0,P|10:296|12:314,2,35,0|0|8,0:0|0:0|2:0,0:0:0:0:
72,193,88949,2,0,P|80:160|72:126,1,70,8|0,0:0|0:0,0:0:0:0:
6,71,89272,5,0,0:0:0:0:
88,83,89433,1,8,2:0:0:0:
170,96,89594,2,0,B|274:110|274:110|307:95,1,140,8|0,0:0|0:0,0:0:0:0:
397,65,90078,1,8,2:0:0:0:
397,65,90159,1,8,2:0:0:0:
397,65,90239,2,0,P|406:98|399:132,1,70,8|0,0:0|0:0,0:0:0:0:
330,199,90562,6,0,B|308:226|308:226|324:329,1,140,8|8,2:0|0:0,0:0:0:0:
251,372,91046,1,0,0:0:0:0:
186,318,91207,2,0,P|152:309|118:317,1,70,0|8,0:0|2:0,0:0:0:0:
19,373,91530,1,8,0:0:0:0:
12,289,91691,1,0,0:0:0:0:
6,205,91852,6,0,L|74:211,1,70,8|0,2:0|0:0,0:0:0:0:
188,197,92175,2,0,B|176:163|176:163|195:59,1,140,8|0,0:0|0:0,0:0:0:0:
275,37,92659,1,8,2:0:0:0:
342,86,92820,1,8,0:0:0:0:
432,47,92981,1,8,2:0:0:0:
432,47,93062,1,0,0:0:0:0:
432,46,93143,6,0,P|522:117|414:155,1,280,8|0,2:0|0:0,0:0:0:0:
316,160,93949,1,8,2:0:0:0:
252,221,94110,2,0,P|248:256|260:289,1,70,8|0,0:0|0:0,0:0:0:0:
270,304,94594,5,8,3:0:0:0:
185,309,94756,1,8,3:0:0:0:
101,315,94917,1,8,2:0:0:0:
28,251,95078,6,0,P|23:217|34:184,1,70,8|8,2:0|2:0,0:0:0:0:
115,145,95401,2,0,B|132:117|132:117|124:45,1,105,8|0,3:0|0:0,0:0:0:0:
89,20,95723,5,4,2:0:0:0:
240,94,96046,1,8,0:0:0:0:
313,54,96207,1,0,0:0:0:0:
381,103,96369,2,0,L|375:171,1,70,0|0,0:0|0:0,0:0:0:0:
303,216,96691,2,0,L|309:284,1,70,8|0,0:0|0:0,0:0:0:0:
382,356,97014,6,0,B|350:333|350:333|251:354,1,140,8|8,2:0|0:0,0:0:0:0:
167,361,97498,1,0,0:0:0:0:
97,313,97659,2,0,P|89:279|97:245,1,70,0|8,0:0|2:0,0:0:0:0:
168,201,97981,2,0,P|175:167|167:133,1,70,8|8,0:0|2:0,0:0:0:0:
94,71,98304,5,8,2:0:0:0:
94,71,98627,2,0,B|125:88|125:88|229:70,1,140,8|0,0:0|0:0,0:0:0:0:
270,69,99030,1,0,0:0:0:0:
270,69,99110,1,8,2:0:0:0:
333,124,99272,2,0,L|402:117,1,70,8|0,0:0|0:0,0:0:0:0:
495,54,99594,5,0,0:0:0:0:
483,137,99756,1,8,2:0:0:0:
470,219,99917,2,0,B|465:254|465:254|362:242,1,140,8|0,0:0|0:0,0:0:0:0:
243,208,100401,1,8,2:0:0:0:
243,208,100481,1,8,2:0:0:0:
243,208,100562,2,0,P|209:218|184:242,1,70,8|0,0:0|0:0,0:0:0:0:
92,331,100885,6,0,B|54:343|54:343|38:244,1,140,8|8,2:0|0:0,0:0:0:0:
85,151,101369,1,0,0:0:0:0:
85,151,101530,2,0,P|150:161|191:108,1,140,0|8,0:0|0:0,0:0:0:0:
132,38,102014,1,0,0:0:0:0:
132,38,102175,6,0,B|156:63|156:63|260:52,1,140,8|8,2:0|0:0,0:0:0:0:
373,25,102659,1,0,0:0:0:0:
373,25,102820,2,0,P|422:69|406:134,1,140,0|8,0:0|0:0,0:0:0:0:
309,194,103304,1,8,2:0:0:0:
309,194,103385,1,0,0:0:0:0:
309,194,103465,6,0,P|275:186|241:194,1,70,8|0,2:0|0:0,0:0:0:0:
210,292,103788,2,0,B|245:307|278:292|278:292|313:306|345:290,1,140,8|0,0:0|0:0,0:0:0:0:
468,248,104272,2,0,B|479:283|479:283|470:316,2,70,8|8|0,2:0|2:0|0:0,0:0:0:0:
256,192,104756,12,8,105723,3:0:0:0:
216,109,106046,6,0,B|168:101|168:101|134:71|134:71|88:63,1,140,4|2,1:0|2:0,0:0:0:0:
13,121,106530,1,8,2:0:0:0:
94,166,106691,2,0,L|86:236,1,70,8|0,0:0|0:0,0:0:0:0:
49,327,107014,2,0,B|84:338|84:338|149:317,1,105,2|0,2:0|0:0,0:0:0:0:
174,286,107336,5,2,2:0:0:0:
254,311,107498,1,8,2:0:0:0:
333,336,107659,2,0,B|340:300|340:300|327:269,1,70,8|0,2:0|0:0,0:0:0:0:
257,223,107981,2,0,B|250:187|250:187|263:156,1,70,8|0,0:0|0:0,0:0:0:0:
324,81,108304,2,0,B|295:100|295:100|226:82,1,105,2|0,2:0|0:0,0:0:0:0:
186,69,108627,5,2,2:0:0:0:
111,107,108788,1,0,0:0:0:0:
36,145,108949,2,0,B|23:176|23:176|30:212,1,70,2|8,2:0|2:0,0:0:0:0:
113,264,109272,2,0,B|126:295|126:295|113:365,1,105,8|0,0:0|0:0,0:0:0:0:
74,381,109594,1,2,2:0:0:0:
232,294,109917,6,0,P|266:292|296:310,1,70,2|0,2:0|0:0,0:0:0:0:
346,243,110239,2,0,P|373:264|384:296,1,70,8|0,2:0|0:0,0:0:0:0:
466,275,110562,2,0,P|473:308|461:341,2,70,8|8|2,0:0|2:0|2:0,0:0:0:0:
428,199,111046,1,0,0:0:0:0:
390,123,111207,6,0,B|351:68|351:68|209:86,1,210,8|0,2:0|0:0,0:0:0:0:
111,122,111852,2,0,B|104:86|104:86|117:55,2,70,8|0|2,0:0|0:0|2:0,0:0:0:0:
211,266,112498,6,0,L|189:332,1,70,2|8,2:0|2:0,0:0:0:0:
106,347,112820,2,0,L|59:294,1,70,8|0,2:0|0:0,0:0:0:0:
83,213,113143,2,0,L|151:199,2,70,8|0|2,0:0|0:0|2:0,0:0:0:0:
204,94,113788,5,8,2:0:0:0:
204,94,113949,2,0,P|230:130|319:128,1,140,0|8,0:0|2:0,0:0:0:0:
377,68,114433,2,0,B|357:98|357:98|379:199,1,140,8|2,0:0|2:0,0:0:0:0:
408,278,114917,1,8,0:0:0:0:
328,303,115078,6,0,B|297:290|297:290|264:304,1,70,2|0,2:0|0:0,0:0:0:0:
190,262,115401,2,0,B|159:275|159:275|126:261,1,70,8|0,2:0|0:0,0:0:0:0:
51,299,115723,2,0,P|39:332|48:365,2,70,8|8|2,0:0|2:0|2:0,0:0:0:0:
169,169,116369,5,4,1:0:0:0:
169,169,116530,1,0,0:0:0:0:
106,112,116691,2,0,L|72:116,2,35,8|0|0,0:0|0:0|0:0,0:0:0:0:
157,32,117014,2,0,L|132:8,2,35,8|8|8,3:0|3:0|2:0,0:0:0:0:
238,74,117336,1,8,0:0:0:0:
316,27,117498,1,0,0:0:0:0:
362,118,117659,6,0,L|369:155,2,35,8|8|8,2:0|3:0|3:0,0:0:0:0:
429,40,117981,2,0,B|464:33|464:33|489:57,1,70,8|2,0:0|2:0,0:0:0:0:
463,137,118304,2,0,B|452:209|452:209|424:229,1,105,2|0,2:0|0:0,0:0:0:0:
385,242,118627,2,0,L|379:276,3,35,8|8|8|8,0:0|3:0|2:0|3:0,0:0:0:0:
351,308,118949,6,0,B|320:322|320:322|285:310,1,70,8|0,2:0|0:0,0:0:0:0:
238,240,119272,2,0,B|207:226|207:226|172:238,1,70,8|2,0:0|2:0,0:0:0:0:
85,308,119594,1,0,0:0:0:0:
61,226,119756,1,8,2:0:0:0:
38,145,119917,1,8,0:0:0:0:
136,88,120078,1,8,3:0:0:0:
136,88,120159,1,8,3:0:0:0:
136,88,120239,6,0,B|167:103|167:103|272:82,1,140,8|8,0:0|2:0,0:0:0:0:
362,34,120723,2,0,B|380:76|380:76|363:120|363:120|376:166,1,140,8|8,0:0|2:0,0:0:0:0:
397,202,121127,1,8,3:0:0:0:
397,202,121207,1,8,0:0:0:0:
248,326,121530,6,0,L|179:319,1,70,8|0,2:0|0:0,0:0:0:0:
123,255,121852,2,0,B|55:261|55:261|41:186|77:123,1,210,8|8,0:0|2:0,0:0:0:0:
151,75,122498,2,0,L|171:141,1,70,8|0,0:0|0:0,0:0:0:0:
289,119,122820,5,8,2:0:0:0:
289,119,122901,1,8,3:0:0:0:
289,119,122981,2,0,L|286:153,4,35,8|8|8|8|8,3:0|3:0|0:0|3:0|3:0,0:0:0:0:
370,77,123465,2,0,L|446:83,1,70,2|8,2:0|2:0,0:0:0:0:
488,160,123788,2,0,B|501:195|501:195|487:261,1,105,8|0,0:0|0:0,0:0:0:0:
256,192,124110,12,8,126369,0:0:0:0:
210,274,126691,6,0,L|72:293,2,140,0|0|8,0:0|0:0|0:0,0:0:0:0:
391,187,127981,2,0,P|399:252|463:268,2,140,8|8|8,2:0|2:0|0:0,0:0:0:0:
252,93,129272,6,0,B|220:74|220:74|115:89,1,140,8|0,2:0|0:0,0:0:0:0:
86,166,129756,1,8,2:0:0:0:
85,165,129917,2,0,P|90:234|141:279,1,140,8|0,0:0|0:0,0:0:0:0:
225,278,130401,1,8,2:0:0:0:
225,278,130562,2,0,L|363:265,2,140,8|8|8,2:0|2:0|0:0,0:0:0:0:
214,194,131369,2,0,L|352:181,1,140,8|0,2:0|0:0,0:0:0:0:
404,114,131852,5,8,2:0:0:0:
248,48,132175,2,0,L|178:54,1,70,0|0,0:0|0:0,0:0:0:0:
94,64,132498,1,8,0:0:0:0:
29,218,132820,1,0,0:0:0:0:
99,262,132981,2,0,P|166:238|228:269,2,140,8|8|8,2:0|2:0|2:0,0:0:0:0:
29,218,133788,2,0,L|19:148,2,70,8|0|0,0:0|0:0|0:0,0:0:0:0:
184,154,134433,6,0,P|279:193|326:284,1,210,8|8,2:0|2:0,0:0:0:0:
381,348,135078,1,8,0:0:0:0:
435,191,135401,2,0,L|442:120,1,70,8|8,2:0|2:0,0:0:0:0:
450,37,135723,5,4,1:0:0:0:
450,37,136046,2,0,B|416:51|384:39|384:39|349:25|314:40,1,140,4|0,1:0|0:0,0:0:0:0:
225,108,136530,2,0,L|229:143,2,35,8|8|8,2:0|2:0|2:0,0:0:0:0:
131,44,136852,1,8,2:0:0:0:
99,40,136933,1,8,2:0:0:0:
67,38,137014,6,0,P|40:80|57:165,1,140,4|8,2:0|0:0,0:0:0:0:
132,215,137498,1,0,0:0:0:0:
149,304,137659,2,0,P|151:338|134:370,1,70,0|8,0:0|2:0,0:0:0:0:
62,313,137981,1,8,0:0:0:0:
222,235,138304,6,0,L|291:239,2,70,8|0|8,2:0|0:0|0:0,0:0:0:0:
245,326,138788,2,0,B|311:331|311:331|345:312,1,105,0|0,0:0|0:0,0:0:0:0:
380,288,139110,2,0,P|447:279|508:321,1,140,8|0,2:0|0:0,0:0:0:0:
426,370,139594,5,8,2:0:0:0:
377,189,139917,1,8,0:0:0:0:
444,128,140078,2,0,P|455:95|450:61,1,70,0|0,0:0|0:0,0:0:0:0:
362,88,140401,2,0,B|334:65|334:65|230:73,1,140,8|0,2:0|0:0,0:0:0:0:
164,151,140885,6,0,P|104:155|51:99,1,140,8|8,2:0|0:0,0:0:0:0:
6,188,141369,2,0,L|1:257,1,70,0|8,0:0|2:0,0:0:0:0:
13,364,141691,1,8,2:0:0:0:
96,371,141852,1,8,0:0:0:0:
180,378,142014,1,8,2:0:0:0:
247,280,142175,6,0,P|313:259|373:291,1,140,8|8,2:0|0:0,0:0:0:0:
430,367,142659,1,0,0:0:0:0:
430,367,142820,2,0,L|424:227,1,140,8|8,2:0|0:0,0:0:0:0:
482,138,143304,1,0,0:0:0:0:
482,138,143465,6,0,B|458:109|458:109|355:116,1,140,8|8,2:0|0:0,0:0:0:0:
288,177,143949,1,0,0:0:0:0:
190,157,144110,2,0,L|197:227,1,70,8|0,2:0|0:0,0:0:0:0:
131,290,144433,2,0,L|124:359,1,70,8|0,0:0|0:0,0:0:0:0:
31,319,144756,6,0,P|9:254|37:191,1,140,8|8,2:0|0:0,0:0:0:0:
99,126,145239,1,0,0:0:0:0:
170,66,145401,2,0,P|180:33|172:-1,2,70,8|0|8,2:0|0:0|0:0,0:0:0:0:
103,127,145885,1,8,2:0:0:0:
184,205,146046,5,4,1:0:0:0:
184,205,146369,2,0,B|218:219|250:207|250:207|285:193|320:208,1,140,4|0,1:0|0:0,0:0:0:0:
394,282,146852,1,8,2:0:0:0:
394,282,146933,1,8,2:0:0:0:
394,282,147014,2,0,P|396:319|384:348,1,70,8|8,2:0|2:0,0:0:0:0:
283,301,147336,5,8,2:0:0:0:
256,192,147417,12,8,149594,0:0:0:0:
147,80,149917,6,0,B|192:70|192:70|235:84|235:84|281:72,1,140,8|8,0:0|2:0,0:0:0:0:
383,34,150401,2,0,B|417:22|417:22|409:129,1,140,8|8,0:0|2:0,0:0:0:0:
402,209,150885,1,8,0:0:0:0:
327,247,151046,1,8,2:0:0:0:
228,183,151207,6,0,B|191:178|191:178|163:196,1,70,8|8,0:0|2:0,0:0:0:0:
91,268,151530,2,0,B|128:263|128:263|156:281,1,70,8|8,0:0|2:0,0:0:0:0:
218,335,151852,1,8,0:0:0:0:
320,151,152175,5,4,2:0:0:0:
320,151,152336,1,4,2:0:0:0:
256,192,152498,12,0,154433,0:0:0:0:
