osu file format v14

[General]
AudioFilename: the day.mp3
AudioLeadIn: 0
PreviewTime: 26122
Countdown: 0
SampleSet: Normal
StackLeniency: 0.7
Mode: 3
LetterboxInBreaks: 0
SpecialStyle: 0
WidescreenStoryboard: 1

[Editor]
DistanceSpacing: 1
BeatDivisor: 4
GridSize: 4
TimelineZoom: 2.5

[Metadata]
Title:The Day feat. Aruvn (dj-Jo Remix) Extended Version
TitleUnicode:The Day feat. Aruvn (dj-Jo Remix) Extended Version
Artist:Porno Graffiti
ArtistUnicode:Porno Graffiti
Creator:ExNeko
Version:Stage 1: Reborn
Source:僕のヒーローアカデミア
Tags:
BeatmapID:2014099
BeatmapSetID:961881

[Difficulty]
HPDrainRate:7
CircleSize:4
OverallDifficulty:9.5
ApproachRate:5
SliderMultiplier:1.4
SliderTickRate:1

[Events]
//Background and Video events
0,0,"hero.jpg",0,0
//Break Periods
//Storyboard Layer 0 (Background)
//Storyboard Layer 1 (Fail)
//Storyboard Layer 2 (Pass)
//Storyboard Layer 3 (Foreground)
//Storyboard Sound Samples

[TimingPoints]
316,322.58064516129,4,1,1,0,1,0
15799,-100,4,1,1,0,0,1
26101,-1000,4,1,1,0,0,1
26122,-100,4,1,1,0,0,0
36445,-52.6315789473684,4,1,1,0,0,0
36465,-1000,4,1,1,0,0,0
36485,-52.6315789473684,4,1,1,0,0,0
36505,-1000,4,1,1,0,0,0
36525,-52.6315789473684,4,1,1,0,0,0
36545,-1000,4,1,1,0,0,0
36565,-52.6315789473684,4,1,1,0,0,0
36585,-1000,4,1,1,0,0,0
36606,-100,4,1,1,0,0,0
36928,-52.6315789473684,4,1,1,0,0,0
36948,-1000,4,1,1,0,0,0
36968,-52.6315789473684,4,1,1,0,0,0
36988,-1000,4,1,1,0,0,0
37008,-52.6315789473684,4,1,1,0,0,0
37028,-1000,4,1,1,0,0,0
37048,-52.6315789473684,4,1,1,0,0,0
37068,-1000,4,1,1,0,0,0
37090,-52.6315789473684,4,1,1,0,0,0
37110,-1000,4,1,1,0,0,0
37130,-52.6315789473684,4,1,1,0,0,0
37150,-1000,4,1,1,0,0,0
37170,-52.6315789473684,4,1,1,0,0,0
37190,-1000,4,1,1,0,0,0
37210,-52.6315789473684,4,1,1,0,0,0
37230,-1000,4,1,1,0,0,0
37251,-100,4,1,1,0,0,0
37896,-52.6315789473684,4,1,1,0,0,0
37916,-1000,4,1,1,0,0,0
37936,-52.6315789473684,4,1,1,0,0,0
37956,-1000,4,1,1,0,0,0
37976,-52.6315789473684,4,1,1,0,0,0
37996,-1000,4,1,1,0,0,0
38016,-52.6315789473684,4,1,1,0,0,0
38036,-1000,4,1,1,0,0,0
38057,-100,4,1,1,0,0,0
38219,-52.6315789473684,4,1,1,0,0,0
38239,-1000,4,1,1,0,0,0
38259,-52.6315789473684,4,1,1,0,0,0
38279,-1000,4,1,1,0,0,0
38299,-52.6315789473684,4,1,1,0,0,0
38319,-1000,4,1,1,0,0,0
38339,-52.6315789473684,4,1,1,0,0,0
38359,-1000,4,1,1,0,0,0
38380,-100,4,1,1,0,0,0
39025,-52.6315789473684,4,1,1,0,0,0
39045,-1000,4,1,1,0,0,0
39065,-52.6315789473684,4,1,1,0,0,0
39085,-1000,4,1,1,0,0,0
39105,-52.6315789473684,4,1,1,0,0,0
39125,-1000,4,1,1,0,0,0
39145,-52.6315789473684,4,1,1,0,0,0
39165,-1000,4,1,1,0,0,0
39186,-100,4,1,1,0,0,0
39509,-52.6315789473684,4,1,1,0,0,0
39529,-1000,4,1,1,0,0,0
39549,-52.6315789473684,4,1,1,0,0,0
39569,-1000,4,1,1,0,0,0
39589,-52.6315789473684,4,1,1,0,0,0
39609,-1000,4,1,1,0,0,0
39629,-52.6315789473684,4,1,1,0,0,0
39649,-1000,4,1,1,0,0,0
39670,-52.6315789473684,4,1,1,0,0,0
39690,-1000,4,1,1,0,0,0
39710,-52.6315789473684,4,1,1,0,0,0
39730,-1000,4,1,1,0,0,0
39750,-52.6315789473684,4,1,1,0,0,0
39770,-1000,4,1,1,0,0,0
39790,-52.6315789473684,4,1,1,0,0,0
39810,-1000,4,1,1,0,0,0
39831,-100,4,1,1,0,0,0
40477,-52.6315789473684,4,1,1,0,0,0
40497,-1000,4,1,1,0,0,0
40517,-52.6315789473684,4,1,1,0,0,0
40537,-1000,4,1,1,0,0,0
40557,-52.6315789473684,4,1,1,0,0,0
40577,-1000,4,1,1,0,0,0
40597,-52.6315789473684,4,1,1,0,0,0
40617,-1000,4,1,1,0,0,0
40638,-100,4,1,1,0,0,0
40799,-52.6315789473684,4,1,1,0,0,0
40819,-1000,4,1,1,0,0,0
40839,-52.6315789473684,4,1,1,0,0,0
40859,-1000,4,1,1,0,0,0
40879,-52.6315789473684,4,1,1,0,0,0
40899,-1000,4,1,1,0,0,0
40919,-52.6315789473684,4,1,1,0,0,0
40939,-1000,4,1,1,0,0,0
40960,-100,4,1,1,0,0,0
41606,-52.6315789473684,4,1,1,0,0,0
41626,-1000,4,1,1,0,0,0
41646,-52.6315789473684,4,1,1,0,0,0
41666,-1000,4,1,1,0,0,0
41686,-52.6315789473684,4,1,1,0,0,0
41706,-1000,4,1,1,0,0,0
41726,-52.6315789473684,4,1,1,0,0,0
41746,-1000,4,1,1,0,0,0
41767,-100,4,1,1,0,0,0
42090,-52.6315789473684,4,1,1,0,0,0
42110,-1000,4,1,1,0,0,0
42130,-52.6315789473684,4,1,1,0,0,0
42150,-1000,4,1,1,0,0,0
42170,-52.6315789473684,4,1,1,0,0,0
42190,-1000,4,1,1,0,0,0
42210,-52.6315789473684,4,1,1,0,0,0
42230,-1000,4,1,1,0,0,0
42251,-52.6315789473684,4,1,1,0,0,0
42271,-1000,4,1,1,0,0,0
42291,-52.6315789473684,4,1,1,0,0,0
42311,-1000,4,1,1,0,0,0
42331,-52.6315789473684,4,1,1,0,0,0
42351,-1000,4,1,1,0,0,0
42371,-52.6315789473684,4,1,1,0,0,0
42391,-1000,4,1,1,0,0,0
42412,-100,4,1,1,0,0,0
43057,-52.6315789473684,4,1,1,0,0,0
43077,-1000,4,1,1,0,0,0
43097,-52.6315789473684,4,1,1,0,0,0
43117,-1000,4,1,1,0,0,0
43137,-52.6315789473684,4,1,1,0,0,0
43157,-1000,4,1,1,0,0,0
43177,-52.6315789473684,4,1,1,0,0,0
43197,-1000,4,1,1,0,0,0
43218,-100,4,1,1,0,0,0
43380,-52.6315789473684,4,1,1,0,0,0
43400,-1000,4,1,1,0,0,0
43420,-52.6315789473684,4,1,1,0,0,0
43440,-1000,4,1,1,0,0,0
43460,-52.6315789473684,4,1,1,0,0,0
43480,-1000,4,1,1,0,0,0
43500,-52.6315789473684,4,1,1,0,0,0
43520,-1000,4,1,1,0,0,0
43541,-100,4,1,1,0,0,0
44186,-52.6315789473684,4,1,1,0,0,0
44206,-1000,4,1,1,0,0,0
44226,-52.6315789473684,4,1,1,0,0,0
44246,-1000,4,1,1,0,0,0
44266,-52.6315789473684,4,1,1,0,0,0
44286,-1000,4,1,1,0,0,0
44306,-52.6315789473684,4,1,1,0,0,0
44326,-1000,4,1,1,0,0,0
44347,-100,4,1,1,0,0,0
44670,-52.6315789473684,4,1,1,0,0,0
44690,-1000,4,1,1,0,0,0
44710,-52.6315789473684,4,1,1,0,0,0
44730,-1000,4,1,1,0,0,0
44750,-52.6315789473684,4,1,1,0,0,0
44770,-1000,4,1,1,0,0,0
44790,-52.6315789473684,4,1,1,0,0,0
44810,-1000,4,1,1,0,0,0
44832,-52.6315789473684,4,1,1,0,0,0
44852,-1000,4,1,1,0,0,0
44872,-52.6315789473684,4,1,1,0,0,0
44892,-1000,4,1,1,0,0,0
44912,-52.6315789473684,4,1,1,0,0,0
44932,-1000,4,1,1,0,0,0
44952,-52.6315789473684,4,1,1,0,0,0
44972,-1000,4,1,1,0,0,0
44993,-100,4,1,1,0,0,0
45638,-52.6315789473684,4,1,1,0,0,0
45658,-1000,4,1,1,0,0,0
45678,-52.6315789473684,4,1,1,0,0,0
45698,-1000,4,1,1,0,0,0
45718,-52.6315789473684,4,1,1,0,0,0
45738,-1000,4,1,1,0,0,0
45758,-52.6315789473684,4,1,1,0,0,0
45778,-1000,4,1,1,0,0,0
45799,-100,4,1,1,0,0,0
45961,-52.6315789473684,4,1,1,0,0,0
45981,-1000,4,1,1,0,0,0
46001,-52.6315789473684,4,1,1,0,0,0
46021,-1000,4,1,1,0,0,0
46041,-52.6315789473684,4,1,1,0,0,0
46061,-1000,4,1,1,0,0,0
46081,-52.6315789473684,4,1,1,0,0,0
46101,-1000,4,1,1,0,0,0
46122,-100,4,1,1,0,0,0
46283,-52.6315789473684,4,1,1,0,0,0
46303,-1000,4,1,1,0,0,0
46323,-52.6315789473684,4,1,1,0,0,0
46343,-1000,4,1,1,0,0,0
46363,-52.6315789473684,4,1,1,0,0,0
46383,-1000,4,1,1,0,0,0
46403,-52.6315789473684,4,1,1,0,0,0
46423,-1000,4,1,1,0,0,0
46445,-52.6315789473684,4,1,1,0,0,0
46465,-1000,4,1,1,0,0,0
46485,-52.6315789473684,4,1,1,0,0,0
46505,-1000,4,1,1,0,0,0
46525,-52.6315789473684,4,1,1,0,0,0
46545,-1000,4,1,1,0,0,0
46565,-52.6315789473684,4,1,1,0,0,0
46585,-1000,4,1,1,0,0,0
46606,-52.6315789473684,4,1,1,0,0,0
46626,-1000,4,1,1,0,0,0
46646,-52.6315789473684,4,1,1,0,0,0
46666,-1000,4,1,1,0,0,0
46686,-52.6315789473684,4,1,1,0,0,0
46706,-1000,4,1,1,0,0,0
46726,-52.6315789473684,4,1,1,0,0,0
46746,-1000,4,1,1,0,0,0
46767,-100,4,1,1,0,0,0
46928,-200,4,1,1,0,0,0
47008,-66.6666666666667,4,1,1,0,0,0
47090,-111.111111111111,4,1,1,0,0,0
47251,-200,4,1,1,0,0,0
47331,-66.6666666666667,4,1,1,0,0,0
47412,-90.9090909090909,4,1,1,0,0,0
49348,-400,4,1,1,0,0,0
49670,-111.111111111111,4,1,1,0,0,0
49751,-66.6666666666667,4,1,1,0,0,0
49832,-200,4,1,1,0,0,0
49912,-66.6666666666667,4,1,1,0,0,0
49993,-90.9090909090909,4,1,1,0,0,0
51928,-200,4,1,1,0,0,0
52009,-66.6666666666667,4,1,1,0,0,0
52090,-400,4,1,1,0,0,0
52412,-111.111111111111,4,1,1,0,0,0
52493,-66.6666666666667,4,1,1,0,0,0
52574,-90.9090909090909,4,1,1,0,0,0
54510,-100,4,1,1,0,0,0
59670,-111.111111111111,4,1,1,0,0,0
59832,-100,4,1,1,0,0,0
59993,-90.9090909090909,4,1,1,0,0,0
60154,-111.111111111111,4,1,1,0,0,0
60316,-100,4,1,1,0,0,0
60477,-90.9090909090909,4,1,1,0,0,0
60638,-111.111111111111,4,1,1,0,0,0
60800,-100,4,1,1,0,0,0
60961,-100,4,1,1,0,0,0
94348,-1000,4,1,1,0,0,0
94509,-100,4,1,1,0,0,0
104791,-52.6315789473684,4,1,1,0,0,0
104811,-1000,4,1,1,0,0,0
104832,-100,4,1,1,0,0,0
104953,-52.6315789473684,4,1,1,0,0,0
104973,-1000,4,1,1,0,0,0
104994,-100,4,1,1,0,0,0
105114,-52.6315789473684,4,1,1,0,0,0
105134,-1000,4,1,1,0,0,0
105155,-100,4,1,1,0,0,0
105275,-52.6315789473684,4,1,1,0,0,0
105295,-1000,4,1,1,0,0,0
105316,-100,4,1,1,0,0,0
105436,-52.6315789473684,4,1,1,0,0,0
105456,-1000,4,1,1,0,0,0
105477,-100,4,1,1,0,0,0
105598,-52.6315789473684,4,1,1,0,0,0
105618,-1000,4,1,1,0,0,0
105639,-100,4,1,1,0,0,0
105759,-52.6315789473684,4,1,1,0,0,0
105779,-1000,4,1,1,0,0,0
105800,-100,4,1,1,0,0,0
106122,-100,4,1,1,0,0,1
126767,-133.333333333333,4,1,1,0,0,0
131928,-125,4,1,1,0,0,0
134509,-111.111111111111,4,1,1,0,0,0
136122,-100,4,1,1,0,0,0
151928,-1000,4,1,1,0,0,0
152089,-100,4,1,1,0,0,0

[HitObjects]
448,192,154,5,0,0:0:0:0:
64,192,154,1,0,0:0:0:0:
192,192,235,1,0,0:0:0:0:
448,192,316,1,0,0:0:0:0:
64,192,316,1,0,0:0:0:0:
320,192,316,128,0,638:0:0:0:0:
448,192,638,128,0,799:0:0:0:0:
192,192,799,128,0,961:0:0:0:0:
448,192,961,128,0,1122:0:0:0:0:
192,192,1122,128,0,1283:0:0:0:0:
320,192,1445,128,0,1606:0:0:0:0:
64,192,1767,128,0,1928:0:0:0:0:
192,192,2090,128,0,2574:0:0:0:0:
320,192,2574,1,0,0:0:0:0:
448,192,2574,1,0,0:0:0:0:
64,192,2574,1,0,0:0:0:0:
192,192,2735,1,0,0:0:0:0:
320,192,2735,1,0,0:0:0:0:
64,192,2896,1,0,0:0:0:0:
192,192,2896,1,0,0:0:0:0:
448,192,2896,128,0,4186:0:0:0:0:
320,192,4186,128,0,5477:0:0:0:0:
192,192,5477,128,0,6767:0:0:0:0:
64,192,6767,128,0,8057:0:0:0:0:
320,192,7896,1,0,0:0:0:0:
448,192,7896,1,0,0:0:0:0:
448,192,8057,1,0,0:0:0:0:
320,192,8057,1,0,0:0:0:0:
192,192,8057,128,0,9348:0:0:0:0:
320,192,9348,128,0,10638:0:0:0:0:
448,192,9348,1,0,0:0:0:0:
64,192,9348,1,0,0:0:0:0:
64,192,10638,128,0,11928:0:0:0:0:
192,192,10638,1,0,0:0:0:0:
448,192,10638,1,0,0:0:0:0:
448,192,11928,128,0,12090:0:0:0:0:
192,192,11928,1,0,0:0:0:0:
320,192,11928,1,0,0:0:0:0:
192,192,12251,1,0,0:0:0:0:
320,192,12251,1,0,0:0:0:0:
448,192,12251,128,0,12896:0:0:0:0:
64,192,12896,1,0,0:0:0:0:
320,192,13219,1,0,0:0:0:0:
448,192,13219,1,0,0:0:0:0:
192,192,13380,1,0,0:0:0:0:
192,192,13541,1,0,0:0:0:0:
448,192,13703,1,0,0:0:0:0:
64,192,13703,1,0,0:0:0:0:
320,192,13864,1,0,0:0:0:0:
320,192,14025,1,0,0:0:0:0:
64,192,14186,1,0,0:0:0:0:
192,192,14186,1,0,0:0:0:0:
448,192,14348,1,0,0:0:0:0:
448,192,14509,1,0,0:0:0:0:
192,192,14670,1,0,0:0:0:0:
320,192,14670,1,0,0:0:0:0:
64,192,14832,1,0,0:0:0:0:
64,192,14993,1,0,0:0:0:0:
448,192,15154,1,0,0:0:0:0:
320,192,15235,1,0,0:0:0:0:
192,192,15315,1,0,0:0:0:0:
64,192,15396,1,0,0:0:0:0:
448,192,15477,1,0,0:0:0:0:
320,192,15477,1,0,0:0:0:0:
64,192,15799,1,0,0:0:0:0:
192,192,15820,1,0,0:0:0:0:
448,192,15961,1,0,0:0:0:0:
320,192,15981,1,0,0:0:0:0:
192,192,16122,1,0,0:0:0:0:
64,192,16122,1,0,0:0:0:0:
320,192,16283,1,0,0:0:0:0:
448,192,16445,1,0,0:0:0:0:
320,192,16465,1,0,0:0:0:0:
64,192,16606,1,0,0:0:0:0:
192,192,16626,1,0,0:0:0:0:
448,192,16767,1,0,0:0:0:0:
64,192,16767,1,0,0:0:0:0:
192,192,16928,1,0,0:0:0:0:
320,192,17090,1,0,0:0:0:0:
448,192,17110,1,0,0:0:0:0:
192,192,17251,1,0,0:0:0:0:
64,192,17271,1,0,0:0:0:0:
448,192,17412,1,0,0:0:0:0:
320,192,17412,1,0,0:0:0:0:
64,192,17574,1,0,0:0:0:0:
320,192,17735,1,0,0:0:0:0:
448,192,17755,1,0,0:0:0:0:
64,192,17896,1,0,0:0:0:0:
192,192,17916,1,0,0:0:0:0:
448,192,18057,1,0,0:0:0:0:
320,192,18057,1,0,0:0:0:0:
64,192,18219,1,0,0:0:0:0:
192,192,18380,1,0,0:0:0:0:
320,192,18400,1,0,0:0:0:0:
448,192,18541,1,0,0:0:0:0:
320,192,18561,1,0,0:0:0:0:
192,192,18703,1,0,0:0:0:0:
64,192,18703,1,0,0:0:0:0:
64,192,18945,1,0,0:0:0:0:
448,192,19025,1,0,0:0:0:0:
320,192,19045,1,0,0:0:0:0:
64,192,19186,1,0,0:0:0:0:
192,192,19207,1,0,0:0:0:0:
64,192,19348,1,0,0:0:0:0:
192,192,19348,1,0,0:0:0:0:
320,192,19509,1,0,0:0:0:0:
64,192,19670,1,0,0:0:0:0:
320,192,19670,1,0,0:0:0:0:
448,192,19690,1,0,0:0:0:0:
64,192,19832,1,0,0:0:0:0:
192,192,19852,1,0,0:0:0:0:
320,192,19993,1,0,0:0:0:0:
448,192,20013,1,0,0:0:0:0:
192,192,20154,1,0,0:0:0:0:
448,192,20154,1,0,0:0:0:0:
64,192,20174,1,0,0:0:0:0:
320,192,20315,1,0,0:0:0:0:
192,192,20336,1,0,0:0:0:0:
448,192,20477,1,0,0:0:0:0:
320,192,20497,1,0,0:0:0:0:
320,192,20638,1,0,0:0:0:0:
64,192,20638,1,0,0:0:0:0:
192,192,20658,1,0,0:0:0:0:
448,192,20799,1,0,0:0:0:0:
320,192,20820,1,0,0:0:0:0:
320,192,20961,1,0,0:0:0:0:
192,192,20981,1,0,0:0:0:0:
64,192,21122,1,0,0:0:0:0:
192,192,21142,1,0,0:0:0:0:
64,192,21283,1,0,0:0:0:0:
320,192,21283,1,0,0:0:0:0:
448,192,21445,1,0,0:0:0:0:
64,192,21606,1,0,0:0:0:0:
192,192,21626,1,0,0:0:0:0:
320,192,21767,1,0,0:0:0:0:
192,192,21787,1,0,0:0:0:0:
64,192,21928,1,0,0:0:0:0:
448,192,21928,1,0,0:0:0:0:
320,192,22090,1,0,0:0:0:0:
192,192,22251,1,0,0:0:0:0:
64,192,22271,1,0,0:0:0:0:
320,192,22412,1,0,0:0:0:0:
448,192,22432,1,0,0:0:0:0:
64,192,22574,1,0,0:0:0:0:
192,192,22574,1,0,0:0:0:0:
448,192,22735,1,0,0:0:0:0:
192,192,22896,1,0,0:0:0:0:
64,192,22916,1,0,0:0:0:0:
448,192,23057,1,0,0:0:0:0:
320,192,23078,1,0,0:0:0:0:
192,192,23219,1,0,0:0:0:0:
64,192,23219,1,0,0:0:0:0:
448,192,23380,1,0,0:0:0:0:
320,192,23541,1,0,0:0:0:0:
192,192,23561,1,0,0:0:0:0:
64,192,23703,1,0,0:0:0:0:
192,192,23723,1,0,0:0:0:0:
320,192,23864,1,0,0:0:0:0:
64,192,23864,1,0,0:0:0:0:
192,192,24025,1,0,0:0:0:0:
64,192,24186,1,0,0:0:0:0:
192,192,24207,1,0,0:0:0:0:
320,192,24348,1,0,0:0:0:0:
192,192,24368,1,0,0:0:0:0:
448,192,24509,1,0,0:0:0:0:
64,192,24509,1,0,0:0:0:0:
320,192,24670,1,0,0:0:0:0:
64,192,24832,1,0,0:0:0:0:
192,192,24832,1,0,0:0:0:0:
320,192,24993,1,0,0:0:0:0:
64,192,25013,1,0,0:0:0:0:
448,192,25154,1,0,0:0:0:0:
192,192,25174,1,0,0:0:0:0:
320,192,25315,1,0,0:0:0:0:
64,192,25315,1,0,0:0:0:0:
448,192,25336,1,0,0:0:0:0:
192,192,25477,1,0,0:0:0:0:
64,192,25497,1,0,0:0:0:0:
320,192,25638,1,0,0:0:0:0:
192,192,25658,1,0,0:0:0:0:
448,192,25799,1,0,0:0:0:0:
64,192,25799,1,0,0:0:0:0:
320,192,25820,1,0,0:0:0:0:
192,192,25961,1,0,0:0:0:0:
320,192,26122,1,0,0:0:0:0:
448,192,26122,1,0,0:0:0:0:
320,192,26283,1,0,0:0:0:0:
192,192,26445,1,0,0:0:0:0:
64,192,26445,1,0,0:0:0:0:
448,192,26445,1,0,0:0:0:0:
64,192,26606,1,0,0:0:0:0:
320,192,26767,1,0,0:0:0:0:
320,192,26928,1,0,0:0:0:0:
64,192,26928,1,0,0:0:0:0:
192,192,27090,1,0,0:0:0:0:
64,192,27090,1,0,0:0:0:0:
448,192,27090,1,0,0:0:0:0:
320,192,27251,1,0,0:0:0:0:
192,192,27412,1,0,0:0:0:0:
64,192,27412,1,0,0:0:0:0:
64,192,27574,1,0,0:0:0:0:
192,192,27735,1,0,0:0:0:0:
320,192,27735,1,0,0:0:0:0:
448,192,27735,1,0,0:0:0:0:
320,192,27896,1,0,0:0:0:0:
64,192,28057,1,0,0:0:0:0:
320,192,28219,1,0,0:0:0:0:
64,192,28219,1,0,0:0:0:0:
192,192,28380,1,0,0:0:0:0:
320,192,28380,1,0,0:0:0:0:
448,192,28380,1,0,0:0:0:0:
320,192,28541,1,0,0:0:0:0:
64,192,28541,1,0,0:0:0:0:
192,192,28703,1,0,0:0:0:0:
64,192,28703,1,0,0:0:0:0:
192,192,28864,1,0,0:0:0:0:
320,192,29025,1,0,0:0:0:0:
448,192,29025,1,0,0:0:0:0:
64,192,29025,1,0,0:0:0:0:
448,192,29186,1,0,0:0:0:0:
192,192,29348,1,0,0:0:0:0:
192,192,29509,1,0,0:0:0:0:
448,192,29509,1,0,0:0:0:0:
320,192,29670,1,0,0:0:0:0:
448,192,29670,1,0,0:0:0:0:
64,192,29670,1,0,0:0:0:0:
192,192,29832,1,0,0:0:0:0:
448,192,29993,1,0,0:0:0:0:
192,192,30154,1,0,0:0:0:0:
448,192,30154,1,0,0:0:0:0:
320,192,30315,1,0,0:0:0:0:
192,192,30315,1,0,0:0:0:0:
64,192,30315,1,0,0:0:0:0:
192,192,30477,1,0,0:0:0:0:
448,192,30638,1,0,0:0:0:0:
192,192,30799,1,0,0:0:0:0:
64,192,30799,1,0,0:0:0:0:
320,192,30880,1,0,0:0:0:0:
448,192,30961,1,0,0:0:0:0:
192,192,30961,1,0,0:0:0:0:
64,192,30961,1,0,0:0:0:0:
448,192,31122,1,0,0:0:0:0:
64,192,31283,1,0,0:0:0:0:
192,192,31283,1,0,0:0:0:0:
320,192,31445,1,0,0:0:0:0:
448,192,31606,1,0,0:0:0:0:
192,192,31606,1,0,0:0:0:0:
64,192,31606,1,0,0:0:0:0:
320,192,31767,1,0,0:0:0:0:
448,192,31928,1,0,0:0:0:0:
192,192,32090,1,0,0:0:0:0:
64,192,32090,1,0,0:0:0:0:
64,192,32251,1,0,0:0:0:0:
192,192,32251,1,0,0:0:0:0:
448,192,32251,1,0,0:0:0:0:
320,192,32412,1,0,0:0:0:0:
320,192,32574,1,0,0:0:0:0:
448,192,32574,1,0,0:0:0:0:
192,192,32735,1,0,0:0:0:0:
64,192,32896,1,0,0:0:0:0:
320,192,32896,1,0,0:0:0:0:
448,192,32896,1,0,0:0:0:0:
192,192,33057,1,0,0:0:0:0:
64,192,33219,1,0,0:0:0:0:
320,192,33380,1,0,0:0:0:0:
448,192,33380,1,0,0:0:0:0:
448,192,33541,1,0,0:0:0:0:
320,192,33541,1,0,0:0:0:0:
64,192,33541,1,0,0:0:0:0:
192,192,33703,1,0,0:0:0:0:
64,192,33703,1,0,0:0:0:0:
320,192,33864,1,0,0:0:0:0:
448,192,33864,1,0,0:0:0:0:
192,192,34025,1,0,0:0:0:0:
64,192,34186,1,0,0:0:0:0:
320,192,34186,1,0,0:0:0:0:
448,192,34186,1,0,0:0:0:0:
192,192,34348,1,0,0:0:0:0:
64,192,34509,1,0,0:0:0:0:
320,192,34670,1,0,0:0:0:0:
448,192,34670,1,0,0:0:0:0:
448,192,34832,1,0,0:0:0:0:
320,192,34832,1,0,0:0:0:0:
64,192,34832,1,0,0:0:0:0:
192,192,34993,1,0,0:0:0:0:
320,192,35154,1,0,0:0:0:0:
64,192,35315,1,0,0:0:0:0:
192,192,35315,1,0,0:0:0:0:
448,192,35477,1,0,0:0:0:0:
192,192,35477,1,0,0:0:0:0:
64,192,35477,1,0,0:0:0:0:
320,192,35638,1,0,0:0:0:0:
448,192,35799,1,0,0:0:0:0:
192,192,35961,1,0,0:0:0:0:
64,192,35961,1,0,0:0:0:0:
320,192,36041,1,0,0:0:0:0:
64,192,36122,1,0,0:0:0:0:
192,192,36122,1,0,0:0:0:0:
448,192,36122,1,0,0:0:0:0:
448,192,36283,1,0,0:0:0:0:
192,192,36445,1,0,0:0:0:0:
64,192,36445,128,0,36606:0:0:0:0:
320,192,36606,1,0,0:0:0:0:
64,192,36767,1,0,0:0:0:0:
192,192,36767,1,0,0:0:0:0:
448,192,36767,1,0,0:0:0:0:
64,192,36928,128,0,37251:0:0:0:0:
448,192,37090,1,0,0:0:0:0:
320,192,37251,1,0,0:0:0:0:
192,192,37251,1,0,0:0:0:0:
64,192,37412,1,0,0:0:0:0:
192,192,37412,1,0,0:0:0:0:
448,192,37412,1,0,0:0:0:0:
320,192,37574,1,0,0:0:0:0:
192,192,37735,1,0,0:0:0:0:
64,192,37735,1,0,0:0:0:0:
320,192,37896,128,0,38057:0:0:0:0:
448,192,38057,1,0,0:0:0:0:
192,192,38057,1,0,0:0:0:0:
64,192,38057,1,0,0:0:0:0:
320,192,38219,128,0,38380:0:0:0:0:
64,192,38380,1,0,0:0:0:0:
192,192,38541,1,0,0:0:0:0:
320,192,38541,1,0,0:0:0:0:
64,192,38703,1,0,0:0:0:0:
192,192,38703,1,0,0:0:0:0:
448,192,38703,1,0,0:0:0:0:
64,192,38864,1,0,0:0:0:0:
320,192,39025,1,0,0:0:0:0:
448,192,39025,128,0,39186:0:0:0:0:
192,192,39186,1,0,0:0:0:0:
448,192,39348,1,0,0:0:0:0:
320,192,39348,1,0,0:0:0:0:
64,192,39348,1,0,0:0:0:0:
448,192,39509,128,0,39832:0:0:0:0:
64,192,39670,1,0,0:0:0:0:
192,192,39832,1,0,0:0:0:0:
320,192,39832,1,0,0:0:0:0:
448,192,39993,1,0,0:0:0:0:
320,192,39993,1,0,0:0:0:0:
64,192,39993,1,0,0:0:0:0:
192,192,40154,1,0,0:0:0:0:
320,192,40315,1,0,0:0:0:0:
448,192,40315,1,0,0:0:0:0:
192,192,40477,128,0,40638:0:0:0:0:
64,192,40638,1,0,0:0:0:0:
320,192,40638,1,0,0:0:0:0:
448,192,40638,1,0,0:0:0:0:
192,192,40799,128,0,40961:0:0:0:0:
448,192,40961,1,0,0:0:0:0:
320,192,41122,1,0,0:0:0:0:
64,192,41122,1,0,0:0:0:0:
192,192,41203,1,0,0:0:0:0:
448,192,41283,1,0,0:0:0:0:
320,192,41283,1,0,0:0:0:0:
64,192,41283,1,0,0:0:0:0:
192,192,41445,1,0,0:0:0:0:
320,192,41606,1,0,0:0:0:0:
448,192,41606,128,0,41767:0:0:0:0:
192,192,41767,1,0,0:0:0:0:
448,192,41928,1,0,0:0:0:0:
320,192,41928,1,0,0:0:0:0:
64,192,41928,1,0,0:0:0:0:
448,192,42090,128,0,42412:0:0:0:0:
64,192,42251,1,0,0:0:0:0:
192,192,42412,1,0,0:0:0:0:
320,192,42412,1,0,0:0:0:0:
448,192,42574,1,0,0:0:0:0:
320,192,42574,1,0,0:0:0:0:
64,192,42574,1,0,0:0:0:0:
192,192,42735,1,0,0:0:0:0:
320,192,42896,1,0,0:0:0:0:
448,192,42896,1,0,0:0:0:0:
192,192,43057,128,0,43219:0:0:0:0:
64,192,43219,1,0,0:0:0:0:
320,192,43219,1,0,0:0:0:0:
448,192,43219,1,0,0:0:0:0:
192,192,43380,128,0,43541:0:0:0:0:
448,192,43541,1,0,0:0:0:0:
320,192,43703,1,0,0:0:0:0:
192,192,43703,1,0,0:0:0:0:
448,192,43864,1,0,0:0:0:0:
320,192,43864,1,0,0:0:0:0:
64,192,43864,1,0,0:0:0:0:
448,192,44025,1,0,0:0:0:0:
192,192,44186,1,0,0:0:0:0:
64,192,44186,128,0,44348:0:0:0:0:
320,192,44348,1,0,0:0:0:0:
64,192,44509,1,0,0:0:0:0:
192,192,44509,1,0,0:0:0:0:
448,192,44509,1,0,0:0:0:0:
64,192,44670,128,0,44993:0:0:0:0:
448,192,44832,1,0,0:0:0:0:
320,192,44993,1,0,0:0:0:0:
192,192,44993,1,0,0:0:0:0:
64,192,45154,1,0,0:0:0:0:
192,192,45154,1,0,0:0:0:0:
448,192,45154,1,0,0:0:0:0:
320,192,45315,1,0,0:0:0:0:
192,192,45477,1,0,0:0:0:0:
64,192,45477,1,0,0:0:0:0:
320,192,45638,128,0,45799:0:0:0:0:
448,192,45799,1,0,0:0:0:0:
192,192,45799,1,0,0:0:0:0:
64,192,45799,1,0,0:0:0:0:
320,192,45961,128,0,46122:0:0:0:0:
64,192,46122,1,0,0:0:0:0:
448,192,46283,1,0,0:0:0:0:
192,192,46283,1,0,0:0:0:0:
320,192,46283,128,0,46767:0:0:0:0:
64,192,46767,1,0,0:0:0:0:
192,192,46767,1,0,0:0:0:0:
64,192,47090,1,0,0:0:0:0:
192,192,47090,1,0,0:0:0:0:
192,192,47412,1,0,0:0:0:0:
448,192,47412,128,0,49348:0:0:0:0:
64,192,47412,1,0,0:0:0:0:
320,192,47574,1,0,0:0:0:0:
64,192,47735,1,0,0:0:0:0:
320,192,47896,1,0,0:0:0:0:
64,192,48057,1,0,0:0:0:0:
192,192,48219,1,0,0:0:0:0:
320,192,48219,1,0,0:0:0:0:
192,192,48380,1,0,0:0:0:0:
320,192,48380,1,0,0:0:0:0:
64,192,48541,1,0,0:0:0:0:
64,192,48703,1,0,0:0:0:0:
192,192,48703,1,0,0:0:0:0:
320,192,48703,1,0,0:0:0:0:
320,192,48864,1,0,0:0:0:0:
64,192,49025,1,0,0:0:0:0:
320,192,49186,1,0,0:0:0:0:
192,192,49348,1,0,0:0:0:0:
320,192,49348,1,0,0:0:0:0:
192,192,49832,1,0,0:0:0:0:
320,192,49832,1,0,0:0:0:0:
192,192,49993,1,0,0:0:0:0:
64,192,49993,128,0,51928:0:0:0:0:
320,192,49993,1,0,0:0:0:0:
448,192,50154,1,0,0:0:0:0:
320,192,50315,1,0,0:0:0:0:
320,192,50477,1,0,0:0:0:0:
192,192,50477,1,0,0:0:0:0:
448,192,50477,1,0,0:0:0:0:
448,192,50638,1,0,0:0:0:0:
192,192,50799,1,0,0:0:0:0:
448,192,50961,1,0,0:0:0:0:
320,192,50961,1,0,0:0:0:0:
192,192,51122,1,0,0:0:0:0:
320,192,51283,1,0,0:0:0:0:
448,192,51283,1,0,0:0:0:0:
192,192,51283,1,0,0:0:0:0:
320,192,51445,1,0,0:0:0:0:
448,192,51445,1,0,0:0:0:0:
192,192,51606,1,0,0:0:0:0:
192,192,51767,1,0,0:0:0:0:
320,192,51928,1,0,0:0:0:0:
448,192,51928,1,0,0:0:0:0:
320,192,52090,1,0,0:0:0:0:
448,192,52090,1,0,0:0:0:0:
320,192,52574,1,0,0:0:0:0:
64,192,52574,128,0,54428:0:0:0:0:
448,192,52574,128,0,54428:0:0:0:0:
192,192,52735,1,0,0:0:0:0:
320,192,52896,1,0,0:0:0:0:
192,192,53057,1,0,0:0:0:0:
320,192,53219,1,0,0:0:0:0:
192,192,53380,1,0,0:0:0:0:
320,192,53541,1,0,0:0:0:0:
192,192,53541,1,0,0:0:0:0:
320,192,53703,1,0,0:0:0:0:
320,192,53864,1,0,0:0:0:0:
192,192,53864,1,0,0:0:0:0:
192,192,54025,1,0,0:0:0:0:
320,192,54186,1,0,0:0:0:0:
192,192,54348,1,0,0:0:0:0:
320,192,54509,1,0,0:0:0:0:
448,192,54509,1,0,0:0:0:0:
64,192,54509,1,0,0:0:0:0:
320,192,54832,1,0,0:0:0:0:
448,192,54832,1,0,0:0:0:0:
320,192,55154,1,0,0:0:0:0:
448,192,55154,1,0,0:0:0:0:
448,192,55477,1,0,0:0:0:0:
320,192,55477,1,0,0:0:0:0:
192,192,55799,1,0,0:0:0:0:
64,192,55799,1,0,0:0:0:0:
192,192,56122,1,0,0:0:0:0:
64,192,56122,1,0,0:0:0:0:
192,192,56445,1,0,0:0:0:0:
64,192,56445,1,0,0:0:0:0:
192,192,56767,1,0,0:0:0:0:
64,192,56767,1,0,0:0:0:0:
64,192,57090,1,0,0:0:0:0:
192,192,57090,1,0,0:0:0:0:
448,192,57090,1,0,0:0:0:0:
320,192,57251,1,0,0:0:0:0:
448,192,57251,1,0,0:0:0:0:
64,192,57412,1,0,0:0:0:0:
192,192,57412,1,0,0:0:0:0:
64,192,57574,1,0,0:0:0:0:
320,192,57574,1,0,0:0:0:0:
448,192,57574,1,0,0:0:0:0:
192,192,57896,1,0,0:0:0:0:
64,192,57896,1,0,0:0:0:0:
448,192,57896,1,0,0:0:0:0:
64,192,58219,128,0,58864:0:0:0:0:
192,192,58219,128,0,58703:0:0:0:0:
320,192,58219,128,0,58541:0:0:0:0:
448,192,58541,128,0,59348:0:0:0:0:
320,192,58703,128,0,59186:0:0:0:0:
192,192,58864,128,0,59025:0:0:0:0:
64,192,59025,128,0,59590:0:0:0:0:
192,192,59186,128,0,59590:0:0:0:0:
320,192,59348,128,0,59590:0:0:0:0:
448,192,59509,128,0,59670:0:0:0:0:
64,192,59670,1,0,0:0:0:0:
320,192,59670,1,0,0:0:0:0:
192,192,59690,1,0,0:0:0:0:
64,192,59832,1,0,0:0:0:0:
64,192,59993,1,0,0:0:0:0:
448,192,60154,1,0,0:0:0:0:
320,192,60174,1,0,0:0:0:0:
448,192,60315,1,0,0:0:0:0:
448,192,60477,1,0,0:0:0:0:
192,192,60638,1,0,0:0:0:0:
64,192,60658,1,0,0:0:0:0:
192,192,60799,1,0,0:0:0:0:
320,192,60961,1,0,0:0:0:0:
448,192,60981,1,0,0:0:0:0:
64,192,61122,1,0,0:0:0:0:
192,192,61203,1,0,0:0:0:0:
320,192,61283,1,0,0:0:0:0:
448,192,61303,1,0,0:0:0:0:
64,192,61445,1,0,0:0:0:0:
192,192,61465,1,0,0:0:0:0:
320,192,61606,1,0,0:0:0:0:
320,192,61767,1,0,0:0:0:0:
64,192,61928,1,0,0:0:0:0:
448,192,61928,1,0,0:0:0:0:
64,192,62251,128,0,63541:0:0:0:0:
192,192,62251,1,0,0:0:0:0:
320,192,62251,1,0,0:0:0:0:
192,192,62574,1,0,0:0:0:0:
320,192,62574,1,0,0:0:0:0:
448,192,62735,1,0,0:0:0:0:
192,192,62896,1,0,0:0:0:0:
320,192,63057,1,0,0:0:0:0:
448,192,63057,1,0,0:0:0:0:
192,192,63219,1,0,0:0:0:0:
320,192,63219,1,0,0:0:0:0:
320,192,63541,128,0,64832:0:0:0:0:
448,192,63541,1,0,0:0:0:0:
64,192,63864,1,0,0:0:0:0:
192,192,63864,1,0,0:0:0:0:
64,192,64025,1,0,0:0:0:0:
448,192,64186,1,0,0:0:0:0:
64,192,64348,1,0,0:0:0:0:
192,192,64348,1,0,0:0:0:0:
192,192,64509,1,0,0:0:0:0:
448,192,64509,1,0,0:0:0:0:
448,192,64832,128,0,66122:0:0:0:0:
192,192,64832,1,0,0:0:0:0:
64,192,65154,1,0,0:0:0:0:
320,192,65154,1,0,0:0:0:0:
192,192,65315,1,0,0:0:0:0:
64,192,65477,1,0,0:0:0:0:
192,192,65638,1,0,0:0:0:0:
320,192,65638,1,0,0:0:0:0:
192,192,65799,1,0,0:0:0:0:
64,192,65799,1,0,0:0:0:0:
192,192,66122,128,0,67412:0:0:0:0:
64,192,66122,1,0,0:0:0:0:
320,192,66445,1,0,0:0:0:0:
448,192,66445,1,0,0:0:0:0:
64,192,66606,1,0,0:0:0:0:
448,192,66767,1,0,0:0:0:0:
448,192,66928,1,0,0:0:0:0:
64,192,67009,1,0,0:0:0:0:
320,192,67090,1,0,0:0:0:0:
448,192,67090,1,0,0:0:0:0:
320,192,67251,1,0,0:0:0:0:
64,192,67412,128,0,68703:0:0:0:0:
320,192,67412,1,0,0:0:0:0:
448,192,67412,1,0,0:0:0:0:
192,192,67735,1,0,0:0:0:0:
448,192,67735,1,0,0:0:0:0:
320,192,67896,1,0,0:0:0:0:
448,192,68057,1,0,0:0:0:0:
192,192,68057,1,0,0:0:0:0:
320,192,68380,1,0,0:0:0:0:
448,192,68380,1,0,0:0:0:0:
192,192,68541,1,0,0:0:0:0:
448,192,68703,128,0,69993:0:0:0:0:
320,192,68703,1,0,0:0:0:0:
64,192,69025,1,0,0:0:0:0:
320,192,69025,1,0,0:0:0:0:
320,192,69186,1,0,0:0:0:0:
192,192,69348,1,0,0:0:0:0:
64,192,69348,1,0,0:0:0:0:
320,192,69509,1,0,0:0:0:0:
192,192,69670,1,0,0:0:0:0:
64,192,69670,1,0,0:0:0:0:
64,192,69832,1,0,0:0:0:0:
192,192,69993,128,0,71283:0:0:0:0:
320,192,69993,1,0,0:0:0:0:
448,192,70315,1,0,0:0:0:0:
64,192,70315,1,0,0:0:0:0:
64,192,70477,1,0,0:0:0:0:
448,192,70638,1,0,0:0:0:0:
320,192,70638,1,0,0:0:0:0:
320,192,70961,1,0,0:0:0:0:
64,192,70961,1,0,0:0:0:0:
320,192,71122,1,0,0:0:0:0:
448,192,71122,1,0,0:0:0:0:
64,192,71283,1,0,0:0:0:0:
320,192,71283,1,0,0:0:0:0:
448,192,71283,1,0,0:0:0:0:
320,192,71606,128,0,72090:0:0:0:0:
192,192,71606,1,0,0:0:0:0:
64,192,71606,1,0,0:0:0:0:
64,192,72090,1,0,0:0:0:0:
192,192,72090,1,0,0:0:0:0:
320,192,72170,1,0,0:0:0:0:
448,192,72251,1,0,0:0:0:0:
192,192,72251,1,0,0:0:0:0:
64,192,72251,1,0,0:0:0:0:
192,192,72412,1,0,0:0:0:0:
320,192,72412,1,0,0:0:0:0:
448,192,72574,128,0,73864:0:0:0:0:
320,192,72574,1,0,0:0:0:0:
64,192,72574,1,0,0:0:0:0:
320,192,72896,1,0,0:0:0:0:
192,192,72896,1,0,0:0:0:0:
64,192,73057,1,0,0:0:0:0:
320,192,73219,1,0,0:0:0:0:
192,192,73380,1,0,0:0:0:0:
64,192,73380,1,0,0:0:0:0:
320,192,73541,1,0,0:0:0:0:
64,192,73541,1,0,0:0:0:0:
192,192,73864,128,0,75154:0:0:0:0:
64,192,73864,1,0,0:0:0:0:
320,192,74186,1,0,0:0:0:0:
64,192,74186,1,0,0:0:0:0:
448,192,74348,1,0,0:0:0:0:
64,192,74509,1,0,0:0:0:0:
448,192,74670,1,0,0:0:0:0:
320,192,74670,1,0,0:0:0:0:
448,192,74832,1,0,0:0:0:0:
64,192,74832,1,0,0:0:0:0:
64,192,75154,128,0,76445:0:0:0:0:
320,192,75154,1,0,0:0:0:0:
448,192,75477,1,0,0:0:0:0:
192,192,75477,1,0,0:0:0:0:
320,192,75638,1,0,0:0:0:0:
448,192,75799,1,0,0:0:0:0:
320,192,75961,1,0,0:0:0:0:
192,192,75961,1,0,0:0:0:0:
192,192,76122,1,0,0:0:0:0:
448,192,76122,1,0,0:0:0:0:
320,192,76445,128,0,77735:0:0:0:0:
448,192,76445,1,0,0:0:0:0:
192,192,76767,1,0,0:0:0:0:
64,192,76767,1,0,0:0:0:0:
448,192,76928,1,0,0:0:0:0:
64,192,77090,1,0,0:0:0:0:
64,192,77251,1,0,0:0:0:0:
448,192,77332,1,0,0:0:0:0:
192,192,77412,1,0,0:0:0:0:
64,192,77412,1,0,0:0:0:0:
192,192,77574,1,0,0:0:0:0:
448,192,77735,128,0,79025:0:0:0:0:
192,192,77735,1,0,0:0:0:0:
64,192,77735,1,0,0:0:0:0:
64,192,78057,1,0,0:0:0:0:
320,192,78057,1,0,0:0:0:0:
192,192,78219,1,0,0:0:0:0:
64,192,78380,1,0,0:0:0:0:
320,192,78380,1,0,0:0:0:0:
192,192,78703,1,0,0:0:0:0:
64,192,78703,1,0,0:0:0:0:
320,192,78864,1,0,0:0:0:0:
64,192,79025,128,0,80315:0:0:0:0:
192,192,79025,1,0,0:0:0:0:
448,192,79348,1,0,0:0:0:0:
320,192,79348,1,0,0:0:0:0:
192,192,79509,1,0,0:0:0:0:
320,192,79670,1,0,0:0:0:0:
448,192,79670,1,0,0:0:0:0:
192,192,79832,1,0,0:0:0:0:
192,192,79993,1,0,0:0:0:0:
448,192,79993,1,0,0:0:0:0:
448,192,80154,1,0,0:0:0:0:
320,192,80315,128,0,81606:0:0:0:0:
192,192,80315,1,0,0:0:0:0:
64,192,80638,1,0,0:0:0:0:
192,192,80638,1,0,0:0:0:0:
448,192,80799,1,0,0:0:0:0:
64,192,80961,1,0,0:0:0:0:
192,192,80961,1,0,0:0:0:0:
64,192,81283,1,0,0:0:0:0:
192,192,81283,1,0,0:0:0:0:
192,192,81445,1,0,0:0:0:0:
64,192,81445,1,0,0:0:0:0:
448,192,81606,1,0,0:0:0:0:
192,192,81606,1,0,0:0:0:0:
64,192,81606,1,0,0:0:0:0:
448,192,81928,128,0,82412:0:0:0:0:
64,192,81928,1,0,0:0:0:0:
320,192,81928,1,0,0:0:0:0:
192,192,82412,1,0,0:0:0:0:
320,192,82412,1,0,0:0:0:0:
448,192,82493,1,0,0:0:0:0:
64,192,82574,1,0,0:0:0:0:
192,192,82574,1,0,0:0:0:0:
320,192,82574,1,0,0:0:0:0:
192,192,82735,1,0,0:0:0:0:
64,192,82735,1,0,0:0:0:0:
448,192,82896,128,0,83219:0:0:0:0:
320,192,82896,1,0,0:0:0:0:
192,192,83057,128,0,83219:0:0:0:0:
320,192,83219,128,0,83541:0:0:0:0:
64,192,83219,1,0,0:0:0:0:
64,192,83380,128,0,83541:0:0:0:0:
192,192,83380,1,0,0:0:0:0:
192,192,83541,128,0,83864:0:0:0:0:
448,192,83541,1,0,0:0:0:0:
448,192,83703,128,0,83864:0:0:0:0:
64,192,83864,128,0,84186:0:0:0:0:
320,192,83864,1,0,0:0:0:0:
320,192,84025,128,0,84186:0:0:0:0:
448,192,84186,128,0,84509:0:0:0:0:
192,192,84186,1,0,0:0:0:0:
192,192,84348,128,0,84509:0:0:0:0:
320,192,84348,1,0,0:0:0:0:
320,192,84509,128,0,84832:0:0:0:0:
64,192,84509,1,0,0:0:0:0:
64,192,84670,128,0,84832:0:0:0:0:
192,192,84832,128,0,85154:0:0:0:0:
448,192,84832,128,0,85154:0:0:0:0:
320,192,85154,1,0,0:0:0:0:
64,192,85154,1,0,0:0:0:0:
64,192,85315,1,0,0:0:0:0:
192,192,85315,1,0,0:0:0:0:
448,192,85477,128,0,86283:0:0:0:0:
320,192,85477,1,0,0:0:0:0:
192,192,85477,1,0,0:0:0:0:
64,192,85638,1,0,0:0:0:0:
64,192,85799,1,0,0:0:0:0:
192,192,85799,1,0,0:0:0:0:
320,192,85961,1,0,0:0:0:0:
320,192,86122,1,0,0:0:0:0:
192,192,86283,128,0,86445:0:0:0:0:
64,192,86283,1,0,0:0:0:0:
320,192,86445,128,0,86606:0:0:0:0:
448,192,86445,1,0,0:0:0:0:
64,192,86606,128,0,87735:0:0:0:0:
320,192,86767,1,0,0:0:0:0:
448,192,86767,1,0,0:0:0:0:
192,192,86928,1,0,0:0:0:0:
192,192,87090,1,0,0:0:0:0:
320,192,87090,1,0,0:0:0:0:
448,192,87251,1,0,0:0:0:0:
448,192,87412,1,0,0:0:0:0:
192,192,87574,1,0,0:0:0:0:
320,192,87574,1,0,0:0:0:0:
320,192,87735,128,0,88057:0:0:0:0:
448,192,87735,1,0,0:0:0:0:
64,192,87896,1,0,0:0:0:0:
192,192,87896,1,0,0:0:0:0:
192,192,88057,128,0,88864:0:0:0:0:
448,192,88057,1,0,0:0:0:0:
320,192,88219,1,0,0:0:0:0:
320,192,88380,1,0,0:0:0:0:
448,192,88380,1,0,0:0:0:0:
64,192,88541,1,0,0:0:0:0:
64,192,88703,1,0,0:0:0:0:
320,192,88864,128,0,89025:0:0:0:0:
448,192,88864,1,0,0:0:0:0:
192,192,89025,128,0,89186:0:0:0:0:
64,192,89025,1,0,0:0:0:0:
64,192,89186,128,0,90154:0:0:0:0:
448,192,89348,1,0,0:0:0:0:
192,192,89509,1,0,0:0:0:0:
320,192,89509,1,0,0:0:0:0:
192,192,89670,1,0,0:0:0:0:
448,192,89670,1,0,0:0:0:0:
320,192,89832,1,0,0:0:0:0:
320,192,89993,1,0,0:0:0:0:
192,192,90154,1,0,0:0:0:0:
448,192,90154,1,0,0:0:0:0:
320,192,90235,1,0,0:0:0:0:
448,192,90315,128,0,90638:0:0:0:0:
64,192,90315,1,0,0:0:0:0:
320,192,90477,1,0,0:0:0:0:
320,192,90638,128,0,91445:0:0:0:0:
64,192,90638,1,0,0:0:0:0:
192,192,90799,1,0,0:0:0:0:
192,192,90961,1,0,0:0:0:0:
448,192,90961,1,0,0:0:0:0:
64,192,91122,1,0,0:0:0:0:
64,192,91283,1,0,0:0:0:0:
448,192,91445,128,0,91606:0:0:0:0:
192,192,91445,1,0,0:0:0:0:
64,192,91606,128,0,91767:0:0:0:0:
320,192,91606,1,0,0:0:0:0:
192,192,91767,128,0,92896:0:0:0:0:
448,192,91928,1,0,0:0:0:0:
320,192,91928,1,0,0:0:0:0:
64,192,92090,1,0,0:0:0:0:
64,192,92251,1,0,0:0:0:0:
320,192,92251,1,0,0:0:0:0:
448,192,92412,1,0,0:0:0:0:
448,192,92574,1,0,0:0:0:0:
64,192,92735,1,0,0:0:0:0:
320,192,92735,1,0,0:0:0:0:
448,192,92896,128,0,93219:0:0:0:0:
320,192,92896,1,0,0:0:0:0:
192,192,93057,1,0,0:0:0:0:
64,192,93057,1,0,0:0:0:0:
320,192,93219,128,0,94025:0:0:0:0:
192,192,93219,1,0,0:0:0:0:
64,192,93380,1,0,0:0:0:0:
64,192,93541,1,0,0:0:0:0:
448,192,93541,1,0,0:0:0:0:
192,192,93703,1,0,0:0:0:0:
192,192,93864,1,0,0:0:0:0:
64,192,94025,128,0,94186:0:0:0:0:
448,192,94025,1,0,0:0:0:0:
320,192,94186,128,0,94348:0:0:0:0:
192,192,94186,1,0,0:0:0:0:
192,192,94348,128,0,95477:0:0:0:0:
448,192,94670,1,0,0:0:0:0:
320,192,94832,1,0,0:0:0:0:
448,192,94993,1,0,0:0:0:0:
320,192,95154,1,0,0:0:0:0:
448,192,95315,1,0,0:0:0:0:
448,192,95477,128,0,95799:0:0:0:0:
320,192,95477,1,0,0:0:0:0:
64,192,95799,128,0,96606:0:0:0:0:
192,192,95799,1,0,0:0:0:0:
320,192,95799,1,0,0:0:0:0:
448,192,95961,1,0,0:0:0:0:
320,192,96122,1,0,0:0:0:0:
192,192,96122,1,0,0:0:0:0:
448,192,96283,1,0,0:0:0:0:
320,192,96445,1,0,0:0:0:0:
192,192,96606,128,0,96767:0:0:0:0:
448,192,96606,1,0,0:0:0:0:
448,192,96767,128,0,96928:0:0:0:0:
64,192,96767,1,0,0:0:0:0:
320,192,96928,128,0,98057:0:0:0:0:
64,192,97090,1,0,0:0:0:0:
192,192,97090,1,0,0:0:0:0:
448,192,97251,1,0,0:0:0:0:
448,192,97412,1,0,0:0:0:0:
192,192,97412,1,0,0:0:0:0:
64,192,97574,1,0,0:0:0:0:
64,192,97735,1,0,0:0:0:0:
448,192,97896,1,0,0:0:0:0:
192,192,97896,1,0,0:0:0:0:
448,192,98057,128,0,98380:0:0:0:0:
64,192,98057,1,0,0:0:0:0:
64,192,98219,1,0,0:0:0:0:
192,192,98219,1,0,0:0:0:0:
192,192,98380,128,0,99186:0:0:0:0:
320,192,98380,1,0,0:0:0:0:
448,192,98541,1,0,0:0:0:0:
320,192,98703,1,0,0:0:0:0:
64,192,98703,1,0,0:0:0:0:
448,192,98864,1,0,0:0:0:0:
320,192,99025,1,0,0:0:0:0:
448,192,99186,128,0,99348:0:0:0:0:
64,192,99186,1,0,0:0:0:0:
320,192,99348,128,0,99509:0:0:0:0:
192,192,99348,1,0,0:0:0:0:
192,192,99509,128,0,100598:0:0:0:0:
64,192,99670,1,0,0:0:0:0:
320,192,99832,1,0,0:0:0:0:
448,192,99832,1,0,0:0:0:0:
448,192,99993,1,0,0:0:0:0:
64,192,99993,1,0,0:0:0:0:
320,192,100154,1,0,0:0:0:0:
64,192,100315,1,0,0:0:0:0:
448,192,100477,1,0,0:0:0:0:
320,192,100557,1,0,0:0:0:0:
64,192,100638,128,0,100961:0:0:0:0:
192,192,100638,1,0,0:0:0:0:
320,192,100961,128,0,101606:0:0:0:0:
448,192,100961,1,0,0:0:0:0:
64,192,101283,1,0,0:0:0:0:
192,192,101283,1,0,0:0:0:0:
448,192,101606,128,0,102251:0:0:0:0:
192,192,101606,1,0,0:0:0:0:
64,192,101767,1,0,0:0:0:0:
320,192,101767,1,0,0:0:0:0:
192,192,101928,1,0,0:0:0:0:
64,192,101928,1,0,0:0:0:0:
192,192,102251,128,0,102896:0:0:0:0:
64,192,102251,1,0,0:0:0:0:
320,192,102574,1,0,0:0:0:0:
448,192,102574,1,0,0:0:0:0:
320,192,102896,128,0,103541:0:0:0:0:
448,192,102896,1,0,0:0:0:0:
192,192,103057,1,0,0:0:0:0:
64,192,103057,1,0,0:0:0:0:
64,192,103219,1,0,0:0:0:0:
448,192,103219,1,0,0:0:0:0:
192,192,103380,1,0,0:0:0:0:
448,192,103380,1,0,0:0:0:0:
64,192,103541,128,0,104670:0:0:0:0:
192,192,103541,1,0,0:0:0:0:
320,192,103864,1,0,0:0:0:0:
448,192,103864,1,0,0:0:0:0:
192,192,104186,1,0,0:0:0:0:
320,192,104348,1,0,0:0:0:0:
448,192,104348,1,0,0:0:0:0:
320,192,104509,1,0,0:0:0:0:
192,192,104509,1,0,0:0:0:0:
448,192,104670,128,0,105799:0:0:0:0:
64,192,104832,1,0,0:0:0:0:
192,192,104852,1,0,0:0:0:0:
192,192,104993,1,0,0:0:0:0:
64,192,105013,1,0,0:0:0:0:
64,192,105154,1,0,0:0:0:0:
192,192,105174,1,0,0:0:0:0:
64,192,105315,1,0,0:0:0:0:
192,192,105336,1,0,0:0:0:0:
320,192,105477,1,0,0:0:0:0:
64,192,105497,1,0,0:0:0:0:
192,192,105638,1,0,0:0:0:0:
64,192,105658,1,0,0:0:0:0:
64,192,105799,1,0,0:0:0:0:
192,192,105820,1,0,0:0:0:0:
64,192,106122,1,0,0:0:0:0:
192,192,106142,1,0,0:0:0:0:
320,192,106283,1,0,0:0:0:0:
192,192,106303,1,0,0:0:0:0:
320,192,106445,1,0,0:0:0:0:
448,192,106465,1,0,0:0:0:0:
64,192,106606,1,0,0:0:0:0:
448,192,106767,1,0,0:0:0:0:
320,192,106787,1,0,0:0:0:0:
320,192,106928,1,0,0:0:0:0:
192,192,107090,1,0,0:0:0:0:
64,192,107110,1,0,0:0:0:0:
320,192,107170,1,0,0:0:0:0:
448,192,107251,1,0,0:0:0:0:
320,192,107412,1,0,0:0:0:0:
192,192,107432,1,0,0:0:0:0:
320,192,107574,1,0,0:0:0:0:
448,192,107594,1,0,0:0:0:0:
64,192,107735,1,0,0:0:0:0:
192,192,107755,1,0,0:0:0:0:
320,192,107896,1,0,0:0:0:0:
64,192,108057,1,0,0:0:0:0:
320,192,108078,1,0,0:0:0:0:
64,192,108219,1,0,0:0:0:0:
192,192,108239,1,0,0:0:0:0:
448,192,108380,128,0,108622:0:0:0:0:
320,192,108400,1,0,0:0:0:0:
192,192,108703,1,0,0:0:0:0:
320,192,108723,1,0,0:0:0:0:
64,192,108864,1,0,0:0:0:0:
448,192,108884,1,0,0:0:0:0:
192,192,109025,1,0,0:0:0:0:
64,192,109106,1,0,0:0:0:0:
448,192,109186,1,0,0:0:0:0:
192,192,109348,1,0,0:0:0:0:
320,192,109368,1,0,0:0:0:0:
320,192,109509,1,0,0:0:0:0:
192,192,109670,1,0,0:0:0:0:
64,192,109690,1,0,0:0:0:0:
192,192,109832,1,0,0:0:0:0:
448,192,109993,1,0,0:0:0:0:
320,192,110013,1,0,0:0:0:0:
192,192,110154,1,0,0:0:0:0:
64,192,110174,1,0,0:0:0:0:
192,192,110315,1,0,0:0:0:0:
448,192,110336,1,0,0:0:0:0:
64,192,110477,1,0,0:0:0:0:
192,192,110638,1,0,0:0:0:0:
320,192,110658,1,0,0:0:0:0:
64,192,110799,1,0,0:0:0:0:
192,192,110820,1,0,0:0:0:0:
320,192,110961,1,0,0:0:0:0:
448,192,110981,1,0,0:0:0:0:
320,192,111122,1,0,0:0:0:0:
64,192,111283,1,0,0:0:0:0:
192,192,111303,1,0,0:0:0:0:
320,192,111445,1,0,0:0:0:0:
64,192,111465,1,0,0:0:0:0:
448,192,111606,1,0,0:0:0:0:
64,192,111660,1,0,0:0:0:0:
448,192,111713,1,0,0:0:0:0:
192,192,111767,1,0,0:0:0:0:
448,192,111928,1,0,0:0:0:0:
192,192,111949,1,0,0:0:0:0:
320,192,112090,1,0,0:0:0:0:
192,192,112110,1,0,0:0:0:0:
64,192,112251,1,0,0:0:0:0:
320,192,112332,1,0,0:0:0:0:
64,192,112412,1,0,0:0:0:0:
320,192,112574,1,0,0:0:0:0:
448,192,112594,1,0,0:0:0:0:
320,192,112735,1,0,0:0:0:0:
448,192,112755,1,0,0:0:0:0:
64,192,112896,1,0,0:0:0:0:
192,192,112916,1,0,0:0:0:0:
320,192,113057,1,0,0:0:0:0:
192,192,113078,1,0,0:0:0:0:
448,192,113219,1,0,0:0:0:0:
320,192,113239,1,0,0:0:0:0:
192,192,113380,1,0,0:0:0:0:
64,192,113541,128,0,113783:0:0:0:0:
320,192,113561,1,0,0:0:0:0:
64,192,113864,1,0,0:0:0:0:
192,192,113884,1,0,0:0:0:0:
448,192,114025,1,0,0:0:0:0:
320,192,114045,1,0,0:0:0:0:
64,192,114186,1,0,0:0:0:0:
192,192,114348,1,0,0:0:0:0:
320,192,114348,1,0,0:0:0:0:
448,192,114509,1,0,0:0:0:0:
320,192,114529,1,0,0:0:0:0:
64,192,114670,1,0,0:0:0:0:
192,192,114832,1,0,0:0:0:0:
320,192,114993,1,0,0:0:0:0:
448,192,114993,1,0,0:0:0:0:
192,192,115154,1,0,0:0:0:0:
320,192,115174,1,0,0:0:0:0:
448,192,115315,1,0,0:0:0:0:
64,192,115336,1,0,0:0:0:0:
192,192,115477,1,0,0:0:0:0:
320,192,115517,1,0,0:0:0:0:
192,192,115638,1,0,0:0:0:0:
448,192,115799,1,0,0:0:0:0:
320,192,115820,1,0,0:0:0:0:
192,192,115961,1,0,0:0:0:0:
64,192,116122,1,0,0:0:0:0:
192,192,116142,1,0,0:0:0:0:
192,192,116283,1,0,0:0:0:0:
448,192,116303,1,0,0:0:0:0:
64,192,116445,1,0,0:0:0:0:
192,192,116465,1,0,0:0:0:0:
320,192,116606,1,0,0:0:0:0:
448,192,116767,1,0,0:0:0:0:
192,192,116787,1,0,0:0:0:0:
320,192,116928,1,0,0:0:0:0:
192,192,117090,1,0,0:0:0:0:
320,192,117170,1,0,0:0:0:0:
192,192,117251,1,0,0:0:0:0:
320,192,117332,1,0,0:0:0:0:
448,192,117412,1,0,0:0:0:0:
64,192,117432,1,0,0:0:0:0:
320,192,117574,1,0,0:0:0:0:
448,192,117735,1,0,0:0:0:0:
64,192,117815,1,0,0:0:0:0:
320,192,117896,1,0,0:0:0:0:
192,192,117977,1,0,0:0:0:0:
64,192,118057,1,0,0:0:0:0:
448,192,118078,1,0,0:0:0:0:
192,192,118219,1,0,0:0:0:0:
320,192,118299,1,0,0:0:0:0:
448,192,118380,1,0,0:0:0:0:
64,192,118380,1,0,0:0:0:0:
192,192,118461,1,0,0:0:0:0:
320,192,118541,1,0,0:0:0:0:
64,192,118703,1,0,0:0:0:0:
192,192,118723,1,0,0:0:0:0:
320,192,118783,1,0,0:0:0:0:
64,192,118864,1,0,0:0:0:0:
320,192,119025,1,0,0:0:0:0:
448,192,119045,1,0,0:0:0:0:
192,192,119106,1,0,0:0:0:0:
64,192,119186,1,0,0:0:0:0:
448,192,119348,1,0,0:0:0:0:
192,192,119368,1,0,0:0:0:0:
448,192,119509,1,0,0:0:0:0:
64,192,119670,1,0,0:0:0:0:
320,192,119751,1,0,0:0:0:0:
64,192,119832,1,0,0:0:0:0:
320,192,119912,1,0,0:0:0:0:
448,192,119993,1,0,0:0:0:0:
192,192,120013,1,0,0:0:0:0:
320,192,120154,1,0,0:0:0:0:
192,192,120235,1,0,0:0:0:0:
64,192,120315,1,0,0:0:0:0:
448,192,120336,1,0,0:0:0:0:
64,192,120477,1,0,0:0:0:0:
64,192,120638,1,0,0:0:0:0:
448,192,120799,1,0,0:0:0:0:
320,192,120820,1,0,0:0:0:0:
320,192,120961,1,0,0:0:0:0:
64,192,121122,1,0,0:0:0:0:
448,192,121203,1,0,0:0:0:0:
64,192,121283,1,0,0:0:0:0:
192,192,121445,1,0,0:0:0:0:
320,192,121606,1,0,0:0:0:0:
448,192,121626,1,0,0:0:0:0:
192,192,121767,1,0,0:0:0:0:
64,192,121928,1,0,0:0:0:0:
192,192,121949,1,0,0:0:0:0:
448,192,122090,1,0,0:0:0:0:
192,192,122170,1,0,0:0:0:0:
448,192,122251,1,0,0:0:0:0:
64,192,122332,1,0,0:0:0:0:
320,192,122412,1,0,0:0:0:0:
448,192,122432,1,0,0:0:0:0:
64,192,122574,1,0,0:0:0:0:
192,192,122594,1,0,0:0:0:0:
320,192,122735,1,0,0:0:0:0:
192,192,122896,1,0,0:0:0:0:
448,192,122916,1,0,0:0:0:0:
64,192,122977,1,0,0:0:0:0:
320,192,123057,1,0,0:0:0:0:
64,192,123138,1,0,0:0:0:0:
192,192,123219,1,0,0:0:0:0:
320,192,123239,1,0,0:0:0:0:
64,192,123299,1,0,0:0:0:0:
448,192,123380,1,0,0:0:0:0:
192,192,123461,1,0,0:0:0:0:
448,192,123541,1,0,0:0:0:0:
192,192,123703,1,0,0:0:0:0:
320,192,123723,1,0,0:0:0:0:
64,192,123864,1,0,0:0:0:0:
320,192,123884,1,0,0:0:0:0:
192,192,124025,1,0,0:0:0:0:
448,192,124186,1,0,0:0:0:0:
320,192,124207,1,0,0:0:0:0:
448,192,124348,1,0,0:0:0:0:
448,192,124509,1,0,0:0:0:0:
64,192,124670,1,0,0:0:0:0:
320,192,124690,1,0,0:0:0:0:
320,192,124832,1,0,0:0:0:0:
320,192,124993,1,0,0:0:0:0:
64,192,125154,1,0,0:0:0:0:
192,192,125174,1,0,0:0:0:0:
192,192,125315,1,0,0:0:0:0:
448,192,125477,1,0,0:0:0:0:
320,192,125497,1,0,0:0:0:0:
64,192,125638,1,0,0:0:0:0:
320,192,125719,1,0,0:0:0:0:
64,192,125799,1,0,0:0:0:0:
320,192,125961,1,0,0:0:0:0:
192,192,125981,1,0,0:0:0:0:
448,192,126122,1,0,0:0:0:0:
64,192,126203,1,0,0:0:0:0:
320,192,126283,1,0,0:0:0:0:
64,192,126445,1,0,0:0:0:0:
448,192,126445,1,0,0:0:0:0:
64,192,126767,1,0,0:0:0:0:
320,192,126767,1,0,0:0:0:0:
448,192,126767,1,0,0:0:0:0:
64,192,127412,1,0,0:0:0:0:
192,192,127412,1,0,0:0:0:0:
448,192,127412,1,0,0:0:0:0:
64,192,128057,1,0,0:0:0:0:
192,192,128057,1,0,0:0:0:0:
192,192,128380,1,0,0:0:0:0:
64,192,128380,1,0,0:0:0:0:
64,192,128703,1,0,0:0:0:0:
320,192,128703,1,0,0:0:0:0:
448,192,128703,1,0,0:0:0:0:
320,192,129348,1,0,0:0:0:0:
192,192,129348,1,0,0:0:0:0:
64,192,129348,1,0,0:0:0:0:
192,192,129832,1,0,0:0:0:0:
64,192,129832,1,0,0:0:0:0:
192,192,129993,1,0,0:0:0:0:
320,192,129993,1,0,0:0:0:0:
448,192,129993,1,0,0:0:0:0:
320,192,130477,1,0,0:0:0:0:
448,192,130477,1,0,0:0:0:0:
320,192,130638,1,0,0:0:0:0:
448,192,130638,1,0,0:0:0:0:
64,192,130638,1,0,0:0:0:0:
320,192,130961,1,0,0:0:0:0:
448,192,130961,1,0,0:0:0:0:
64,192,131283,1,0,0:0:0:0:
192,192,131283,1,0,0:0:0:0:
448,192,131283,1,0,0:0:0:0:
192,192,131445,1,0,0:0:0:0:
320,192,131445,1,0,0:0:0:0:
64,192,131928,1,0,0:0:0:0:
320,192,131928,1,0,0:0:0:0:
448,192,131928,1,0,0:0:0:0:
192,192,132574,1,0,0:0:0:0:
320,192,132574,1,0,0:0:0:0:
448,192,132574,1,0,0:0:0:0:
320,192,133057,1,0,0:0:0:0:
448,192,133057,1,0,0:0:0:0:
320,192,133380,1,0,0:0:0:0:
448,192,133380,1,0,0:0:0:0:
320,192,133703,1,0,0:0:0:0:
448,192,133703,1,0,0:0:0:0:
192,192,133864,1,0,0:0:0:0:
64,192,133864,1,0,0:0:0:0:
320,192,133864,1,0,0:0:0:0:
192,192,134509,1,0,0:0:0:0:
320,192,134509,1,0,0:0:0:0:
448,192,134509,1,0,0:0:0:0:
320,192,134993,1,0,0:0:0:0:
448,192,134993,1,0,0:0:0:0:
192,192,135154,1,0,0:0:0:0:
64,192,135154,1,0,0:0:0:0:
320,192,135154,1,0,0:0:0:0:
64,192,135477,1,0,0:0:0:0:
192,192,135477,1,0,0:0:0:0:
64,192,135638,1,0,0:0:0:0:
192,192,135638,1,0,0:0:0:0:
192,192,135799,1,0,0:0:0:0:
320,192,135799,1,0,0:0:0:0:
448,192,135799,1,0,0:0:0:0:
320,192,136122,1,0,0:0:0:0:
448,192,136122,1,0,0:0:0:0:
64,192,136122,128,0,136606:0:0:0:0:
448,192,136606,1,0,0:0:0:0:
320,192,136660,1,0,0:0:0:0:
192,192,136713,1,0,0:0:0:0:
64,192,136767,1,0,0:0:0:0:
320,192,136767,1,0,0:0:0:0:
448,192,136767,1,0,0:0:0:0:
320,192,136928,1,0,0:0:0:0:
448,192,136928,1,0,0:0:0:0:
192,192,137009,1,0,0:0:0:0:
64,192,137009,1,0,0:0:0:0:
448,192,137090,128,0,138380:0:0:0:0:
320,192,137090,1,0,0:0:0:0:
320,192,137412,1,0,0:0:0:0:
192,192,137412,1,0,0:0:0:0:
64,192,137574,1,0,0:0:0:0:
320,192,137735,1,0,0:0:0:0:
192,192,137896,1,0,0:0:0:0:
64,192,137896,1,0,0:0:0:0:
320,192,138057,1,0,0:0:0:0:
64,192,138057,1,0,0:0:0:0:
192,192,138380,128,0,139670:0:0:0:0:
64,192,138380,1,0,0:0:0:0:
320,192,138703,1,0,0:0:0:0:
64,192,138703,1,0,0:0:0:0:
448,192,138864,1,0,0:0:0:0:
64,192,139025,1,0,0:0:0:0:
448,192,139186,1,0,0:0:0:0:
320,192,139186,1,0,0:0:0:0:
320,192,139348,1,0,0:0:0:0:
64,192,139348,1,0,0:0:0:0:
64,192,139670,128,0,140961:0:0:0:0:
320,192,139670,1,0,0:0:0:0:
448,192,139993,1,0,0:0:0:0:
192,192,139993,1,0,0:0:0:0:
320,192,140154,1,0,0:0:0:0:
448,192,140315,1,0,0:0:0:0:
320,192,140477,1,0,0:0:0:0:
192,192,140477,1,0,0:0:0:0:
192,192,140638,1,0,0:0:0:0:
448,192,140638,1,0,0:0:0:0:
320,192,140961,128,0,142251:0:0:0:0:
448,192,140961,1,0,0:0:0:0:
192,192,141283,1,0,0:0:0:0:
64,192,141283,1,0,0:0:0:0:
448,192,141445,1,0,0:0:0:0:
64,192,141606,1,0,0:0:0:0:
64,192,141767,1,0,0:0:0:0:
448,192,141928,1,0,0:0:0:0:
192,192,141928,1,0,0:0:0:0:
64,192,142090,1,0,0:0:0:0:
448,192,142251,128,0,143541:0:0:0:0:
192,192,142251,1,0,0:0:0:0:
64,192,142251,1,0,0:0:0:0:
320,192,142412,1,0,0:0:0:0:
192,192,142574,1,0,0:0:0:0:
64,192,142574,1,0,0:0:0:0:
192,192,142735,1,0,0:0:0:0:
64,192,142896,1,0,0:0:0:0:
320,192,142896,1,0,0:0:0:0:
192,192,143057,1,0,0:0:0:0:
64,192,143057,1,0,0:0:0:0:
320,192,143219,1,0,0:0:0:0:
192,192,143219,1,0,0:0:0:0:
320,192,143380,1,0,0:0:0:0:
64,192,143541,128,0,144832:0:0:0:0:
192,192,143541,1,0,0:0:0:0:
448,192,143703,1,0,0:0:0:0:
320,192,143864,1,0,0:0:0:0:
192,192,143864,1,0,0:0:0:0:
192,192,144025,1,0,0:0:0:0:
320,192,144106,1,0,0:0:0:0:
448,192,144106,1,0,0:0:0:0:
192,192,144186,1,0,0:0:0:0:
320,192,144348,1,0,0:0:0:0:
448,192,144348,1,0,0:0:0:0:
192,192,144509,1,0,0:0:0:0:
320,192,144509,1,0,0:0:0:0:
448,192,144670,1,0,0:0:0:0:
320,192,144832,128,0,146122:0:0:0:0:
192,192,144832,1,0,0:0:0:0:
64,192,144993,1,0,0:0:0:0:
192,192,145154,1,0,0:0:0:0:
448,192,145154,1,0,0:0:0:0:
448,192,145315,1,0,0:0:0:0:
192,192,145315,1,0,0:0:0:0:
64,192,145477,1,0,0:0:0:0:
64,192,145638,1,0,0:0:0:0:
64,192,145799,1,0,0:0:0:0:
448,192,145799,1,0,0:0:0:0:
192,192,145961,1,0,0:0:0:0:
448,192,146122,1,0,0:0:0:0:
192,192,146122,1,0,0:0:0:0:
64,192,146122,1,0,0:0:0:0:
448,192,146445,128,0,146928:0:0:0:0:
64,192,146445,1,0,0:0:0:0:
320,192,146445,1,0,0:0:0:0:
192,192,146928,1,0,0:0:0:0:
64,192,146928,1,0,0:0:0:0:
320,192,147009,1,0,0:0:0:0:
64,192,147090,1,0,0:0:0:0:
192,192,147090,1,0,0:0:0:0:
448,192,147090,1,0,0:0:0:0:
64,192,147251,1,0,0:0:0:0:
320,192,147251,1,0,0:0:0:0:
448,192,147412,128,0,147735:0:0:0:0:
192,192,147412,1,0,0:0:0:0:
192,192,147574,128,0,147735:0:0:0:0:
320,192,147735,128,0,148057:0:0:0:0:
64,192,147735,1,0,0:0:0:0:
192,192,147896,128,0,148057:0:0:0:0:
64,192,147896,1,0,0:0:0:0:
64,192,148057,128,0,148380:0:0:0:0:
448,192,148057,1,0,0:0:0:0:
448,192,148219,128,0,148380:0:0:0:0:
192,192,148380,128,0,148703:0:0:0:0:
320,192,148380,1,0,0:0:0:0:
448,192,148541,128,0,148703:0:0:0:0:
320,192,148703,128,0,149025:0:0:0:0:
64,192,148703,1,0,0:0:0:0:
64,192,148864,128,0,149025:0:0:0:0:
448,192,148864,1,0,0:0:0:0:
448,192,149025,128,0,149348:0:0:0:0:
192,192,149025,1,0,0:0:0:0:
64,192,149186,128,0,149348:0:0:0:0:
192,192,149348,128,0,149670:0:0:0:0:
320,192,149348,128,0,149670:0:0:0:0:
448,192,149670,1,0,0:0:0:0:
64,192,149670,1,0,0:0:0:0:
192,192,149832,1,0,0:0:0:0:
320,192,149832,1,0,0:0:0:0:
64,192,149993,1,0,0:0:0:0:
320,192,149993,1,0,0:0:0:0:
448,192,149993,1,0,0:0:0:0:
320,192,150154,1,0,0:0:0:0:
320,192,150315,1,0,0:0:0:0:
448,192,150477,1,0,0:0:0:0:
192,192,150477,1,0,0:0:0:0:
64,192,150477,1,0,0:0:0:0:
64,192,150638,1,0,0:0:0:0:
64,192,150799,1,0,0:0:0:0:
320,192,150961,1,0,0:0:0:0:
448,192,150961,1,0,0:0:0:0:
192,192,150961,1,0,0:0:0:0:
448,192,151122,1,0,0:0:0:0:
320,192,151283,1,0,0:0:0:0:
192,192,151283,1,0,0:0:0:0:
64,192,151283,1,0,0:0:0:0:
64,192,151445,1,0,0:0:0:0:
192,192,151606,1,0,0:0:0:0:
320,192,151606,1,0,0:0:0:0:
448,192,151606,1,0,0:0:0:0:
320,192,151767,1,0,0:0:0:0:
192,192,151928,1,0,0:0:0:0:
64,192,151928,1,0,0:0:0:0:
448,192,151928,1,0,0:0:0:0:
64,192,152251,1,0,0:0:0:0:
320,192,152251,1,0,0:0:0:0:
448,192,152251,1,0,0:0:0:0:
448,192,152412,128,0,154509:0:0:0:0:
320,192,152412,128,0,153864:0:0:0:0:
64,192,152412,128,0,153219:0:0:0:0:
