osu file format v14

[General]
AudioFilename: audio.mp3
AudioLeadIn: 0
PreviewTime: 62025
Countdown: 0
SampleSet: Normal
StackLeniency: 0.7
Mode: 1
LetterboxInBreaks: 0
WidescreenStoryboard: 0

[Editor]
DistanceSpacing: 1
BeatDivisor: 4
GridSize: 32
TimelineZoom: 2.899999

[Metadata]
Title:The Day feat. Aruvn (dj-Jo Remix) Extended Version
TitleUnicode:The Day feat. Aruvn (dj-Jo Remix) Extended Version
Artist:Porno Graffiti
ArtistUnicode:Porno Graffiti
Creator:Chromoxx
Version:Sur's Oni
Source:僕のヒーローアカデミア
Tags:midnaait surono drum and bass, boku no hero academia, dnb
BeatmapID:1473833
BeatmapSetID:693174

[Difficulty]
HPDrainRate:6
CircleSize:2
OverallDifficulty:6
ApproachRate:10
SliderMultiplier:1.4
SliderTickRate:1

[Events]
//Background and Video events
0,0,"that day.jpg",0,70
//Break Periods
//Storyboard Layer 0 (Background)
//Storyboard Layer 1 (Fail)
//Storyboard Layer 2 (Pass)
//Storyboard Layer 3 (Foreground)
//Storyboard Sound Samples

[TimingPoints]
240,322.58064516129,4,1,0,90,1,0
62175,-100,4,1,0,90,0,1
71530,-100,4,1,0,90,0,0
72498,-100,4,1,0,90,0,1
82820,-100,4,1,0,90,0,0
126691,-83.3333333333333,4,1,0,90,0,1
136046,-83.3333333333333,4,1,0,90,0,0
136530,-100,4,1,0,90,0,0
137014,-100,4,1,0,90,0,1
147336,-100,4,1,0,90,0,0

[HitObjects]
256,192,78,5,0,0:0:0:0:
256,192,159,1,0,0:0:0:0:
256,192,240,1,8,0:0:0:0:
256,192,562,1,8,0:0:0:0:
256,192,723,1,0,0:0:0:0:
256,192,885,1,8,0:0:0:0:
256,192,1046,1,0,0:0:0:0:
256,192,1369,1,8,0:0:0:0:
256,192,1691,1,0,0:0:0:0:
256,192,2014,2,0,L|96:192,1,140
256,192,2498,1,8,0:0:0:0:
256,192,2659,1,8,0:0:0:0:
256,192,2820,1,4,0:0:0:0:
256,192,4110,1,0,0:0:0:0:
256,192,5401,1,0,0:0:0:0:
256,192,6691,1,0,0:0:0:0:
256,192,7820,1,4,0:0:0:0:
256,192,7981,1,4,0:0:0:0:
256,192,9272,1,12,0:0:0:0:
256,192,10562,1,12,0:0:0:0:
256,192,11852,1,4,0:0:0:0:
256,192,12175,1,4,0:0:0:0:
256,192,13143,1,8,0:0:0:0:
256,192,13304,1,0,0:0:0:0:
256,192,13465,1,0,0:0:0:0:
256,192,13627,1,8,0:0:0:0:
256,192,13788,1,0,0:0:0:0:
256,192,13949,1,0,0:0:0:0:
256,192,14110,1,8,0:0:0:0:
256,192,14272,1,8,0:0:0:0:
256,192,14433,1,0,0:0:0:0:
256,192,14594,1,8,0:0:0:0:
256,192,14675,1,8,0:0:0:0:
256,192,14756,1,0,0:0:0:0:
256,192,14836,1,8,0:0:0:0:
256,192,14917,1,0,0:0:0:0:
256,192,14998,1,0,0:0:0:0:
256,192,15078,1,8,0:0:0:0:
256,192,15239,1,0,0:0:0:0:
256,192,15320,1,0,0:0:0:0:
256,192,15401,1,8,0:0:0:0:
256,192,15723,1,4,0:0:0:0:
256,192,15885,1,8,0:0:0:0:
256,192,16046,1,8,0:0:0:0:
256,192,16207,1,0,0:0:0:0:
256,192,16288,1,0,0:0:0:0:
256,192,16369,1,8,0:0:0:0:
256,192,16449,1,8,0:0:0:0:
256,192,16530,1,0,0:0:0:0:
256,192,16691,1,8,0:0:0:0:
256,192,17014,1,0,0:0:0:0:
256,192,17175,1,8,0:0:0:0:
256,192,17336,1,8,0:0:0:0:
256,192,17498,1,0,0:0:0:0:
256,192,17578,1,8,0:0:0:0:
256,192,17659,1,8,0:0:0:0:
256,192,17820,1,0,0:0:0:0:
256,192,17981,1,8,0:0:0:0:
256,192,18062,1,8,0:0:0:0:
256,192,18143,1,0,0:0:0:0:
256,192,18304,1,0,0:0:0:0:
256,192,18465,1,8,0:0:0:0:
256,192,18627,1,8,0:0:0:0:
256,192,18788,1,0,0:0:0:0:
256,192,18869,1,0,0:0:0:0:
256,192,18949,1,8,0:0:0:0:
256,192,19030,1,8,0:0:0:0:
256,192,19110,1,0,0:0:0:0:
256,192,19272,1,8,0:0:0:0:
256,192,19433,1,0,0:0:0:0:
256,192,19594,1,8,0:0:0:0:
256,192,19917,1,0,0:0:0:0:
256,192,19998,1,0,0:0:0:0:
256,192,20078,1,8,0:0:0:0:
256,192,20239,1,0,0:0:0:0:
256,192,20320,1,0,0:0:0:0:
256,192,20401,1,0,0:0:0:0:
256,192,20481,1,0,0:0:0:0:
256,192,20562,1,8,0:0:0:0:
256,192,20885,1,4,0:0:0:0:
256,192,21046,1,8,0:0:0:0:
256,192,21207,1,8,0:0:0:0:
256,192,21369,1,0,0:0:0:0:
256,192,21449,1,0,0:0:0:0:
256,192,21530,1,8,0:0:0:0:
256,192,21610,1,8,0:0:0:0:
256,192,21691,1,0,0:0:0:0:
256,192,21852,1,8,0:0:0:0:
256,192,22175,1,0,0:0:0:0:
256,192,22336,1,8,0:0:0:0:
256,192,22498,1,8,0:0:0:0:
256,192,22659,1,0,0:0:0:0:
256,192,22739,1,8,0:0:0:0:
256,192,22820,1,0,0:0:0:0:
256,192,22901,1,8,0:0:0:0:
256,192,22981,1,0,0:0:0:0:
256,192,23143,1,8,0:0:0:0:
256,192,23304,1,0,0:0:0:0:
256,192,23465,1,0,0:0:0:0:
256,192,23627,1,8,0:0:0:0:
256,192,23788,1,8,0:0:0:0:
256,192,23949,1,0,0:0:0:0:
256,192,24030,1,0,0:0:0:0:
256,192,24110,1,0,0:0:0:0:
256,192,24191,1,8,0:0:0:0:
256,192,24272,1,0,0:0:0:0:
256,192,24433,1,8,0:0:0:0:
256,192,24756,1,0,0:0:0:0:
256,192,24917,1,8,0:0:0:0:
256,192,25078,1,0,0:0:0:0:
256,192,25159,1,0,0:0:0:0:
256,192,25239,1,8,0:0:0:0:
256,192,25401,1,0,0:0:0:0:
256,192,25562,1,8,0:0:0:0:
256,192,25643,1,8,0:0:0:0:
256,192,25723,1,8,0:0:0:0:
256,192,25885,1,8,0:0:0:0:
256,192,26046,1,4,0:0:0:0:
256,192,26369,1,8,0:0:0:0:
256,192,26530,1,0,0:0:0:0:
256,192,26610,1,0,0:0:0:0:
256,192,26691,1,8,0:0:0:0:
256,192,26852,1,0,0:0:0:0:
256,192,27014,1,8,0:0:0:0:
256,192,27175,1,8,0:0:0:0:
256,192,27336,1,0,0:0:0:0:
256,192,27659,1,8,0:0:0:0:
256,192,27820,1,0,0:0:0:0:
256,192,27901,1,0,0:0:0:0:
256,192,27981,1,0,0:0:0:0:
256,192,28143,1,0,0:0:0:0:
256,192,28304,1,8,0:0:0:0:
256,192,28465,1,0,0:0:0:0:
256,192,28627,1,0,0:0:0:0:
256,192,28949,1,8,0:0:0:0:
256,192,29110,1,0,0:0:0:0:
256,192,29191,1,8,0:0:0:0:
256,192,29272,1,0,0:0:0:0:
256,192,29433,1,0,0:0:0:0:
256,192,29594,1,8,0:0:0:0:
256,192,29836,1,0,0:0:0:0:
64,160,29917,1,0,0:0:0:0:
256,192,30078,1,0,0:0:0:0:
256,192,30239,1,8,0:0:0:0:
256,192,30401,1,0,0:0:0:0:
256,192,30481,1,0,0:0:0:0:
256,192,30643,1,0,0:0:0:0:
256,192,30723,1,0,0:0:0:0:
256,192,30804,1,0,0:0:0:0:
256,192,30885,1,8,0:0:0:0:
256,192,31046,1,8,0:0:0:0:
256,192,31207,1,0,0:0:0:0:
256,192,31530,1,8,0:0:0:0:
256,192,31691,1,8,0:0:0:0:
256,192,31772,1,8,0:0:0:0:
256,192,31852,1,0,0:0:0:0:
256,192,32014,1,0,0:0:0:0:
256,192,32175,1,8,0:0:0:0:
256,192,32336,1,0,0:0:0:0:
256,192,32498,1,8,0:0:0:0:
256,192,32820,1,8,0:0:0:0:
256,192,32981,1,0,0:0:0:0:
256,192,33062,1,0,0:0:0:0:
256,192,33143,1,0,0:0:0:0:
256,192,33304,1,0,0:0:0:0:
256,192,33465,1,8,0:0:0:0:
256,192,33627,1,8,0:0:0:0:
256,192,33707,1,8,0:0:0:0:
256,192,33788,1,0,0:0:0:0:
256,192,34110,1,8,0:0:0:0:
256,192,34352,1,0,0:0:0:0:
256,192,34514,1,0,0:0:0:0:
256,192,34594,1,0,0:0:0:0:
256,192,34756,1,8,0:0:0:0:
256,192,34917,1,0,0:0:0:0:
256,192,34998,1,0,0:0:0:0:
256,192,35159,1,0,0:0:0:0:
256,192,35239,1,0,0:0:0:0:
256,192,35401,1,8,0:0:0:0:
256,192,35562,1,0,0:0:0:0:
256,192,35643,1,0,0:0:0:0:
256,192,35804,1,0,0:0:0:0:
256,192,35885,1,0,0:0:0:0:
256,192,35965,1,0,0:0:0:0:
256,192,36046,1,8,0:0:0:0:
256,192,36369,1,4,0:0:0:0:
256,192,36691,1,8,0:0:0:0:
256,192,36852,1,8,0:0:0:0:
256,192,36933,1,8,0:0:0:0:
256,192,37014,1,8,0:0:0:0:
256,192,37175,1,0,0:0:0:0:
256,192,37336,1,8,0:0:0:0:
256,192,37498,1,8,0:0:0:0:
256,192,37659,1,0,0:0:0:0:
256,192,37820,1,8,0:0:0:0:
256,192,37981,1,8,0:0:0:0:
256,192,38143,1,0,0:0:0:0:
256,192,38223,1,8,0:0:0:0:
256,192,38304,1,0,0:0:0:0:
256,192,38465,1,0,0:0:0:0:
256,192,38627,1,8,0:0:0:0:
256,192,38788,1,0,0:0:0:0:
256,192,38869,1,0,0:0:0:0:
256,192,38949,1,0,0:0:0:0:
256,192,39272,1,8,0:0:0:0:
256,192,39433,1,8,0:0:0:0:
256,192,39514,1,8,0:0:0:0:
256,192,39594,1,0,0:0:0:0:
256,192,39756,1,0,0:0:0:0:
256,192,39917,1,8,0:0:0:0:
256,192,40078,1,0,0:0:0:0:
256,192,40159,1,0,0:0:0:0:
256,192,40239,1,8,0:0:0:0:
256,192,40401,1,0,0:0:0:0:
256,192,40562,1,8,0:0:0:0:
256,192,40723,1,8,0:0:0:0:
256,192,40885,1,0,0:0:0:0:
256,192,40965,1,8,0:0:0:0:
256,192,41046,1,0,0:0:0:0:
256,192,41127,1,0,0:0:0:0:
256,192,41207,1,8,0:0:0:0:
256,192,41369,1,8,0:0:0:0:
256,192,41530,1,0,0:0:0:0:
256,192,41852,1,8,0:0:0:0:
256,192,42014,1,8,0:0:0:0:
256,192,42094,1,0,0:0:0:0:
256,192,42175,1,8,0:0:0:0:
256,192,42336,1,0,0:0:0:0:
256,192,42498,1,8,0:0:0:0:
256,192,42659,1,8,0:0:0:0:
256,192,42820,1,0,0:0:0:0:
256,192,42981,1,0,0:0:0:0:
256,192,43143,1,8,0:0:0:0:
256,192,43304,1,0,0:0:0:0:
256,192,43385,1,8,0:0:0:0:
256,192,43465,1,0,0:0:0:0:
256,192,43627,1,0,0:0:0:0:
256,192,43788,1,8,0:0:0:0:
256,192,43949,1,8,0:0:0:0:
256,192,44030,1,0,0:0:0:0:
256,192,44110,1,0,0:0:0:0:
256,192,44272,1,0,0:0:0:0:
256,192,44433,1,8,0:0:0:0:
256,192,44675,1,0,0:0:0:0:
256,192,44836,1,0,0:0:0:0:
256,192,44917,1,0,0:0:0:0:
256,192,45078,1,8,0:0:0:0:
256,192,45239,1,0,0:0:0:0:
256,192,45320,1,8,0:0:0:0:
256,192,45481,1,8,0:0:0:0:
256,192,45562,1,0,0:0:0:0:
256,192,45723,1,8,0:0:0:0:
256,192,45885,1,0,0:0:0:0:
256,192,45965,1,8,0:0:0:0:
256,192,46046,1,0,0:0:0:0:
256,192,46207,1,12,0:0:0:0:
256,192,46691,1,0,0:0:0:0:
256,192,47014,1,0,0:0:0:0:
256,192,47336,1,12,0:0:0:0:
256,192,47659,1,8,0:0:0:0:
256,192,47981,1,8,0:0:0:0:
256,192,48143,1,0,0:0:0:0:
256,192,48304,1,0,0:0:0:0:
256,192,48627,1,8,0:0:0:0:
256,192,48949,1,8,0:0:0:0:
256,192,49110,1,8,0:0:0:0:
256,192,49272,1,0,0:0:0:0:
256,192,49756,1,0,0:0:0:0:
256,192,49917,1,12,0:0:0:0:
256,192,50239,1,0,0:0:0:0:
256,192,50401,1,8,0:0:0:0:
256,192,50562,1,0,0:0:0:0:
256,192,50723,1,0,0:0:0:0:
256,192,50885,1,0,0:0:0:0:
256,192,51207,1,8,0:0:0:0:
256,192,51369,1,0,0:0:0:0:
256,192,51530,1,0,0:0:0:0:
256,192,51691,1,0,0:0:0:0:
256,192,51852,1,8,0:0:0:0:
256,192,52014,1,8,0:0:0:0:
256,192,52498,1,12,0:0:0:0:
256,192,52820,1,0,0:0:0:0:
256,192,52981,1,8,0:0:0:0:
256,192,53143,1,0,0:0:0:0:
256,192,53304,1,8,0:0:0:0:
256,192,53465,1,0,0:0:0:0:
256,192,53788,1,8,0:0:0:0:
256,192,53949,1,0,0:0:0:0:
256,192,54110,1,8,0:0:0:0:
256,192,54272,1,0,0:0:0:0:
256,192,54433,1,12,0:0:0:0:
256,192,54756,1,0,0:0:0:0:
256,192,55078,1,0,0:0:0:0:
256,192,55401,1,8,0:0:0:0:
256,192,55723,1,0,0:0:0:0:
256,192,56046,1,0,0:0:0:0:
256,192,56369,1,8,0:0:0:0:
256,192,56691,1,0,0:0:0:0:
256,192,57014,1,12,0:0:0:0:
256,192,57175,1,0,0:0:0:0:
256,192,57336,1,0,0:0:0:0:
256,192,57498,1,12,0:0:0:0:
256,192,57820,1,4,0:0:0:0:
256,192,58143,1,12,0:0:0:0:
256,192,58304,12,0,59433,0:0:0:0:
256,192,59594,5,8,0:0:0:0:
256,192,59756,1,8,0:0:0:0:
256,192,59917,1,0,0:0:0:0:
256,192,60078,1,8,0:0:0:0:
256,192,60239,1,8,0:0:0:0:
256,192,60401,1,0,0:0:0:0:
256,192,60562,1,8,0:0:0:0:
256,192,60723,1,0,0:0:0:0:
256,192,60885,1,8,0:0:0:0:
256,192,61046,1,8,0:0:0:0:
256,192,61207,1,0,0:0:0:0:
256,192,61369,1,8,0:0:0:0:
256,192,61530,1,8,0:0:0:0:
256,192,61637,1,0,0:0:0:0:
256,192,61745,1,0,0:0:0:0:
256,192,61852,1,8,0:0:0:0:
256,192,62175,1,12,0:0:0:0:
256,192,62498,1,8,0:0:0:0:
256,192,62659,1,8,0:0:0:0:
256,192,62739,1,8,0:0:0:0:
256,192,62820,1,8,0:0:0:0:
256,192,62981,1,0,0:0:0:0:
256,192,63143,1,8,0:0:0:0:
256,192,63304,1,8,0:0:0:0:
256,192,63465,1,0,0:0:0:0:
256,192,63788,1,8,0:0:0:0:
256,192,63949,1,8,0:0:0:0:
256,192,64030,1,8,0:0:0:0:
256,192,64110,1,0,0:0:0:0:
256,192,64272,1,0,0:0:0:0:
256,192,64352,1,0,0:0:0:0:
256,192,64433,1,8,0:0:0:0:
256,192,64594,1,8,0:0:0:0:
256,192,64756,1,0,0:0:0:0:
256,192,65078,1,8,0:0:0:0:
256,192,65239,1,0,0:0:0:0:
256,192,65320,1,8,0:0:0:0:
256,192,65401,1,0,0:0:0:0:
256,192,65562,1,0,0:0:0:0:
256,192,65723,1,8,0:0:0:0:
256,192,65885,1,0,0:0:0:0:
256,192,66046,1,0,0:0:0:0:
256,192,66369,1,8,0:0:0:0:
256,192,66530,1,8,0:0:0:0:
256,192,66610,1,8,0:0:0:0:
256,192,66691,1,0,0:0:0:0:
256,192,66852,1,0,0:0:0:0:
256,192,66933,1,0,0:0:0:0:
256,192,67014,1,8,0:0:0:0:
256,192,67175,1,0,0:0:0:0:
256,192,67336,1,4,0:0:0:0:
256,192,67659,1,8,0:0:0:0:
256,192,67820,1,0,0:0:0:0:
256,192,67901,1,0,0:0:0:0:
256,192,67981,1,8,0:0:0:0:
256,192,68143,1,0,0:0:0:0:
256,192,68304,1,8,0:0:0:0:
256,192,68385,1,0,0:0:0:0:
256,192,68465,1,8,0:0:0:0:
256,192,68627,1,0,0:0:0:0:
256,192,68788,1,0,0:0:0:0:
256,192,68949,1,8,0:0:0:0:
256,192,69110,1,8,0:0:0:0:
256,192,69272,1,0,0:0:0:0:
256,192,69433,1,8,0:0:0:0:
256,192,69594,1,8,0:0:0:0:
256,192,69756,1,8,0:0:0:0:
256,192,69917,1,0,0:0:0:0:
256,192,70239,1,8,0:0:0:0:
256,192,70401,1,0,0:0:0:0:
256,192,70481,1,0,0:0:0:0:
256,192,70562,1,0,0:0:0:0:
256,192,70723,1,8,0:0:0:0:
256,192,70885,1,8,0:0:0:0:
256,192,71046,1,0,0:0:0:0:
256,192,71207,1,12,0:0:0:0:
256,192,71530,1,12,0:0:0:0:
256,192,72014,1,0,0:0:0:0:
256,192,72067,1,0,0:0:0:0:
256,192,72121,1,0,0:0:0:0:
256,192,72175,1,8,0:0:0:0:
256,192,72336,1,8,0:0:0:0:
256,192,72498,1,4,0:0:0:0:
256,192,72820,1,8,0:0:0:0:
256,192,72981,1,8,0:0:0:0:
256,192,73062,1,8,0:0:0:0:
256,192,73143,1,0,0:0:0:0:
256,192,73304,1,8,0:0:0:0:
256,192,73465,1,8,0:0:0:0:
256,192,73627,1,8,0:0:0:0:
256,192,73788,1,0,0:0:0:0:
256,192,74110,1,8,0:0:0:0:
256,192,74272,1,8,0:0:0:0:
256,192,74352,1,0,0:0:0:0:
256,192,74514,1,8,0:0:0:0:
256,192,74594,1,0,0:0:0:0:
256,192,74675,1,0,0:0:0:0:
256,192,74756,1,8,0:0:0:0:
256,192,74917,1,8,0:0:0:0:
256,192,75078,1,0,0:0:0:0:
256,192,75401,1,8,0:0:0:0:
256,192,75562,1,0,0:0:0:0:
256,192,75643,1,8,0:0:0:0:
256,192,75723,1,0,0:0:0:0:
256,192,75885,1,8,0:0:0:0:
256,192,76046,1,8,0:0:0:0:
256,192,76207,1,8,0:0:0:0:
256,192,76369,1,0,0:0:0:0:
256,192,76691,1,8,0:0:0:0:
256,192,76852,1,0,0:0:0:0:
256,192,77014,1,8,0:0:0:0:
256,192,77094,1,0,0:0:0:0:
256,192,77175,1,8,0:0:0:0:
256,192,77256,1,0,0:0:0:0:
256,192,77336,1,8,0:0:0:0:
256,192,77498,1,8,0:0:0:0:
256,192,77659,1,4,0:0:0:0:
256,192,77981,1,8,0:0:0:0:
256,192,78143,1,8,0:0:0:0:
256,192,78223,1,0,0:0:0:0:
256,192,78304,1,8,0:0:0:0:
256,192,78465,1,0,0:0:0:0:
256,192,78627,1,8,0:0:0:0:
256,192,78707,1,0,0:0:0:0:
256,192,78788,1,0,0:0:0:0:
256,192,78949,1,8,0:0:0:0:
256,192,79272,1,8,0:0:0:0:
256,192,79433,1,8,0:0:0:0:
256,192,79594,1,0,0:0:0:0:
256,192,79756,1,0,0:0:0:0:
256,192,79836,1,0,0:0:0:0:
256,192,79917,1,8,0:0:0:0:
256,192,80078,1,8,0:0:0:0:
256,192,80239,1,0,0:0:0:0:
256,192,80562,1,8,0:0:0:0:
256,192,80723,1,0,0:0:0:0:
256,192,80804,1,0,0:0:0:0:
256,192,80885,1,0,0:0:0:0:
256,192,81046,1,0,0:0:0:0:
256,192,81207,1,8,0:0:0:0:
256,192,81369,1,0,0:0:0:0:
256,192,81530,1,12,0:0:0:0:
256,192,81852,1,12,0:0:0:0:
256,192,82336,1,0,0:0:0:0:
256,192,82417,1,0,0:0:0:0:
256,192,82498,1,8,0:0:0:0:
256,192,82659,1,0,0:0:0:0:
256,192,82820,1,12,0:0:0:0:
256,192,83143,1,0,0:0:0:0:
256,192,83304,1,12,0:0:0:0:
256,192,83465,1,0,0:0:0:0:
256,192,83788,1,12,0:0:0:0:
256,192,84110,1,0,0:0:0:0:
256,192,84272,1,12,0:0:0:0:
256,192,84433,1,0,0:0:0:0:
256,192,84756,1,12,0:0:0:0:
256,192,85078,1,12,0:0:0:0:
256,192,85239,1,0,0:0:0:0:
256,192,85401,1,4,0:0:0:0:
256,192,85723,1,8,0:0:0:0:
256,192,85885,1,0,0:0:0:0:
256,192,86127,1,0,0:0:0:0:
256,192,86207,1,0,0:0:0:0:
256,192,86369,1,8,0:0:0:0:
256,192,86530,1,0,0:0:0:0:
256,192,86691,1,8,0:0:0:0:
256,192,86772,1,8,0:0:0:0:
256,192,86852,1,0,0:0:0:0:
256,192,87014,1,8,0:0:0:0:
256,192,87175,1,8,0:0:0:0:
256,192,87256,1,8,0:0:0:0:
256,192,87336,1,0,0:0:0:0:
256,192,87498,1,0,0:0:0:0:
256,192,87659,1,8,0:0:0:0:
256,192,87820,1,8,0:0:0:0:
256,192,87981,1,0,0:0:0:0:
256,192,88304,1,8,0:0:0:0:
256,192,88465,1,0,0:0:0:0:
256,192,88707,1,0,0:0:0:0:
256,192,88788,1,8,0:0:0:0:
256,192,88949,1,8,0:0:0:0:
256,192,89110,1,0,0:0:0:0:
256,192,89272,1,8,0:0:0:0:
256,192,89352,1,8,0:0:0:0:
256,192,89433,1,0,0:0:0:0:
256,192,89594,1,8,0:0:0:0:
256,192,89756,1,8,0:0:0:0:
256,192,89836,1,8,0:0:0:0:
256,192,89917,1,0,0:0:0:0:
256,192,90078,1,0,0:0:0:0:
256,192,90159,1,0,0:0:0:0:
256,192,90239,1,8,0:0:0:0:
256,192,90562,1,4,0:0:0:0:
256,192,90885,1,8,0:0:0:0:
256,192,91046,1,0,0:0:0:0:
256,192,91288,1,0,0:0:0:0:
256,192,91369,1,0,0:0:0:0:
256,192,91530,1,8,0:0:0:0:
256,192,91691,1,0,0:0:0:0:
256,192,91852,1,8,0:0:0:0:
256,192,91933,1,8,0:0:0:0:
256,192,92014,1,0,0:0:0:0:
256,192,92175,1,8,0:0:0:0:
256,192,92336,1,8,0:0:0:0:
256,192,92417,1,8,0:0:0:0:
256,192,92498,1,0,0:0:0:0:
256,192,92659,1,0,0:0:0:0:
256,192,92820,1,8,0:0:0:0:
256,192,92981,1,8,0:0:0:0:
256,192,93143,1,0,0:0:0:0:
256,192,93465,1,8,0:0:0:0:
256,192,93627,1,8,0:0:0:0:
256,192,93788,1,0,0:0:0:0:
256,192,93869,1,8,0:0:0:0:
256,192,93949,1,0,0:0:0:0:
256,192,94110,1,8,0:0:0:0:
256,192,94272,1,0,0:0:0:0:
256,192,94594,1,8,0:0:0:0:
256,192,94756,1,8,0:0:0:0:
256,192,94836,1,0,0:0:0:0:
256,192,94917,1,8,0:0:0:0:
256,192,95078,1,8,0:0:0:0:
256,192,95239,1,8,0:0:0:0:
256,192,95320,1,0,0:0:0:0:
256,192,95401,1,8,0:0:0:0:
256,192,95562,1,0,0:0:0:0:
256,192,95723,1,12,0:0:0:0:
256,192,96046,1,8,0:0:0:0:
256,192,96207,1,0,0:0:0:0:
256,192,96449,1,0,0:0:0:0:
320,160,96530,1,0,0:0:0:0:
328,156,96691,1,8,0:0:0:0:
298,83,96852,1,0,0:0:0:0:
350,143,97014,1,8,0:0:0:0:
346,142,97094,1,0,0:0:0:0:
298,83,97175,1,0,0:0:0:0:
285,151,97336,1,8,0:0:0:0:
286,147,97498,1,8,0:0:0:0:
249,268,97578,1,0,0:0:0:0:
258,141,97659,1,0,0:0:0:0:
224,288,97820,1,0,0:0:0:0:
187,236,97981,1,8,0:0:0:0:
187,236,98143,1,8,0:0:0:0:
136,155,98304,1,0,0:0:0:0:
152,280,98627,1,8,0:0:0:0:
141,287,98788,1,0,0:0:0:0:
270,295,99030,1,0,0:0:0:0:
270,295,99110,1,8,0:0:0:0:
112,354,99272,1,8,0:0:0:0:
366,213,99433,1,0,0:0:0:0:
252,238,99594,1,8,0:0:0:0:
266,236,99675,1,0,0:0:0:0:
250,267,99756,1,0,0:0:0:0:
236,261,99917,1,8,0:0:0:0:
115,270,100078,1,8,0:0:0:0:
238,260,100159,1,0,0:0:0:0:
320,128,100239,1,0,0:0:0:0:
247,164,100401,1,0,0:0:0:0:
247,158,100481,1,0,0:0:0:0:
247,164,100562,1,8,0:0:0:0:
325,127,100885,1,12,0:0:0:0:
353,134,101207,1,8,0:0:0:0:
353,134,101369,1,0,0:0:0:0:
353,134,101449,1,0,0:0:0:0:
353,134,101530,1,8,0:0:0:0:
279,135,101691,1,0,0:0:0:0:
202,268,101852,1,8,0:0:0:0:
203,253,102014,1,0,0:0:0:0:
202,253,102094,1,0,0:0:0:0:
202,253,102175,1,8,0:0:0:0:
201,253,102336,1,0,0:0:0:0:
200,253,102498,1,8,0:0:0:0:
184,252,102659,1,0,0:0:0:0:
184,252,102820,1,8,0:0:0:0:
191,245,102901,1,8,0:0:0:0:
180,196,102981,1,0,0:0:0:0:
180,196,103062,1,0,0:0:0:0:
180,196,103143,1,8,0:0:0:0:
180,196,103304,1,0,0:0:0:0:
228,148,103465,1,8,0:0:0:0:
213,258,103788,1,8,0:0:0:0:
213,258,103949,1,8,0:0:0:0:
218,254,104030,1,0,0:0:0:0:
384,128,104191,1,0,0:0:0:0:
96,128,104272,1,8,0:0:0:0:
223,257,104433,1,8,0:0:0:0:
172,207,104594,1,8,0:0:0:0:
172,207,104756,1,0,0:0:0:0:
224,128,105401,1,8,0:0:0:0:
160,224,106046,1,12,0:0:0:0:
165,219,106207,1,8,0:0:0:0:
68,222,106369,1,0,0:0:0:0:
212,296,106530,1,8,0:0:0:0:
212,296,106610,1,0,0:0:0:0:
269,228,106691,1,8,0:0:0:0:
221,185,106852,1,8,0:0:0:0:
285,213,107014,1,0,0:0:0:0:
182,259,107094,1,0,0:0:0:0:
182,259,107175,1,0,0:0:0:0:
116,159,107336,1,8,0:0:0:0:
283,165,107498,1,8,0:0:0:0:
189,146,107659,1,0,0:0:0:0:
66,243,107820,1,8,0:0:0:0:
144,293,107901,1,0,0:0:0:0:
160,290,107981,1,8,0:0:0:0:
285,213,108062,1,8,0:0:0:0:
266,239,108143,1,0,0:0:0:0:
273,290,108304,1,8,0:0:0:0:
123,126,108627,1,12,0:0:0:0:
123,126,108788,1,8,0:0:0:0:
133,117,108949,1,0,0:0:0:0:
133,117,109057,1,0,0:0:0:0:
133,117,109164,1,0,0:0:0:0:
91,96,109272,1,8,0:0:0:0:
160,273,109433,1,8,0:0:0:0:
253,262,109594,1,0,0:0:0:0:
292,250,109675,1,0,0:0:0:0:
280,252,109756,1,8,0:0:0:0:
346,296,109917,1,0,0:0:0:0:
346,296,110078,1,0,0:0:0:0:
269,226,110239,1,8,0:0:0:0:
341,218,110401,1,0,0:0:0:0:
262,218,110562,1,8,0:0:0:0:
196,230,110643,1,8,0:0:0:0:
196,230,110723,1,8,0:0:0:0:
196,230,110885,1,0,0:0:0:0:
286,188,111207,1,12,0:0:0:0:
280,187,111369,1,8,0:0:0:0:
55,118,111530,1,0,0:0:0:0:
55,118,111610,1,0,0:0:0:0:
55,118,111691,1,0,0:0:0:0:
72,278,111852,1,8,0:0:0:0:
218,294,112014,1,0,0:0:0:0:
218,294,112175,1,0,0:0:0:0:
218,294,112256,1,8,0:0:0:0:
218,294,112336,1,0,0:0:0:0:
205,160,112498,1,8,0:0:0:0:
215,152,112659,1,8,0:0:0:0:
113,158,112820,1,8,0:0:0:0:
197,284,112901,1,8,0:0:0:0:
107,264,112981,1,0,0:0:0:0:
226,271,113143,1,8,0:0:0:0:
264,232,113304,1,0,0:0:0:0:
89,193,113465,1,8,0:0:0:0:
89,193,113546,1,0,0:0:0:0:
89,193,113627,1,0,0:0:0:0:
256,256,113707,1,0,0:0:0:0:
199,234,113788,1,8,0:0:0:0:
100,176,113949,1,8,0:0:0:0:
115,180,114110,1,0,0:0:0:0:
100,176,114272,1,8,0:0:0:0:
100,176,114433,1,8,0:0:0:0:
183,128,114756,1,8,0:0:0:0:
256,192,114836,1,8,0:0:0:0:
183,128,114917,1,8,0:0:0:0:
384,224,114998,1,8,0:0:0:0:
249,270,115078,1,0,0:0:0:0:
249,270,115239,1,0,0:0:0:0:
249,270,115401,1,8,0:0:0:0:
249,270,115562,1,0,0:0:0:0:
200,246,115723,1,8,0:0:0:0:
200,246,115885,1,8,0:0:0:0:
186,242,116046,1,0,0:0:0:0:
146,143,116369,1,4,0:0:0:0:
146,143,116530,1,8,0:0:0:0:
197,149,116691,1,8,0:0:0:0:
197,149,116852,1,0,0:0:0:0:
114,249,117014,1,8,0:0:0:0:
114,249,117094,1,8,0:0:0:0:
114,249,117175,1,8,0:0:0:0:
114,249,117256,1,0,0:0:0:0:
114,249,117336,1,8,0:0:0:0:
246,291,117498,1,0,0:0:0:0:
318,332,117659,1,0,0:0:0:0:
224,192,117739,1,8,0:0:0:0:
170,264,117820,1,0,0:0:0:0:
175,249,117981,1,8,0:0:0:0:
334,303,118143,1,8,0:0:0:0:
210,319,118223,1,0,0:0:0:0:
222,291,118304,1,8,0:0:0:0:
214,270,118465,1,0,0:0:0:0:
188,322,118627,1,8,0:0:0:0:
384,64,118707,1,0,0:0:0:0:
193,319,118788,1,0,0:0:0:0:
256,192,118869,1,8,0:0:0:0:
197,317,118949,1,0,0:0:0:0:
39,279,119272,1,8,0:0:0:0:
122,296,119352,1,8,0:0:0:0:
191,273,119433,1,0,0:0:0:0:
191,273,119514,1,8,0:0:0:0:
197,269,119594,1,0,0:0:0:0:
233,261,119756,1,0,0:0:0:0:
213,250,119917,1,8,0:0:0:0:
309,279,120078,1,8,0:0:0:0:
421,247,120159,1,8,0:0:0:0:
326,275,120239,1,8,0:0:0:0:
241,273,120401,1,0,0:0:0:0:
245,261,120562,1,0,0:0:0:0:
246,260,120723,1,8,0:0:0:0:
257,248,120885,1,0,0:0:0:0:
241,251,121127,1,8,0:0:0:0:
239,250,121207,1,8,0:0:0:0:
303,190,121369,1,0,0:0:0:0:
125,226,121530,1,12,0:0:0:0:
125,226,121691,1,0,0:0:0:0:
75,131,121852,1,8,0:0:0:0:
75,131,121933,1,8,0:0:0:0:
75,131,122014,1,8,0:0:0:0:
111,136,122175,1,0,0:0:0:0:
129,294,122336,1,0,0:0:0:0:
164,250,122498,1,8,0:0:0:0:
313,219,122578,1,0,0:0:0:0:
322,216,122659,1,8,0:0:0:0:
257,281,122820,1,0,0:0:0:0:
249,265,122901,1,8,0:0:0:0:
275,254,122981,1,8,0:0:0:0:
249,265,123062,1,0,0:0:0:0:
275,254,123143,1,8,0:0:0:0:
337,275,123304,1,0,0:0:0:0:
360,294,123465,1,8,0:0:0:0:
211,259,123546,1,0,0:0:0:0:
223,249,123627,1,0,0:0:0:0:
208,217,123788,1,8,0:0:0:0:
272,287,123949,1,8,0:0:0:0:
205,189,124110,1,12,0:0:0:0:
224,192,124272,1,0,0:0:0:0:
205,189,124433,1,0,0:0:0:0:
69,259,124594,1,12,0:0:0:0:
194,254,124756,1,0,0:0:0:0:
185,284,124917,1,0,0:0:0:0:
83,247,125078,1,12,0:0:0:0:
288,256,125239,1,0,0:0:0:0:
92,270,125401,1,12,0:0:0:0:
273,197,125562,1,0,0:0:0:0:
273,197,125723,1,0,0:0:0:0:
172,158,125885,1,12,0:0:0:0:
171,145,126046,1,8,0:0:0:0:
171,145,126153,1,0,0:0:0:0:
171,145,126261,1,0,0:0:0:0:
171,145,126369,1,8,0:0:0:0:
148,181,126691,1,4,0:0:0:0:
256,192,127336,1,12,0:0:0:0:
256,192,127981,1,4,0:0:0:0:
256,192,128304,1,0,0:0:0:0:
256,192,128627,1,12,0:0:0:0:
256,192,129272,1,4,0:0:0:0:
256,192,129756,1,0,0:0:0:0:
256,192,129917,1,12,0:0:0:0:
256,192,130401,1,8,0:0:0:0:
256,192,130562,1,4,0:0:0:0:
256,192,130885,1,0,0:0:0:0:
256,192,131207,1,12,0:0:0:0:
256,192,131369,1,0,0:0:0:0:
256,192,131852,1,4,0:0:0:0:
256,192,132498,1,12,0:0:0:0:
256,192,132981,1,8,0:0:0:0:
256,192,133143,1,4,0:0:0:0:
256,192,133304,1,0,0:0:0:0:
256,192,133627,1,0,0:0:0:0:
256,192,133788,1,12,0:0:0:0:
256,192,134433,1,4,0:0:0:0:
256,192,134917,1,0,0:0:0:0:
256,192,135078,1,12,0:0:0:0:
256,192,135401,1,0,0:0:0:0:
256,192,135562,1,8,0:0:0:0:
256,192,135723,1,12,0:0:0:0:
256,192,136046,1,12,0:0:0:0:
256,192,136530,1,0,0:0:0:0:
256,192,136584,1,0,0:0:0:0:
256,192,136637,1,0,0:0:0:0:
256,192,136691,1,8,0:0:0:0:
256,192,136852,1,8,0:0:0:0:
256,192,137014,1,4,0:0:0:0:
256,192,137336,1,8,0:0:0:0:
256,192,137498,1,8,0:0:0:0:
256,192,137578,1,8,0:0:0:0:
256,192,137659,1,0,0:0:0:0:
256,192,137820,1,8,0:0:0:0:
256,192,137981,1,8,0:0:0:0:
256,192,138143,1,8,0:0:0:0:
256,192,138304,1,0,0:0:0:0:
256,192,138465,1,0,0:0:0:0:
256,192,138627,1,8,0:0:0:0:
256,192,138788,1,8,0:0:0:0:
256,192,138869,1,0,0:0:0:0:
256,192,139030,1,8,0:0:0:0:
256,192,139110,1,0,0:0:0:0:
256,192,139191,1,0,0:0:0:0:
256,192,139272,1,8,0:0:0:0:
256,192,139433,1,8,0:0:0:0:
256,192,139594,1,0,0:0:0:0:
256,192,139917,1,8,0:0:0:0:
256,192,140078,1,0,0:0:0:0:
256,192,140159,1,8,0:0:0:0:
256,192,140239,1,0,0:0:0:0:
256,192,140401,1,8,0:0:0:0:
256,192,140562,1,8,0:0:0:0:
256,192,140723,1,8,0:0:0:0:
256,192,140885,1,0,0:0:0:0:
256,192,141046,1,0,0:0:0:0:
256,192,141207,1,8,0:0:0:0:
256,192,141369,1,0,0:0:0:0:
256,192,141530,1,8,0:0:0:0:
256,192,141610,1,0,0:0:0:0:
256,192,141691,1,8,0:0:0:0:
256,192,141772,1,0,0:0:0:0:
256,192,141852,1,8,0:0:0:0:
256,192,142014,1,8,0:0:0:0:
256,192,142175,1,4,0:0:0:0:
256,192,142498,1,8,0:0:0:0:
256,192,142659,1,8,0:0:0:0:
256,192,142739,1,0,0:0:0:0:
256,192,142820,1,8,0:0:0:0:
256,192,142981,1,0,0:0:0:0:
256,192,143143,1,8,0:0:0:0:
256,192,143223,1,0,0:0:0:0:
256,192,143304,1,0,0:0:0:0:
256,192,143465,1,8,0:0:0:0:
256,192,143627,1,0,0:0:0:0:
256,192,143788,1,8,0:0:0:0:
256,192,143949,1,8,0:0:0:0:
256,192,144030,1,8,0:0:0:0:
256,192,144191,1,0,0:0:0:0:
256,192,144272,1,0,0:0:0:0:
256,192,144352,1,0,0:0:0:0:
256,192,144433,1,8,0:0:0:0:
256,192,144594,1,8,0:0:0:0:
256,192,144756,1,0,0:0:0:0:
256,192,145078,1,8,0:0:0:0:
256,192,145239,1,8,0:0:0:0:
256,192,145320,1,0,0:0:0:0:
256,192,145401,1,0,0:0:0:0:
256,192,145562,1,0,0:0:0:0:
256,192,145723,1,8,0:0:0:0:
256,192,145885,1,0,0:0:0:0:
256,192,146046,1,12,0:0:0:0:
256,192,146369,1,12,0:0:0:0:
256,192,146852,1,0,0:0:0:0:
256,192,146933,1,0,0:0:0:0:
256,192,147014,1,8,0:0:0:0:
256,192,147175,1,0,0:0:0:0:
256,192,147336,1,12,0:0:0:0:
256,192,147659,1,0,0:0:0:0:
256,192,147820,1,12,0:0:0:0:
256,192,147981,1,0,0:0:0:0:
256,192,148304,1,12,0:0:0:0:
256,192,148627,1,0,0:0:0:0:
256,192,148788,1,12,0:0:0:0:
256,192,148949,1,0,0:0:0:0:
256,192,149272,1,12,0:0:0:0:
256,192,149594,1,12,0:0:0:0:
256,192,149756,1,0,0:0:0:0:
256,192,149917,1,12,0:0:0:0:
256,192,150078,1,0,0:0:0:0:
256,192,150239,1,0,0:0:0:0:
256,192,150401,1,12,0:0:0:0:
256,192,150562,1,0,0:0:0:0:
256,192,150723,1,0,0:0:0:0:
256,192,150885,1,12,0:0:0:0:
256,192,151046,1,0,0:0:0:0:
256,192,151207,1,12,0:0:0:0:
256,192,151369,1,0,0:0:0:0:
256,192,151530,1,12,0:0:0:0:
256,192,151691,1,0,0:0:0:0:
256,192,151852,1,12,0:0:0:0:
256,192,152175,1,4,0:0:0:0:
256,192,152336,1,4,0:0:0:0:
256,192,152498,12,0,154272,0:0:0:0:
