osu file format v14

[General]
AudioFilename: audio.mp3
AudioLeadIn: 0
PreviewTime: 62025
Countdown: 0
SampleSet: Normal
StackLeniency: 0.7
Mode: 1
LetterboxInBreaks: 0
WidescreenStoryboard: 1

[Editor]
DistanceSpacing: 1
BeatDivisor: 4
GridSize: 4
TimelineZoom: 2.1

[Metadata]
Title:The Day feat. Aruvn (dj-Jo Remix) Extended Version
TitleUnicode:The Day feat. Aruvn (dj-Jo Remix) Extended Version
Artist:Porno Graffiti
ArtistUnicode:Porno Graffiti
Creator:Chromoxx
Version:Muzukashii
Source:僕のヒーローアカデミア
Tags:midnaait surono drum and bass, boku no hero academia, dnb
BeatmapID:1473030
BeatmapSetID:693174

[Difficulty]
HPDrainRate:6
CircleSize:5
OverallDifficulty:5
ApproachRate:5
SliderMultiplier:1.4
SliderTickRate:1

[Events]
//Background and Video events
0,0,"that day.jpg",0,70
//Break Periods
//Storyboard Layer 0 (Background)
//Storyboard Layer 1 (Fail)
//Storyboard Layer 2 (Pass)
//Storyboard Layer 3 (Foreground)
//Storyboard Sound Samples

[TimingPoints]
240,322.58064516129,4,1,0,80,1,0
62175,-100,4,1,0,80,0,1
71530,-100,4,1,0,80,0,0
72498,-100,4,1,0,80,0,1
82820,-100,4,1,0,80,0,0
126691,-100,4,1,0,80,0,1
136046,-100,4,1,0,80,0,0
137014,-100,4,1,0,80,0,1
147336,-100,4,1,0,80,0,0

[HitObjects]
279,196,78,5,0,0:0:0:0:
279,196,159,1,0,0:0:0:0:
279,196,240,1,0,0:0:0:0:
297,207,562,1,8,0:0:0:0:
297,207,723,1,0,0:0:0:0:
297,207,885,1,8,0:0:0:0:
191,231,1046,1,0,0:0:0:0:
191,231,1369,1,8,0:0:0:0:
191,231,1691,1,0,0:0:0:0:
191,231,2014,1,0,0:0:0:0:
239,211,2498,1,8,0:0:0:0:
239,211,2659,1,0,0:0:0:0:
149,269,2820,1,4,0:0:0:0:
158,237,4110,1,8,0:0:0:0:
158,237,5401,1,0,0:0:0:0:
360,241,6691,1,8,0:0:0:0:
327,175,7820,1,0,0:0:0:0:
327,175,7982,1,0,0:0:0:0:
266,227,9272,1,0,0:0:0:0:
266,227,10562,1,0,0:0:0:0:
299,216,11852,1,12,0:0:0:0:
299,216,12175,1,12,0:0:0:0:
299,224,13143,1,8,0:0:0:0:
299,224,13304,1,0,0:0:0:0:
299,224,13465,1,0,0:0:0:0:
299,224,13627,1,8,0:0:0:0:
165,216,13788,1,0,0:0:0:0:
165,216,14110,1,8,0:0:0:0:
177,206,14272,1,0,0:0:0:0:
177,206,14433,1,8,0:0:0:0:
177,206,14594,1,8,0:0:0:0:
217,228,14756,1,0,0:0:0:0:
203,262,14836,1,0,0:0:0:0:
148,223,14917,1,0,0:0:0:0:
217,228,15078,1,8,0:0:0:0:
345,218,15239,1,0,0:0:0:0:
345,218,15401,1,8,0:0:0:0:
178,254,15723,1,0,0:0:0:0:
286,278,15885,1,8,0:0:0:0:
269,240,16207,1,0,0:0:0:0:
269,240,16369,1,0,0:0:0:0:
227,247,16691,1,8,0:0:0:0:
161,273,16852,1,0,0:0:0:0:
270,254,17014,1,8,0:0:0:0:
270,253,17175,1,8,0:0:0:0:
215,300,17498,1,0,0:0:0:0:
215,300,17659,1,8,0:0:0:0:
87,168,17981,1,8,0:0:0:0:
91,173,18143,1,8,0:0:0:0:
188,158,18304,1,0,0:0:0:0:
188,158,18465,1,8,0:0:0:0:
287,216,18788,1,0,0:0:0:0:
287,216,18949,1,0,0:0:0:0:
135,231,19272,1,8,0:0:0:0:
171,219,19594,1,0,0:0:0:0:
171,219,19756,1,8,0:0:0:0:
258,193,19917,1,8,0:0:0:0:
258,193,20078,1,0,0:0:0:0:
158,211,20239,1,8,0:0:0:0:
214,260,20401,1,8,0:0:0:0:
214,260,20562,1,0,0:0:0:0:
237,254,20723,1,8,0:0:0:0:
236,246,20885,1,0,0:0:0:0:
176,206,21046,1,8,0:0:0:0:
355,217,21369,1,0,0:0:0:0:
355,217,21530,1,0,0:0:0:0:
163,159,21852,1,8,0:0:0:0:
250,251,22014,1,0,0:0:0:0:
250,251,22175,1,8,0:0:0:0:
250,251,22336,1,8,0:0:0:0:
149,226,22498,1,0,0:0:0:0:
205,196,22820,1,8,0:0:0:0:
216,183,23143,1,0,0:0:0:0:
216,183,23304,1,0,0:0:0:0:
222,184,23465,1,8,0:0:0:0:
221,184,23627,1,8,0:0:0:0:
301,243,23949,1,0,0:0:0:0:
301,243,24110,1,0,0:0:0:0:
249,235,24433,1,8,0:0:0:0:
249,235,24756,1,0,0:0:0:0:
254,206,25239,1,8,0:0:0:0:
254,206,25723,1,8,0:0:0:0:
254,206,26046,1,0,0:0:0:0:
254,206,26369,1,8,0:0:0:0:
244,278,26530,1,8,0:0:0:0:
244,278,26691,1,0,0:0:0:0:
169,222,26852,1,0,0:0:0:0:
254,206,27014,1,8,0:0:0:0:
186,103,27336,1,0,0:0:0:0:
209,219,27659,1,8,0:0:0:0:
186,133,27820,1,0,0:0:0:0:
193,262,28143,1,0,0:0:0:0:
193,262,28304,1,8,0:0:0:0:
264,145,28465,1,0,0:0:0:0:
290,253,28627,1,8,0:0:0:0:
290,253,28949,1,8,0:0:0:0:
340,290,29110,1,0,0:0:0:0:
340,290,29272,1,8,0:0:0:0:
290,253,29433,1,0,0:0:0:0:
290,253,29594,1,8,0:0:0:0:
261,213,29917,1,0,0:0:0:0:
381,249,30078,1,0,0:0:0:0:
56,117,30239,1,8,0:0:0:0:
208,235,30401,1,8,0:0:0:0:
261,213,30562,1,0,0:0:0:0:
253,213,30723,1,8,0:0:0:0:
208,217,30804,1,8,0:0:0:0:
253,213,30885,1,8,0:0:0:0:
310,253,31207,1,0,0:0:0:0:
248,243,31530,1,8,0:0:0:0:
248,243,31691,1,8,0:0:0:0:
248,243,31852,1,0,0:0:0:0:
190,209,32014,1,0,0:0:0:0:
190,209,32175,1,8,0:0:0:0:
209,206,32498,1,0,0:0:0:0:
209,206,32820,1,8,0:0:0:0:
205,203,32981,1,0,0:0:0:0:
215,197,33304,1,0,0:0:0:0:
215,197,33465,1,8,0:0:0:0:
214,196,33627,1,0,0:0:0:0:
214,196,33788,1,0,0:0:0:0:
278,214,34110,1,8,0:0:0:0:
278,214,34433,1,0,0:0:0:0:
278,214,34594,1,0,0:0:0:0:
262,159,34756,1,8,0:0:0:0:
262,159,35078,1,0,0:0:0:0:
204,227,35239,1,0,0:0:0:0:
220,225,35401,1,8,0:0:0:0:
177,270,35562,1,0,0:0:0:0:
177,270,35723,1,0,0:0:0:0:
193,200,35885,1,8,0:0:0:0:
193,200,35965,1,8,0:0:0:0:
167,180,36046,1,8,0:0:0:0:
105,156,36369,1,0,0:0:0:0:
274,147,36691,1,8,0:0:0:0:
274,147,36852,1,0,0:0:0:0:
274,147,37175,1,0,0:0:0:0:
274,147,37336,1,8,0:0:0:0:
274,147,37659,1,0,0:0:0:0:
274,147,37820,1,0,0:0:0:0:
237,270,38143,1,0,0:0:0:0:
339,283,38627,1,8,0:0:0:0:
237,270,38788,1,8,0:0:0:0:
177,168,38949,1,0,0:0:0:0:
237,270,39272,1,8,0:0:0:0:
237,270,39433,1,8,0:0:0:0:
213,252,39756,1,0,0:0:0:0:
157,230,39917,1,8,0:0:0:0:
157,230,40078,1,0,0:0:0:0:
140,200,40401,1,0,0:0:0:0:
157,230,40562,1,8,0:0:0:0:
226,259,40723,1,8,0:0:0:0:
255,245,40885,1,0,0:0:0:0:
255,245,41046,1,8,0:0:0:0:
207,222,41127,1,8,0:0:0:0:
250,241,41207,1,8,0:0:0:0:
413,225,41530,1,0,0:0:0:0:
413,225,41852,1,8,0:0:0:0:
413,225,42014,1,0,0:0:0:0:
398,210,42336,1,0,0:0:0:0:
398,210,42498,1,8,0:0:0:0:
275,203,42820,1,0,0:0:0:0:
275,203,42981,1,0,0:0:0:0:
243,205,43304,1,8,0:0:0:0:
243,198,43627,1,0,0:0:0:0:
243,198,43788,1,8,0:0:0:0:
243,198,43949,1,0,0:0:0:0:
244,198,44110,1,0,0:0:0:0:
243,198,44433,1,8,0:0:0:0:
243,198,44594,1,8,0:0:0:0:
243,198,44917,1,0,0:0:0:0:
244,198,45078,1,8,0:0:0:0:
243,198,45401,1,0,0:0:0:0:
243,198,45562,1,8,0:0:0:0:
243,198,45723,1,8,0:0:0:0:
243,198,45885,1,0,0:0:0:0:
243,198,46207,1,12,0:0:0:0:
243,198,46691,1,0,0:0:0:0:
243,198,47014,1,0,0:0:0:0:
243,198,47336,1,12,0:0:0:0:
243,198,47659,1,8,0:0:0:0:
243,198,47820,1,0,0:0:0:0:
243,198,47981,1,8,0:0:0:0:
243,198,48143,1,8,0:0:0:0:
243,198,48304,1,8,0:0:0:0:
226,175,48627,1,8,0:0:0:0:
220,190,49272,1,0,0:0:0:0:
382,268,49756,1,0,0:0:0:0:
382,268,49917,1,12,0:0:0:0:
192,244,50239,1,8,0:0:0:0:
171,132,50401,1,0,0:0:0:0:
171,132,50562,1,8,0:0:0:0:
171,132,50723,1,0,0:0:0:0:
171,132,50885,1,8,0:0:0:0:
331,197,51207,1,8,0:0:0:0:
338,191,51369,1,0,0:0:0:0:
329,192,51852,1,0,0:0:0:0:
331,197,52014,1,0,0:0:0:0:
329,192,52498,1,4,0:0:0:0:
313,201,52820,1,0,0:0:0:0:
313,201,52981,1,8,0:0:0:0:
313,201,53143,1,0,0:0:0:0:
226,213,53304,1,8,0:0:0:0:
226,213,53465,1,8,0:0:0:0:
230,206,53788,1,0,0:0:0:0:
230,206,54433,1,0,0:0:0:0:
325,200,54756,1,0,0:0:0:0:
325,200,55078,1,0,0:0:0:0:
325,200,55401,1,0,0:0:0:0:
325,200,55723,1,8,0:0:0:0:
325,200,56046,1,8,0:0:0:0:
325,200,56369,1,8,0:0:0:0:
325,200,56691,1,8,0:0:0:0:
325,200,57014,1,12,0:0:0:0:
321,205,57336,1,0,0:0:0:0:
321,205,57498,1,12,0:0:0:0:
311,208,57820,1,4,0:0:0:0:
311,208,58143,1,4,0:0:0:0:
313,217,59594,1,0,0:0:0:0:
313,217,59756,1,8,0:0:0:0:
313,217,59917,1,8,0:0:0:0:
308,220,60078,1,0,0:0:0:0:
308,220,60239,1,8,0:0:0:0:
301,224,60562,1,8,0:0:0:0:
218,252,60723,1,0,0:0:0:0:
218,252,60885,1,8,0:0:0:0:
218,252,61046,1,0,0:0:0:0:
218,252,61127,1,0,0:0:0:0:
218,252,61207,1,0,0:0:0:0:
218,252,61369,1,8,0:0:0:0:
281,159,61530,1,0,0:0:0:0:
281,159,61637,1,0,0:0:0:0:
281,159,61745,1,0,0:0:0:0:
221,137,61852,1,8,0:0:0:0:
210,158,62175,1,4,0:0:0:0:
431,270,62498,1,8,0:0:0:0:
431,270,62659,1,0,0:0:0:0:
431,270,62981,1,0,0:0:0:0:
431,270,63143,1,8,0:0:0:0:
311,235,63465,1,0,0:0:0:0:
311,235,63627,1,0,0:0:0:0:
311,235,63788,1,8,0:0:0:0:
262,241,63949,1,0,0:0:0:0:
253,235,64272,1,8,0:0:0:0:
213,216,64433,1,8,0:0:0:0:
213,216,64756,1,0,0:0:0:0:
213,216,65078,1,0,0:0:0:0:
141,225,65239,1,8,0:0:0:0:
251,210,65562,1,8,0:0:0:0:
221,198,65723,1,0,0:0:0:0:
221,198,66046,1,8,0:0:0:0:
168,255,66207,1,0,0:0:0:0:
168,255,66369,1,8,0:0:0:0:
168,255,66691,1,0,0:0:0:0:
168,255,66852,1,8,0:0:0:0:
168,255,66933,1,8,0:0:0:0:
168,255,67014,1,8,0:0:0:0:
168,255,67175,1,0,0:0:0:0:
168,255,67336,1,0,0:0:0:0:
197,221,67659,1,8,0:0:0:0:
197,221,67981,1,0,0:0:0:0:
197,221,68143,1,0,0:0:0:0:
298,217,68304,1,8,0:0:0:0:
298,217,68627,1,0,0:0:0:0:
211,220,68949,1,8,0:0:0:0:
239,109,69110,1,8,0:0:0:0:
239,109,69272,1,0,0:0:0:0:
239,109,69433,1,0,0:0:0:0:
239,109,69594,1,8,0:0:0:0:
344,242,69917,1,0,0:0:0:0:
385,271,70239,1,8,0:0:0:0:
279,248,70401,1,0,0:0:0:0:
279,248,70562,1,0,0:0:0:0:
178,224,70885,1,8,0:0:0:0:
178,224,71046,1,0,0:0:0:0:
176,216,71207,1,12,0:0:0:0:
176,216,71530,1,12,0:0:0:0:
207,219,72014,1,8,0:0:0:0:
207,219,72094,1,8,0:0:0:0:
207,219,72175,1,8,0:0:0:0:
207,219,72336,1,8,0:0:0:0:
207,219,72498,1,4,0:0:0:0:
207,219,72820,1,8,0:0:0:0:
207,219,72981,1,0,0:0:0:0:
207,219,73304,1,0,0:0:0:0:
207,219,73465,1,8,0:0:0:0:
224,215,73788,1,0,0:0:0:0:
224,215,73949,1,8,0:0:0:0:
224,215,74110,1,8,0:0:0:0:
216,210,74272,1,0,0:0:0:0:
215,209,74594,1,8,0:0:0:0:
215,209,74756,1,8,0:0:0:0:
224,155,75078,1,0,0:0:0:0:
229,169,75401,1,0,0:0:0:0:
229,169,75562,1,8,0:0:0:0:
229,169,75885,1,8,0:0:0:0:
45,145,76046,1,0,0:0:0:0:
304,270,76369,1,8,0:0:0:0:
304,270,76530,1,0,0:0:0:0:
304,270,76691,1,8,0:0:0:0:
325,217,77014,1,0,0:0:0:0:
325,217,77175,1,8,0:0:0:0:
325,217,77256,1,8,0:0:0:0:
325,217,77336,1,8,0:0:0:0:
325,217,77498,1,0,0:0:0:0:
325,217,77659,1,0,0:0:0:0:
267,209,77981,1,8,0:0:0:0:
267,209,78304,1,0,0:0:0:0:
267,209,78465,1,0,0:0:0:0:
238,202,78627,1,8,0:0:0:0:
238,202,78949,1,0,0:0:0:0:
238,202,79272,1,8,0:0:0:0:
238,202,79433,1,8,0:0:0:0:
227,198,79594,1,0,0:0:0:0:
227,198,79756,1,0,0:0:0:0:
226,196,79917,1,8,0:0:0:0:
226,196,80239,1,0,0:0:0:0:
227,198,80562,1,8,0:0:0:0:
227,198,80723,1,0,0:0:0:0:
226,196,80885,1,0,0:0:0:0:
226,196,81207,1,8,0:0:0:0:
228,192,81369,1,0,0:0:0:0:
214,185,81530,1,12,0:0:0:0:
214,185,81852,1,12,0:0:0:0:
244,180,82336,1,8,0:0:0:0:
244,180,82417,1,8,0:0:0:0:
244,180,82498,1,8,0:0:0:0:
244,180,82659,1,8,0:0:0:0:
244,180,82820,1,4,0:0:0:0:
347,185,83143,1,0,0:0:0:0:
347,185,83304,1,8,0:0:0:0:
334,185,83465,1,0,0:0:0:0:
288,205,83788,1,8,0:0:0:0:
288,205,84110,1,0,0:0:0:0:
289,209,84272,1,8,0:0:0:0:
289,209,84433,1,0,0:0:0:0:
289,211,84756,1,8,0:0:0:0:
289,209,85401,1,4,0:0:0:0:
381,269,85723,1,8,0:0:0:0:
362,273,85885,1,0,0:0:0:0:
230,169,86207,1,0,0:0:0:0:
237,167,86369,1,8,0:0:0:0:
268,249,86530,1,8,0:0:0:0:
237,167,86691,1,0,0:0:0:0:
240,198,87014,1,8,0:0:0:0:
240,198,87336,1,0,0:0:0:0:
240,198,87498,1,0,0:0:0:0:
240,198,87659,1,8,0:0:0:0:
246,190,87820,1,0,0:0:0:0:
246,190,87981,1,0,0:0:0:0:
301,193,88304,1,8,0:0:0:0:
316,194,88465,1,8,0:0:0:0:
210,213,88788,1,0,0:0:0:0:
210,213,88949,1,8,0:0:0:0:
241,248,89110,1,0,0:0:0:0:
311,212,89433,1,0,0:0:0:0:
311,212,89594,1,8,0:0:0:0:
204,256,89917,1,0,0:0:0:0:
214,251,90078,1,8,0:0:0:0:
212,249,90159,1,8,0:0:0:0:
214,251,90239,1,8,0:0:0:0:
262,259,90562,1,0,0:0:0:0:
352,243,90885,1,8,0:0:0:0:
352,243,91046,1,0,0:0:0:0:
352,243,91369,1,0,0:0:0:0:
352,243,91530,1,8,0:0:0:0:
352,243,91691,1,8,0:0:0:0:
282,232,91852,1,0,0:0:0:0:
212,270,92175,1,8,0:0:0:0:
212,270,92498,1,0,0:0:0:0:
212,270,92659,1,0,0:0:0:0:
212,270,92820,1,8,0:0:0:0:
212,270,92981,1,0,0:0:0:0:
212,270,93143,1,0,0:0:0:0:
208,254,93465,1,8,0:0:0:0:
209,251,93627,1,8,0:0:0:0:
254,245,93949,1,0,0:0:0:0:
254,245,94110,1,8,0:0:0:0:
254,245,94272,1,0,0:0:0:0:
243,230,94594,1,8,0:0:0:0:
243,230,94756,1,8,0:0:0:0:
243,230,94917,1,8,0:0:0:0:
250,227,95078,1,0,0:0:0:0:
250,227,95239,1,0,0:0:0:0:
250,227,95401,1,8,0:0:0:0:
250,227,95723,1,4,0:0:0:0:
261,254,96046,1,8,0:0:0:0:
261,254,96207,1,0,0:0:0:0:
273,253,96530,1,0,0:0:0:0:
273,253,96691,1,8,0:0:0:0:
273,253,96852,1,8,0:0:0:0:
172,162,97014,1,0,0:0:0:0:
172,162,97336,1,8,0:0:0:0:
172,162,97659,1,0,0:0:0:0:
172,162,97820,1,0,0:0:0:0:
176,171,97981,1,8,0:0:0:0:
176,143,98143,1,8,0:0:0:0:
176,143,98304,1,0,0:0:0:0:
279,218,98627,1,8,0:0:0:0:
209,238,98788,1,8,0:0:0:0:
209,238,99110,1,0,0:0:0:0:
213,234,99272,1,8,0:0:0:0:
183,245,99433,1,0,0:0:0:0:
183,245,99756,1,0,0:0:0:0:
183,245,99917,1,8,0:0:0:0:
226,236,100239,1,0,0:0:0:0:
226,236,100401,1,8,0:0:0:0:
226,236,100481,1,8,0:0:0:0:
226,236,100562,1,8,0:0:0:0:
226,236,100885,1,0,0:0:0:0:
226,236,101207,1,8,0:0:0:0:
204,239,101530,1,0,0:0:0:0:
274,174,101691,1,0,0:0:0:0:
274,174,101852,1,8,0:0:0:0:
357,236,102175,1,0,0:0:0:0:
357,236,102498,1,8,0:0:0:0:
300,267,102820,1,0,0:0:0:0:
300,267,102981,1,0,0:0:0:0:
263,256,103143,1,8,0:0:0:0:
263,256,103304,1,0,0:0:0:0:
263,256,103465,1,0,0:0:0:0:
301,258,103788,1,8,0:0:0:0:
300,267,103949,1,0,0:0:0:0:
296,263,104272,1,0,0:0:0:0:
232,224,104433,1,8,0:0:0:0:
232,224,104756,1,0,0:0:0:0:
232,224,105401,1,8,0:0:0:0:
337,164,106046,1,0,0:0:0:0:
337,164,106207,1,8,0:0:0:0:
297,297,106530,1,0,0:0:0:0:
297,297,106691,1,0,0:0:0:0:
287,276,107014,1,8,0:0:0:0:
287,276,107175,1,0,0:0:0:0:
287,276,107336,1,8,0:0:0:0:
287,276,107498,1,8,0:0:0:0:
145,219,107820,1,0,0:0:0:0:
193,229,107981,1,8,0:0:0:0:
193,229,108304,1,8,0:0:0:0:
225,241,108627,1,0,0:0:0:0:
225,241,108788,1,0,0:0:0:0:
270,181,108949,1,8,0:0:0:0:
270,181,109057,1,8,0:0:0:0:
268,163,109164,1,8,0:0:0:0:
268,163,109272,1,8,0:0:0:0:
405,272,109594,1,0,0:0:0:0:
227,189,109756,1,0,0:0:0:0:
227,189,109917,1,8,0:0:0:0:
214,254,110078,1,0,0:0:0:0:
214,254,110239,1,8,0:0:0:0:
220,280,110562,1,0,0:0:0:0:
220,280,110723,1,8,0:0:0:0:
339,152,110885,1,0,0:0:0:0:
220,276,111207,1,8,0:0:0:0:
220,276,111369,1,8,0:0:0:0:
230,245,111530,1,0,0:0:0:0:
171,212,111610,1,0,0:0:0:0:
230,245,111691,1,0,0:0:0:0:
182,197,111852,1,8,0:0:0:0:
182,197,112175,1,0,0:0:0:0:
197,193,112336,1,0,0:0:0:0:
197,193,112498,1,8,0:0:0:0:
197,193,112659,1,8,0:0:0:0:
178,192,112820,1,0,0:0:0:0:
259,199,113143,1,8,0:0:0:0:
164,257,113304,1,0,0:0:0:0:
268,199,113465,1,8,0:0:0:0:
255,267,113788,1,0,0:0:0:0:
211,252,113949,1,8,0:0:0:0:
249,259,114272,1,8,0:0:0:0:
158,132,114433,1,0,0:0:0:0:
158,132,114756,1,8,0:0:0:0:
186,173,115078,1,0,0:0:0:0:
320,250,115239,1,0,0:0:0:0:
186,173,115401,1,8,0:0:0:0:
198,190,115562,1,8,0:0:0:0:
198,190,115723,1,0,0:0:0:0:
198,190,115885,1,8,0:0:0:0:
199,188,116046,1,0,0:0:0:0:
205,185,116369,1,8,0:0:0:0:
365,257,116530,1,8,0:0:0:0:
365,257,116691,1,0,0:0:0:0:
334,243,116852,1,0,0:0:0:0:
193,134,117014,1,8,0:0:0:0:
193,134,117094,1,8,0:0:0:0:
193,134,117175,1,8,0:0:0:0:
193,134,117336,1,0,0:0:0:0:
215,214,117659,1,8,0:0:0:0:
337,206,117820,1,0,0:0:0:0:
215,214,117901,1,0,0:0:0:0:
337,206,117981,1,0,0:0:0:0:
335,242,118143,1,8,0:0:0:0:
335,242,118304,1,8,0:0:0:0:
351,240,118627,1,0,0:0:0:0:
349,236,118788,1,8,0:0:0:0:
349,236,118869,1,8,0:0:0:0:
349,236,118949,1,8,0:0:0:0:
207,185,119110,1,0,0:0:0:0:
175,229,119272,1,8,0:0:0:0:
307,228,119433,1,8,0:0:0:0:
169,201,119594,1,0,0:0:0:0:
277,214,119917,1,0,0:0:0:0:
277,214,120239,1,8,0:0:0:0:
277,214,120401,1,0,0:0:0:0:
277,214,120562,1,0,0:0:0:0:
277,214,120723,1,8,0:0:0:0:
277,214,120885,1,0,0:0:0:0:
277,214,121046,1,0,0:0:0:0:
269,204,121207,1,8,0:0:0:0:
269,204,121530,1,0,0:0:0:0:
371,234,121691,1,8,0:0:0:0:
328,250,121852,1,0,0:0:0:0:
193,236,121933,1,0,0:0:0:0:
328,250,122014,1,0,0:0:0:0:
267,211,122175,1,8,0:0:0:0:
332,265,122498,1,0,0:0:0:0:
331,266,122659,1,0,0:0:0:0:
333,266,122820,1,8,0:0:0:0:
333,266,122901,1,8,0:0:0:0:
331,265,122981,1,8,0:0:0:0:
204,234,123143,1,0,0:0:0:0:
198,242,123223,1,0,0:0:0:0:
204,234,123304,1,0,0:0:0:0:
193,237,123465,1,8,0:0:0:0:
285,222,123788,1,0,0:0:0:0:
227,170,124110,1,8,0:0:0:0:
227,170,124272,1,0,0:0:0:0:
227,170,124433,1,0,0:0:0:0:
249,262,124594,1,8,0:0:0:0:
249,262,124756,1,0,0:0:0:0:
255,255,125078,1,8,0:0:0:0:
254,253,125239,1,0,0:0:0:0:
249,262,125401,1,8,0:0:0:0:
249,262,125562,1,0,0:0:0:0:
249,262,125643,1,0,0:0:0:0:
249,262,125723,1,0,0:0:0:0:
249,262,125885,1,8,0:0:0:0:
193,143,126046,1,0,0:0:0:0:
256,129,126153,1,0,0:0:0:0:
256,129,126261,1,0,0:0:0:0:
256,129,126369,1,8,0:0:0:0:
406,276,126691,1,4,0:0:0:0:
269,265,127336,1,8,0:0:0:0:
269,265,127981,1,0,0:0:0:0:
426,276,128304,1,0,0:0:0:0:
269,265,128627,1,8,0:0:0:0:
299,252,129272,1,0,0:0:0:0:
284,268,129756,1,0,0:0:0:0:
284,268,129917,1,8,0:0:0:0:
204,275,130401,1,0,0:0:0:0:
284,268,130562,1,0,0:0:0:0:
204,275,130885,1,0,0:0:0:0:
204,275,131207,1,8,0:0:0:0:
204,275,131369,1,0,0:0:0:0:
213,270,131852,1,4,0:0:0:0:
228,259,132498,1,8,0:0:0:0:
242,245,132981,1,0,0:0:0:0:
242,245,133304,1,0,0:0:0:0:
245,239,133627,1,0,0:0:0:0:
245,239,133788,1,8,0:0:0:0:
245,239,134433,1,0,0:0:0:0:
215,213,134917,1,0,0:0:0:0:
215,213,135078,1,8,0:0:0:0:
245,199,135401,1,0,0:0:0:0:
245,199,135562,1,0,0:0:0:0:
227,189,135723,1,12,0:0:0:0:
226,190,136046,1,12,0:0:0:0:
255,220,136530,1,8,0:0:0:0:
246,215,136610,1,8,0:0:0:0:
247,215,136691,1,8,0:0:0:0:
246,215,136852,1,8,0:0:0:0:
157,106,137014,1,4,0:0:0:0:
207,219,137336,1,8,0:0:0:0:
207,219,137497,1,0,0:0:0:0:
207,219,137820,1,0,0:0:0:0:
207,219,137981,1,8,0:0:0:0:
224,215,138304,1,0,0:0:0:0:
224,215,138465,1,8,0:0:0:0:
224,215,138626,1,8,0:0:0:0:
216,210,138788,1,0,0:0:0:0:
215,209,139110,1,8,0:0:0:0:
215,209,139272,1,8,0:0:0:0:
224,155,139594,1,0,0:0:0:0:
229,169,139917,1,0,0:0:0:0:
229,169,140078,1,8,0:0:0:0:
229,169,140401,1,8,0:0:0:0:
45,145,140562,1,0,0:0:0:0:
304,270,140885,1,8,0:0:0:0:
304,270,141046,1,0,0:0:0:0:
304,270,141207,1,8,0:0:0:0:
325,217,141530,1,0,0:0:0:0:
325,217,141691,1,8,0:0:0:0:
325,217,141772,1,8,0:0:0:0:
325,217,141852,1,8,0:0:0:0:
325,217,142014,1,0,0:0:0:0:
325,217,142175,1,0,0:0:0:0:
267,209,142497,1,8,0:0:0:0:
267,209,142820,1,0,0:0:0:0:
267,209,142981,1,0,0:0:0:0:
238,202,143143,1,8,0:0:0:0:
238,202,143465,1,0,0:0:0:0:
238,202,143788,1,8,0:0:0:0:
393,292,143949,1,0,0:0:0:0:
330,310,144030,1,0,0:0:0:0:
393,292,144110,1,0,0:0:0:0:
227,198,144272,1,0,0:0:0:0:
226,196,144433,1,8,0:0:0:0:
226,196,144755,1,0,0:0:0:0:
227,198,145078,1,8,0:0:0:0:
403,273,145239,1,8,0:0:0:0:
226,196,145401,1,0,0:0:0:0:
396,277,145562,1,0,0:0:0:0:
226,196,145723,1,8,0:0:0:0:
228,192,145885,1,0,0:0:0:0:
214,185,146046,1,12,0:0:0:0:
214,185,146368,1,12,0:0:0:0:
244,180,146852,1,8,0:0:0:0:
244,180,146933,1,8,0:0:0:0:
244,180,147014,1,8,0:0:0:0:
244,180,147175,1,8,0:0:0:0:
244,180,147336,1,4,0:0:0:0:
381,263,147659,1,0,0:0:0:0:
381,263,147820,1,8,0:0:0:0:
381,263,147981,1,0,0:0:0:0:
234,181,148304,1,8,0:0:0:0:
234,181,148627,1,0,0:0:0:0:
234,181,148788,1,8,0:0:0:0:
252,247,148949,1,0,0:0:0:0:
252,247,149272,1,8,0:0:0:0:
199,308,149594,1,0,0:0:0:0:
230,302,149917,1,8,0:0:0:0:
230,302,150078,1,0,0:0:0:0:
230,302,150239,1,0,0:0:0:0:
91,274,150401,1,8,0:0:0:0:
192,277,150562,1,0,0:0:0:0:
201,140,150885,1,8,0:0:0:0:
293,253,151046,1,0,0:0:0:0:
311,288,151207,1,8,0:0:0:0:
197,262,151369,1,0,0:0:0:0:
270,127,151530,1,8,0:0:0:0:
270,127,151691,1,0,0:0:0:0:
270,127,151852,1,8,0:0:0:0:
296,193,152175,1,4,0:0:0:0:
296,193,152336,1,4,0:0:0:0:
256,192,152498,12,8,154272,0:0:0:0:
