osu file format v14

[General]
AudioFilename: audio.mp3
AudioLeadIn: 0
PreviewTime: 62025
Countdown: 0
SampleSet: Normal
StackLeniency: 0.7
Mode: 1
LetterboxInBreaks: 0
WidescreenStoryboard: 0

[Editor]
DistanceSpacing: 1
BeatDivisor: 2
GridSize: 4
TimelineZoom: 1

[Metadata]
Title:The Day feat. Aruvn (dj-Jo Remix) Extended Version
TitleUnicode:The Day feat. Aruvn (dj-Jo Remix) Extended Version
Artist:Porno Graffiti
ArtistUnicode:Porno Graffiti
Creator:Chromoxx
Version:Mid's Kantan
Source:僕のヒーローアカデミア
Tags:midnaait surono drum and bass, boku no hero academia, dnb
BeatmapID:1474429
BeatmapSetID:693174

[Difficulty]
HPDrainRate:8
CircleSize:5
OverallDifficulty:4
ApproachRate:5
SliderMultiplier:1.2
SliderTickRate:1

[Events]
//Background and Video events
0,0,"that day.jpg",0,70
//Break Periods
//Storyboard Layer 0 (Background)
//Storyboard Layer 1 (Fail)
//Storyboard Layer 2 (Pass)
//Storyboard Layer 3 (Foreground)
//Storyboard Sound Samples

[TimingPoints]
240,322.58064516129,4,1,0,80,1,0
62175,-100,4,1,0,80,0,1
71530,-100,4,1,0,80,0,0
72498,-100,4,1,0,80,0,1
82820,-100,4,1,0,80,0,0
126691,-100,4,1,0,80,0,1
136046,-100,4,1,0,80,0,0
137014,-100,4,1,0,80,0,1
147336,-100,4,1,0,80,0,0

[HitObjects]
190,141,240,5,0,0:0:0:0:
394,342,562,1,8,0:0:0:0:
152,235,885,1,0,0:0:0:0:
152,235,1369,1,8,0:0:0:0:
244,201,2014,1,8,0:0:0:0:
251,251,2820,1,4,0:0:0:0:
247,248,4110,1,8,0:0:0:0:
247,248,5401,1,0,0:0:0:0:
268,202,6691,1,8,0:0:0:0:
268,202,7981,1,0,0:0:0:0:
201,188,9272,1,0,0:0:0:0:
208,191,10562,1,0,0:0:0:0:
334,246,11852,1,12,0:0:0:0:
334,246,12175,1,12,0:0:0:0:
274,197,13143,1,8,0:0:0:0:
274,197,13627,1,8,0:0:0:0:
250,186,14110,1,0,0:0:0:0:
250,186,14594,1,0,0:0:0:0:
201,175,15078,1,8,0:0:0:0:
182,169,15723,1,8,0:0:0:0:
75,129,16369,1,0,0:0:0:0:
136,203,16691,1,0,0:0:0:0:
142,207,17014,1,8,0:0:0:0:
303,172,17659,1,8,0:0:0:0:
261,163,17981,1,8,0:0:0:0:
261,163,18304,1,0,0:0:0:0:
212,160,18949,1,0,0:0:0:0:
218,160,19594,1,8,0:0:0:0:
264,211,20885,1,8,0:0:0:0:
257,247,21530,1,0,0:0:0:0:
189,231,21852,1,0,0:0:0:0:
189,231,22175,1,8,0:0:0:0:
324,266,22820,1,0,0:0:0:0:
174,157,23465,1,8,0:0:0:0:
198,179,24110,1,0,0:0:0:0:
198,179,24433,1,0,0:0:0:0:
258,193,24756,1,8,0:0:0:0:
244,212,26046,1,0,0:0:0:0:
289,255,26691,1,8,0:0:0:0:
289,255,27014,1,8,0:0:0:0:
283,194,27336,1,0,0:0:0:0:
239,247,28627,1,8,0:0:0:0:
256,207,29272,1,0,0:0:0:0:
256,207,29594,1,0,0:0:0:0:
192,170,29917,1,8,0:0:0:0:
192,170,30562,1,8,0:0:0:0:
192,170,31207,1,0,0:0:0:0:
254,196,31852,1,8,0:0:0:0:
254,196,32175,1,8,0:0:0:0:
254,196,32498,1,0,0:0:0:0:
275,162,33143,1,8,0:0:0:0:
275,162,33788,1,0,0:0:0:0:
222,194,34272,1,8,0:0:0:0:
310,187,36369,1,0,0:0:0:0:
310,187,36852,1,0,0:0:0:0:
198,176,37336,1,0,0:0:0:0:
310,187,37659,1,0,0:0:0:0:
217,240,38949,1,8,0:0:0:0:
227,241,39433,1,8,0:0:0:0:
227,241,39917,1,8,0:0:0:0:
227,241,40239,1,8,0:0:0:0:
283,206,40885,1,0,0:0:0:0:
283,206,41530,1,8,0:0:0:0:
283,206,42014,1,8,0:0:0:0:
257,205,42498,1,8,0:0:0:0:
257,205,42820,1,0,0:0:0:0:
293,196,43788,1,0,0:0:0:0:
293,196,44110,1,0,0:0:0:0:
293,196,44594,1,8,0:0:0:0:
218,159,46691,1,0,0:0:0:0:
218,159,47014,1,0,0:0:0:0:
278,157,47336,1,12,0:0:0:0:
210,132,48627,1,8,0:0:0:0:
215,126,49272,1,0,0:0:0:0:
223,128,49917,1,12,0:0:0:0:
259,177,51207,1,8,0:0:0:0:
259,177,51852,1,0,0:0:0:0:
333,199,52498,1,12,0:0:0:0:
207,218,53788,1,8,0:0:0:0:
219,205,54433,1,0,0:0:0:0:
219,205,55078,1,8,0:0:0:0:
219,205,55401,1,8,0:0:0:0:
219,205,55723,1,0,0:0:0:0:
219,205,56369,1,0,0:0:0:0:
191,197,57014,1,12,0:0:0:0:
197,198,57498,1,12,0:0:0:0:
200,198,58143,1,4,0:0:0:0:
297,178,59594,1,8,0:0:0:0:
297,178,60078,1,8,0:0:0:0:
297,178,60562,1,8,0:0:0:0:
297,178,60885,1,8,0:0:0:0:
247,258,61530,1,8,0:0:0:0:
351,194,62175,1,4,0:0:0:0:
315,232,62659,1,8,0:0:0:0:
206,179,63465,1,8,0:0:0:0:
270,166,63949,1,0,0:0:0:0:
270,166,64756,1,0,0:0:0:0:
111,288,65239,1,0,0:0:0:0:
318,213,66046,1,8,0:0:0:0:
318,213,66530,1,8,0:0:0:0:
209,142,67336,1,0,0:0:0:0:
210,181,67981,1,8,0:0:0:0:
253,210,68627,1,0,0:0:0:0:
253,210,68949,1,0,0:0:0:0:
253,210,69272,1,8,0:0:0:0:
261,212,69917,1,8,0:0:0:0:
261,212,70562,1,0,0:0:0:0:
281,204,71207,1,12,0:0:0:0:
281,205,71530,1,12,0:0:0:0:
274,212,72498,1,4,0:0:0:0:
367,226,72981,1,8,0:0:0:0:
227,187,73788,1,8,0:0:0:0:
227,187,74272,1,0,0:0:0:0:
216,174,75078,1,0,0:0:0:0:
216,174,75562,1,0,0:0:0:0:
241,219,76369,1,8,0:0:0:0:
210,219,76852,1,8,0:0:0:0:
206,227,77659,1,0,0:0:0:0:
206,227,78304,1,8,0:0:0:0:
206,227,78949,1,0,0:0:0:0:
206,227,79272,1,8,0:0:0:0:
206,227,79594,1,8,0:0:0:0:
219,215,80239,1,8,0:0:0:0:
219,215,80885,1,0,0:0:0:0:
163,132,81530,1,12,0:0:0:0:
163,132,81852,1,12,0:0:0:0:
248,262,82820,1,8,0:0:0:0:
204,272,83304,1,8,0:0:0:0:
239,241,83788,1,0,0:0:0:0:
242,233,84272,1,0,0:0:0:0:
242,233,84756,1,8,0:0:0:0:
229,254,85401,1,4,0:0:0:0:
229,254,86369,1,8,0:0:0:0:
296,199,86691,1,8,0:0:0:0:
278,219,87659,1,8,0:0:0:0:
156,163,87981,1,0,0:0:0:0:
218,222,88627,1,8,0:0:0:0:
196,155,88949,1,8,0:0:0:0:
242,272,89272,1,0,0:0:0:0:
237,264,90239,1,0,0:0:0:0:
227,257,90562,1,8,0:0:0:0:
382,194,91530,1,8,0:0:0:0:
382,194,91852,1,0,0:0:0:0:
283,188,92820,1,8,0:0:0:0:
283,188,93143,1,0,0:0:0:0:
215,199,93788,1,0,0:0:0:0:
210,194,94110,1,0,0:0:0:0:
255,153,94594,1,8,0:0:0:0:
204,163,95401,1,8,0:0:0:0:
230,158,95723,1,4,0:0:0:0:
307,230,96691,1,8,0:0:0:0:
307,230,97014,1,0,0:0:0:0:
307,230,97659,1,8,0:0:0:0:
307,230,97981,1,8,0:0:0:0:
250,209,98304,1,0,0:0:0:0:
255,213,99272,1,8,0:0:0:0:
255,213,99594,1,0,0:0:0:0:
215,239,100239,1,0,0:0:0:0:
215,239,100562,1,8,0:0:0:0:
215,239,100885,1,0,0:0:0:0:
342,224,101530,1,0,0:0:0:0:
331,221,102175,1,8,0:0:0:0:
331,221,102820,1,8,0:0:0:0:
211,213,103143,1,8,0:0:0:0:
211,213,103465,1,0,0:0:0:0:
220,208,104110,1,0,0:0:0:0:
267,257,104433,1,8,0:0:0:0:
200,192,104756,1,8,0:0:0:0:
182,169,106046,1,8,0:0:0:0:
75,129,106691,1,0,0:0:0:0:
136,203,107014,1,0,0:0:0:0:
142,207,107336,1,8,0:0:0:0:
303,172,107981,1,8,0:0:0:0:
261,163,108304,1,8,0:0:0:0:
261,163,108627,1,0,0:0:0:0:
212,160,109272,1,0,0:0:0:0:
218,160,109917,1,8,0:0:0:0:
264,211,111207,1,8,0:0:0:0:
257,247,111852,1,0,0:0:0:0:
189,231,112498,1,8,0:0:0:0:
189,231,112820,1,8,0:0:0:0:
324,266,113143,1,0,0:0:0:0:
174,157,113788,1,8,0:0:0:0:
198,179,114433,1,8,0:0:0:0:
198,179,114756,1,8,0:0:0:0:
258,193,115078,1,0,0:0:0:0:
182,169,116369,1,8,0:0:0:0:
75,129,117014,1,0,0:0:0:0:
136,203,117336,1,0,0:0:0:0:
142,207,117659,1,8,0:0:0:0:
196,136,117981,1,8,0:0:0:0:
303,172,118304,1,0,0:0:0:0:
261,163,118949,1,0,0:0:0:0:
212,160,119594,1,0,0:0:0:0:
204,148,119917,1,0,0:0:0:0:
218,160,120239,1,8,0:0:0:0:
264,211,121530,1,8,0:0:0:0:
257,247,122175,1,0,0:0:0:0:
189,231,122498,1,0,0:0:0:0:
189,231,122820,1,8,0:0:0:0:
176,172,123143,1,8,0:0:0:0:
324,266,123465,1,0,0:0:0:0:
174,157,124110,1,8,0:0:0:0:
198,179,124756,1,0,0:0:0:0:
198,179,125078,1,0,0:0:0:0:
258,193,125401,1,8,0:0:0:0:
246,272,126691,1,4,0:0:0:0:
227,264,127336,1,8,0:0:0:0:
227,264,127981,1,0,0:0:0:0:
227,264,128304,1,0,0:0:0:0:
227,264,128627,1,8,0:0:0:0:
227,264,129272,1,8,0:0:0:0:
204,267,129917,1,0,0:0:0:0:
204,267,130562,1,8,0:0:0:0:
204,267,130885,1,0,0:0:0:0:
204,267,131207,1,8,0:0:0:0:
197,263,131852,1,0,0:0:0:0:
376,206,133143,1,0,0:0:0:0:
321,185,133788,1,8,0:0:0:0:
321,185,134110,1,0,0:0:0:0:
331,166,134433,1,8,0:0:0:0:
331,166,135078,1,0,0:0:0:0:
289,153,135723,1,12,0:0:0:0:
289,153,136046,1,12,0:0:0:0:
274,212,137014,1,4,0:0:0:0:
367,226,137498,1,8,0:0:0:0:
224,164,137981,1,0,0:0:0:0:
227,187,138304,1,8,0:0:0:0:
227,187,138788,1,0,0:0:0:0:
216,174,139594,1,8,0:0:0:0:
216,174,140078,1,0,0:0:0:0:
228,160,140562,1,8,0:0:0:0:
241,219,140885,1,0,0:0:0:0:
210,219,141369,1,8,0:0:0:0:
206,227,142175,1,0,0:0:0:0:
206,227,142820,1,8,0:0:0:0:
206,227,143465,1,0,0:0:0:0:
206,227,143788,1,8,0:0:0:0:
206,227,144110,1,8,0:0:0:0:
219,215,144756,1,8,0:0:0:0:
208,156,145078,1,0,0:0:0:0:
219,215,145401,1,0,0:0:0:0:
163,132,146046,1,12,0:0:0:0:
163,132,146369,1,12,0:0:0:0:
200,104,147336,1,8,0:0:0:0:
343,225,147820,1,8,0:0:0:0:
297,158,148304,1,0,0:0:0:0:
297,158,148788,1,0,0:0:0:0:
295,171,149272,1,8,0:0:0:0:
291,168,149917,1,0,0:0:0:0:
291,168,150401,1,0,0:0:0:0:
266,143,150885,1,8,0:0:0:0:
266,143,151207,1,8,0:0:0:0:
266,143,151852,1,0,0:0:0:0:
276,140,152175,1,0,0:0:0:0:
256,192,152498,8,8,154272,0:0:0:0:
