osu file format v14

[General]
AudioFilename: audio.mp3
AudioLeadIn: 0
PreviewTime: 62025
Countdown: 0
SampleSet: Normal
StackLeniency: 0.7
Mode: 1
LetterboxInBreaks: 0
WidescreenStoryboard: 0

[Editor]
DistanceSpacing: 1
BeatDivisor: 4
GridSize: 4
TimelineZoom: 1.6

[Metadata]
Title:The Day feat. Aruvn (dj-Jo Remix) Extended Version
TitleUnicode:The Day feat. Aruvn (dj-Jo Remix) Extended Version
Artist:Porno Graffiti
ArtistUnicode:Porno Graffiti
Creator:Chromoxx
Version:Inner Oni
Source:僕のヒーローアカデミア
Tags:midnaait surono drum and bass, boku no hero academia, dnb
BeatmapID:1466716
BeatmapSetID:693174

[Difficulty]
HPDrainRate:6
CircleSize:5
OverallDifficulty:7
ApproachRate:5
SliderMultiplier:1.4
SliderTickRate:1

[Events]
//Background and Video events
0,0,"that day.jpg",0,70
//Break Periods
//Storyboard Layer 0 (Background)
//Storyboard Layer 1 (Fail)
//Storyboard Layer 2 (Pass)
//Storyboard Layer 3 (Foreground)
//Storyboard Sound Samples

[TimingPoints]
240,322.58064516129,4,1,0,80,1,0
62175,-100,4,1,0,80,0,1
71530,-100,4,1,0,80,0,0
72498,-100,4,1,0,80,0,1
82820,-100,4,1,0,80,0,0
126691,-83.3333333333333,4,1,0,80,0,1
136046,-83.3333333333333,4,1,0,80,0,0
136530,-100,4,1,0,80,0,0
137014,-100,4,1,0,80,0,1
147336,-100,4,1,0,80,0,0

[HitObjects]
308,189,78,5,0,0:0:0:0:
308,189,159,1,0,0:0:0:0:
308,189,240,1,0,0:0:0:0:
188,236,562,1,8,0:0:0:0:
188,236,723,1,0,0:0:0:0:
188,236,885,1,8,0:0:0:0:
198,205,1046,1,0,0:0:0:0:
198,205,1369,1,8,0:0:0:0:
265,173,1691,1,0,0:0:0:0:
32,165,2014,1,8,0:0:0:0:
295,248,2498,1,8,0:0:0:0:
190,222,2659,1,0,0:0:0:0:
190,222,2820,1,4,0:0:0:0:
173,217,4110,1,0,0:0:0:0:
317,227,5401,1,8,0:0:0:0:
308,222,6691,1,8,0:0:0:0:
210,195,7820,1,0,0:0:0:0:
210,195,7981,1,0,0:0:0:0:
201,173,9272,1,0,0:0:0:0:
201,173,10562,1,0,0:0:0:0:
201,173,11852,1,12,0:0:0:0:
201,173,12175,1,12,0:0:0:0:
135,202,12820,1,0,0:0:0:0:
177,239,13143,1,8,0:0:0:0:
177,239,13223,1,8,0:0:0:0:
256,168,13304,1,0,0:0:0:0:
225,182,13465,1,8,0:0:0:0:
197,293,13627,1,0,0:0:0:0:
169,269,13707,1,8,0:0:0:0:
119,237,13788,1,8,0:0:0:0:
275,241,13949,1,0,0:0:0:0:
275,241,14110,1,8,0:0:0:0:
263,234,14191,1,8,0:0:0:0:
275,241,14272,1,8,0:0:0:0:
265,225,14433,1,0,0:0:0:0:
257,219,14594,1,8,0:0:0:0:
256,214,14675,1,0,0:0:0:0:
253,212,14756,1,0,0:0:0:0:
249,209,14836,1,8,0:0:0:0:
244,207,14917,1,8,0:0:0:0:
208,177,14998,1,0,0:0:0:0:
243,206,15078,1,8,0:0:0:0:
208,177,15159,1,0,0:0:0:0:
243,206,15239,1,0,0:0:0:0:
243,206,15320,1,0,0:0:0:0:
171,167,15401,1,8,0:0:0:0:
254,243,15723,1,0,0:0:0:0:
184,124,15764,1,0,0:0:0:0:
184,124,15885,1,8,0:0:0:0:
184,124,15925,1,8,0:0:0:0:
312,188,16046,1,0,0:0:0:0:
311,179,16207,1,8,0:0:0:0:
320,211,16288,1,0,0:0:0:0:
325,188,16369,1,0,0:0:0:0:
326,187,16449,1,8,0:0:0:0:
321,182,16530,1,0,0:0:0:0:
250,58,16691,1,8,0:0:0:0:
138,232,16745,1,8,0:0:0:0:
153,155,16799,1,8,0:0:0:0:
164,243,16852,1,0,0:0:0:0:
296,100,17014,1,8,0:0:0:0:
296,100,17054,1,8,0:0:0:0:
296,100,17175,1,8,0:0:0:0:
296,100,17215,1,8,0:0:0:0:
301,94,17336,1,0,0:0:0:0:
340,196,17498,1,8,0:0:0:0:
340,196,17578,1,0,0:0:0:0:
340,196,17659,1,8,0:0:0:0:
340,196,17739,1,8,0:0:0:0:
340,196,17820,1,0,0:0:0:0:
340,196,17901,1,0,0:0:0:0:
340,196,17981,1,8,0:0:0:0:
340,196,18062,1,0,0:0:0:0:
208,299,18143,1,8,0:0:0:0:
282,151,18304,1,0,0:0:0:0:
282,151,18344,1,0,0:0:0:0:
282,151,18465,1,8,0:0:0:0:
282,151,18506,1,8,0:0:0:0:
213,88,18627,1,0,0:0:0:0:
169,134,18788,1,8,0:0:0:0:
174,295,18869,1,8,0:0:0:0:
176,282,18949,1,0,0:0:0:0:
176,280,19030,1,8,0:0:0:0:
175,280,19110,1,0,0:0:0:0:
193,274,19272,1,8,0:0:0:0:
192,273,19326,1,0,0:0:0:0:
192,272,19379,1,0,0:0:0:0:
176,139,19433,1,8,0:0:0:0:
108,283,19594,1,0,0:0:0:0:
108,283,19675,1,0,0:0:0:0:
154,297,19756,1,8,0:0:0:0:
109,274,19836,1,0,0:0:0:0:
104,270,19917,1,0,0:0:0:0:
212,257,19998,1,8,0:0:0:0:
101,268,20078,1,8,0:0:0:0:
101,268,20159,1,0,0:0:0:0:
204,242,20239,1,8,0:0:0:0:
101,259,20320,1,8,0:0:0:0:
101,259,20401,1,0,0:0:0:0:
101,259,20481,1,0,0:0:0:0:
127,251,20562,1,8,0:0:0:0:
127,251,20643,1,0,0:0:0:0:
127,251,20723,1,8,0:0:0:0:
256,96,20885,1,0,0:0:0:0:
256,96,20925,1,0,0:0:0:0:
256,96,21046,1,8,0:0:0:0:
256,96,21086,1,8,0:0:0:0:
262,275,21207,1,0,0:0:0:0:
262,275,21288,1,8,0:0:0:0:
148,241,21369,1,8,0:0:0:0:
277,269,21449,1,0,0:0:0:0:
233,316,21530,1,0,0:0:0:0:
148,156,21691,1,8,0:0:0:0:
277,269,21852,1,0,0:0:0:0:
290,146,21906,1,0,0:0:0:0:
290,146,21960,1,0,0:0:0:0:
290,146,22014,1,0,0:0:0:0:
334,242,22175,1,8,0:0:0:0:
334,242,22215,1,8,0:0:0:0:
165,228,22336,1,8,0:0:0:0:
165,228,22377,1,8,0:0:0:0:
151,254,22498,1,0,0:0:0:0:
195,233,22659,1,8,0:0:0:0:
195,233,22713,1,0,0:0:0:0:
195,233,22766,1,0,0:0:0:0:
195,233,22820,1,8,0:0:0:0:
178,136,22901,1,8,0:0:0:0:
187,139,22981,1,0,0:0:0:0:
302,154,23143,1,8,0:0:0:0:
276,137,23223,1,0,0:0:0:0:
250,127,23304,1,8,0:0:0:0:
212,135,23465,1,0,0:0:0:0:
212,135,23506,1,0,0:0:0:0:
212,135,23627,1,8,0:0:0:0:
212,135,23667,1,8,0:0:0:0:
220,253,23788,1,0,0:0:0:0:
236,236,23949,1,8,0:0:0:0:
227,249,24030,1,0,0:0:0:0:
227,249,24110,1,0,0:0:0:0:
225,248,24191,1,8,0:0:0:0:
224,248,24272,1,0,0:0:0:0:
158,248,24433,1,8,0:0:0:0:
167,245,24487,1,8,0:0:0:0:
170,109,24541,1,0,0:0:0:0:
156,234,24594,1,0,0:0:0:0:
156,223,24756,1,8,0:0:0:0:
291,236,24917,1,0,0:0:0:0:
353,231,24998,1,0,0:0:0:0:
307,247,25078,1,0,0:0:0:0:
353,231,25159,1,0,0:0:0:0:
196,190,25239,1,8,0:0:0:0:
267,163,25401,1,0,0:0:0:0:
256,153,25481,1,0,0:0:0:0:
258,155,25562,1,0,0:0:0:0:
252,151,25643,1,0,0:0:0:0:
171,80,25723,1,8,0:0:0:0:
273,116,25885,1,8,0:0:0:0:
265,136,26046,1,0,0:0:0:0:
159,260,26369,1,8,0:0:0:0:
287,282,26530,1,0,0:0:0:0:
232,259,26610,1,0,0:0:0:0:
215,248,26691,1,0,0:0:0:0:
193,215,26852,1,0,0:0:0:0:
193,215,27014,1,8,0:0:0:0:
193,215,27175,1,8,0:0:0:0:
193,215,27336,1,0,0:0:0:0:
193,215,27498,1,0,0:0:0:0:
193,215,27659,1,8,0:0:0:0:
193,215,27820,1,0,0:0:0:0:
193,215,27901,1,0,0:0:0:0:
187,212,27981,1,8,0:0:0:0:
187,212,28062,1,8,0:0:0:0:
188,213,28143,1,0,0:0:0:0:
188,213,28304,1,8,0:0:0:0:
180,207,28465,1,0,0:0:0:0:
180,207,28627,1,0,0:0:0:0:
255,222,28949,1,8,0:0:0:0:
306,256,29110,1,0,0:0:0:0:
306,256,29191,1,0,0:0:0:0:
231,286,29272,1,8,0:0:0:0:
231,286,29433,1,0,0:0:0:0:
226,233,29594,1,8,0:0:0:0:
226,233,29756,1,8,0:0:0:0:
339,161,29917,1,0,0:0:0:0:
290,169,29998,1,0,0:0:0:0:
302,186,30078,1,0,0:0:0:0:
206,242,30239,1,8,0:0:0:0:
206,241,30401,1,8,0:0:0:0:
206,241,30562,1,0,0:0:0:0:
206,241,30643,1,8,0:0:0:0:
206,241,30723,1,0,0:0:0:0:
206,242,30804,1,0,0:0:0:0:
206,242,30885,1,8,0:0:0:0:
253,217,31046,1,8,0:0:0:0:
156,314,31207,1,0,0:0:0:0:
303,250,31530,1,8,0:0:0:0:
303,250,31691,1,0,0:0:0:0:
303,250,31772,1,0,0:0:0:0:
303,250,31852,1,0,0:0:0:0:
303,250,32014,1,0,0:0:0:0:
291,247,32175,1,8,0:0:0:0:
291,247,32336,1,8,0:0:0:0:
291,247,32498,1,0,0:0:0:0:
168,179,32659,1,0,0:0:0:0:
168,179,32820,1,8,0:0:0:0:
219,230,32981,1,0,0:0:0:0:
219,230,33062,1,0,0:0:0:0:
219,230,33143,1,8,0:0:0:0:
206,229,33223,1,8,0:0:0:0:
203,227,33304,1,0,0:0:0:0:
219,230,33465,1,8,0:0:0:0:
219,230,33627,1,8,0:0:0:0:
128,178,33707,1,8,0:0:0:0:
201,162,33788,1,0,0:0:0:0:
201,162,33949,1,8,0:0:0:0:
335,179,34110,1,0,0:0:0:0:
335,179,34191,1,0,0:0:0:0:
335,179,34272,1,8,0:0:0:0:
335,179,34433,1,0,0:0:0:0:
221,222,34594,1,0,0:0:0:0:
221,222,34756,1,8,0:0:0:0:
221,222,34836,1,8,0:0:0:0:
210,249,34917,1,0,0:0:0:0:
210,249,34998,1,8,0:0:0:0:
210,249,35078,1,0,0:0:0:0:
194,189,35239,1,8,0:0:0:0:
206,215,35401,1,0,0:0:0:0:
210,206,35481,1,0,0:0:0:0:
210,206,35562,1,0,0:0:0:0:
206,214,35723,1,8,0:0:0:0:
146,161,35804,1,8,0:0:0:0:
299,248,35885,1,0,0:0:0:0:
299,248,35965,1,0,0:0:0:0:
299,248,36046,1,8,0:0:0:0:
111,125,36369,1,4,0:0:0:0:
111,125,36530,1,8,0:0:0:0:
116,129,36610,1,8,0:0:0:0:
116,129,36691,1,8,0:0:0:0:
191,286,36852,1,0,0:0:0:0:
191,286,36933,1,8,0:0:0:0:
241,253,37094,1,8,0:0:0:0:
281,162,37175,1,0,0:0:0:0:
158,180,37336,1,8,0:0:0:0:
158,180,37498,1,8,0:0:0:0:
243,183,37578,1,8,0:0:0:0:
201,170,37659,1,0,0:0:0:0:
210,156,37820,1,8,0:0:0:0:
210,161,37901,1,8,0:0:0:0:
210,161,38062,1,0,0:0:0:0:
210,161,38143,1,8,0:0:0:0:
282,240,38304,1,0,0:0:0:0:
293,240,38385,1,0,0:0:0:0:
292,239,38465,1,8,0:0:0:0:
290,177,38546,1,8,0:0:0:0:
290,177,38627,1,0,0:0:0:0:
299,184,38788,1,8,0:0:0:0:
143,95,38949,1,0,0:0:0:0:
154,93,39030,1,0,0:0:0:0:
205,263,39110,1,8,0:0:0:0:
205,263,39272,1,0,0:0:0:0:
198,261,39433,1,8,0:0:0:0:
205,263,39514,1,8,0:0:0:0:
183,147,39594,1,0,0:0:0:0:
183,147,39756,1,8,0:0:0:0:
168,252,39917,1,0,0:0:0:0:
168,252,39998,1,0,0:0:0:0:
168,252,40078,1,8,0:0:0:0:
168,252,40239,1,0,0:0:0:0:
229,119,40401,1,8,0:0:0:0:
229,119,40481,1,0,0:0:0:0:
229,119,40643,1,0,0:0:0:0:
229,119,40723,1,8,0:0:0:0:
165,216,40804,1,8,0:0:0:0:
221,226,40885,1,0,0:0:0:0:
221,226,41046,1,0,0:0:0:0:
221,226,41127,1,0,0:0:0:0:
221,226,41207,1,8,0:0:0:0:
117,202,41530,1,0,0:0:0:0:
387,258,41691,1,0,0:0:0:0:
387,258,41772,1,0,0:0:0:0:
334,259,41852,1,8,0:0:0:0:
263,253,42014,1,0,0:0:0:0:
263,253,42094,1,8,0:0:0:0:
255,253,42256,1,8,0:0:0:0:
246,250,42336,1,0,0:0:0:0:
209,237,42498,1,8,0:0:0:0:
209,237,42659,1,8,0:0:0:0:
209,237,42820,1,0,0:0:0:0:
209,237,42901,1,0,0:0:0:0:
209,237,42981,1,0,0:0:0:0:
232,217,43143,1,8,0:0:0:0:
232,217,43304,1,0,0:0:0:0:
232,217,43385,1,0,0:0:0:0:
232,217,43546,1,0,0:0:0:0:
232,217,43627,1,8,0:0:0:0:
232,217,43788,1,0,0:0:0:0:
229,211,43949,1,0,0:0:0:0:
228,211,44030,1,0,0:0:0:0:
55,182,44110,1,8,0:0:0:0:
189,232,44272,1,8,0:0:0:0:
224,242,44433,1,0,0:0:0:0:
276,219,44514,1,8,0:0:0:0:
276,219,44594,1,8,0:0:0:0:
151,174,44675,1,0,0:0:0:0:
151,174,44836,1,0,0:0:0:0:
151,174,44917,1,8,0:0:0:0:
242,273,45078,1,0,0:0:0:0:
230,272,45159,1,0,0:0:0:0:
225,270,45239,1,8,0:0:0:0:
225,270,45401,1,0,0:0:0:0:
225,270,45562,1,8,0:0:0:0:
225,268,45643,1,8,0:0:0:0:
177,282,45723,1,0,0:0:0:0:
171,278,45885,1,8,0:0:0:0:
196,258,45965,1,0,0:0:0:0:
222,249,46207,1,12,0:0:0:0:
217,242,46691,1,0,0:0:0:0:
217,242,47014,1,0,0:0:0:0:
225,188,47336,1,12,0:0:0:0:
261,197,47498,1,0,0:0:0:0:
255,189,47659,1,8,0:0:0:0:
256,188,47820,1,0,0:0:0:0:
255,187,47981,1,8,0:0:0:0:
255,187,48143,1,8,0:0:0:0:
255,187,48304,1,8,0:0:0:0:
401,169,48465,1,0,0:0:0:0:
332,208,48627,1,8,0:0:0:0:
290,242,48788,1,0,0:0:0:0:
290,242,48949,1,8,0:0:0:0:
290,242,49110,1,8,0:0:0:0:
291,210,49272,1,0,0:0:0:0:
282,191,49756,1,0,0:0:0:0:
294,177,49917,1,12,0:0:0:0:
290,180,50078,1,8,0:0:0:0:
290,181,50239,1,8,0:0:0:0:
291,180,50401,1,0,0:0:0:0:
291,180,50562,1,8,0:0:0:0:
265,219,50723,1,0,0:0:0:0:
231,172,50885,1,8,0:0:0:0:
234,187,51046,1,0,0:0:0:0:
239,185,51207,1,8,0:0:0:0:
239,185,51369,1,0,0:0:0:0:
239,185,51530,1,0,0:0:0:0:
239,185,51691,1,0,0:0:0:0:
370,202,51852,1,8,0:0:0:0:
370,202,52014,1,8,0:0:0:0:
232,207,52498,1,4,0:0:0:0:
344,247,52659,1,8,0:0:0:0:
344,247,52820,1,0,0:0:0:0:
212,232,52981,1,8,0:0:0:0:
233,272,53143,1,0,0:0:0:0:
233,272,53304,1,8,0:0:0:0:
233,272,53465,1,8,0:0:0:0:
233,272,53627,1,8,0:0:0:0:
284,250,53788,1,0,0:0:0:0:
284,250,53949,1,8,0:0:0:0:
284,250,54110,1,0,0:0:0:0:
284,250,54272,1,8,0:0:0:0:
279,244,54433,1,0,0:0:0:0:
278,225,54756,1,0,0:0:0:0:
278,225,55078,1,0,0:0:0:0:
278,225,55401,1,0,0:0:0:0:
278,225,55723,1,8,0:0:0:0:
278,225,56046,1,8,0:0:0:0:
278,225,56369,1,8,0:0:0:0:
278,225,56691,1,8,0:0:0:0:
272,224,57014,1,12,0:0:0:0:
269,222,57175,1,0,0:0:0:0:
269,222,57336,1,0,0:0:0:0:
254,219,57498,1,12,0:0:0:0:
219,226,57820,1,4,0:0:0:0:
219,226,58143,1,4,0:0:0:0:
256,192,58304,12,0,59433,0:0:0:0:
256,249,59594,5,0,0:0:0:0:
256,249,59756,1,0,0:0:0:0:
262,231,59917,1,8,0:0:0:0:
295,249,60078,1,0,0:0:0:0:
295,249,60239,1,8,0:0:0:0:
264,225,60401,1,8,0:0:0:0:
264,225,60562,1,0,0:0:0:0:
193,239,60723,1,0,0:0:0:0:
92,170,60885,1,8,0:0:0:0:
338,241,61046,1,0,0:0:0:0:
338,241,61127,1,0,0:0:0:0:
324,233,61207,1,0,0:0:0:0:
272,207,61369,1,8,0:0:0:0:
221,248,61530,1,0,0:0:0:0:
221,248,61637,1,0,0:0:0:0:
187,228,61745,1,0,0:0:0:0:
177,235,61852,1,8,0:0:0:0:
408,201,62175,1,4,0:0:0:0:
227,161,62498,1,8,0:0:0:0:
315,293,62659,1,0,0:0:0:0:
315,293,62739,1,0,0:0:0:0:
308,288,62820,1,0,0:0:0:0:
224,231,62981,1,0,0:0:0:0:
176,225,63143,1,8,0:0:0:0:
176,225,63304,1,8,0:0:0:0:
176,225,63465,1,0,0:0:0:0:
176,225,63546,1,0,0:0:0:0:
176,225,63627,1,8,0:0:0:0:
176,225,63788,1,0,0:0:0:0:
171,223,63949,1,8,0:0:0:0:
171,223,64030,1,8,0:0:0:0:
176,225,64191,1,0,0:0:0:0:
181,222,64272,1,8,0:0:0:0:
228,147,64352,1,8,0:0:0:0:
228,147,64433,1,0,0:0:0:0:
228,147,64594,1,8,0:0:0:0:
228,147,64675,1,8,0:0:0:0:
228,147,64756,1,0,0:0:0:0:
289,273,64836,1,0,0:0:0:0:
289,273,64917,1,0,0:0:0:0:
165,224,65078,1,8,0:0:0:0:
237,272,65239,1,0,0:0:0:0:
217,264,65320,1,0,0:0:0:0:
216,263,65401,1,8,0:0:0:0:
216,262,65562,1,0,0:0:0:0:
216,262,65723,1,8,0:0:0:0:
230,268,65804,1,0,0:0:0:0:
273,283,65885,1,8,0:0:0:0:
180,229,65965,1,8,0:0:0:0:
185,250,66046,1,0,0:0:0:0:
185,250,66207,1,0,0:0:0:0:
185,250,66369,1,8,0:0:0:0:
146,227,66530,1,8,0:0:0:0:
185,250,66610,1,8,0:0:0:0:
296,233,66691,1,0,0:0:0:0:
296,233,66852,1,0,0:0:0:0:
251,286,66933,1,0,0:0:0:0:
234,270,67014,1,8,0:0:0:0:
169,190,67175,1,0,0:0:0:0:
218,271,67336,1,0,0:0:0:0:
206,235,67659,1,8,0:0:0:0:
206,235,67820,1,0,0:0:0:0:
206,235,67901,1,0,0:0:0:0:
206,235,67981,1,0,0:0:0:0:
218,144,68143,1,0,0:0:0:0:
218,144,68304,1,8,0:0:0:0:
218,144,68465,1,8,0:0:0:0:
210,150,68546,1,8,0:0:0:0:
198,145,68627,1,0,0:0:0:0:
198,160,68949,1,8,0:0:0:0:
261,259,69110,1,0,0:0:0:0:
216,245,69191,1,8,0:0:0:0:
197,159,69272,1,0,0:0:0:0:
197,159,69433,1,0,0:0:0:0:
187,154,69594,1,8,0:0:0:0:
315,123,69756,1,8,0:0:0:0:
315,123,69836,1,0,0:0:0:0:
315,123,69917,1,0,0:0:0:0:
280,242,70239,1,8,0:0:0:0:
255,230,70401,1,0,0:0:0:0:
249,229,70481,1,0,0:0:0:0:
255,230,70562,1,0,0:0:0:0:
249,229,70723,1,0,0:0:0:0:
254,210,70885,1,8,0:0:0:0:
254,210,71046,1,0,0:0:0:0:
255,181,71207,1,12,0:0:0:0:
255,181,71530,1,12,0:0:0:0:
225,175,72014,1,0,0:0:0:0:
149,144,72067,1,0,0:0:0:0:
227,105,72121,1,0,0:0:0:0:
227,105,72175,1,8,0:0:0:0:
296,203,72336,1,0,0:0:0:0:
289,255,72498,1,4,0:0:0:0:
269,212,72820,1,8,0:0:0:0:
172,263,72981,1,0,0:0:0:0:
172,263,73062,1,0,0:0:0:0:
172,263,73143,1,8,0:0:0:0:
146,283,73304,1,8,0:0:0:0:
146,283,73465,1,0,0:0:0:0:
146,283,73627,1,0,0:0:0:0:
146,283,73788,1,8,0:0:0:0:
188,240,73869,1,8,0:0:0:0:
178,219,73949,1,0,0:0:0:0:
167,229,74110,1,8,0:0:0:0:
224,213,74272,1,0,0:0:0:0:
218,210,74352,1,8,0:0:0:0:
218,210,74514,1,8,0:0:0:0:
214,208,74594,1,0,0:0:0:0:
212,207,74675,1,0,0:0:0:0:
211,207,74756,1,8,0:0:0:0:
214,201,74917,1,8,0:0:0:0:
213,201,75078,1,0,0:0:0:0:
213,200,75159,1,0,0:0:0:0:
213,200,75239,1,0,0:0:0:0:
215,196,75401,1,8,0:0:0:0:
215,196,75562,1,0,0:0:0:0:
214,196,75643,1,0,0:0:0:0:
214,196,75723,1,8,0:0:0:0:
214,196,75804,1,8,0:0:0:0:
214,201,75885,1,8,0:0:0:0:
215,193,76046,1,0,0:0:0:0:
193,218,76207,1,0,0:0:0:0:
228,181,76288,1,0,0:0:0:0:
193,218,76369,1,8,0:0:0:0:
193,218,76449,1,8,0:0:0:0:
193,218,76610,1,0,0:0:0:0:
193,218,76691,1,8,0:0:0:0:
296,232,76852,1,8,0:0:0:0:
299,300,77014,1,0,0:0:0:0:
299,300,77175,1,0,0:0:0:0:
238,290,77256,1,0,0:0:0:0:
209,276,77336,1,8,0:0:0:0:
212,253,77498,1,0,0:0:0:0:
212,253,77659,1,0,0:0:0:0:
136,281,77981,1,8,0:0:0:0:
136,281,78143,1,0,0:0:0:0:
163,239,78223,1,0,0:0:0:0:
136,281,78304,1,0,0:0:0:0:
163,239,78465,1,0,0:0:0:0:
163,239,78627,1,8,0:0:0:0:
163,239,78788,1,0,0:0:0:0:
163,239,78869,1,8,0:0:0:0:
136,225,78949,1,0,0:0:0:0:
163,239,79272,1,8,0:0:0:0:
107,264,79433,1,8,0:0:0:0:
44,244,79514,1,8,0:0:0:0:
133,259,79594,1,0,0:0:0:0:
293,239,79756,1,0,0:0:0:0:
187,223,79917,1,8,0:0:0:0:
187,223,80078,1,8,0:0:0:0:
185,232,80159,1,0,0:0:0:0:
185,231,80239,1,0,0:0:0:0:
157,183,80562,1,8,0:0:0:0:
157,183,80723,1,0,0:0:0:0:
157,183,80804,1,0,0:0:0:0:
156,177,80885,1,0,0:0:0:0:
156,177,81046,1,0,0:0:0:0:
156,177,81207,1,8,0:0:0:0:
156,177,81369,1,0,0:0:0:0:
171,150,81530,1,12,0:0:0:0:
180,149,81852,1,12,0:0:0:0:
286,230,82336,1,0,0:0:0:0:
241,275,82417,1,0,0:0:0:0:
219,259,82498,1,8,0:0:0:0:
157,236,82659,1,0,0:0:0:0:
157,236,82820,1,4,0:0:0:0:
242,231,83143,1,0,0:0:0:0:
301,197,83304,1,12,0:0:0:0:
300,175,83465,1,0,0:0:0:0:
258,164,83788,1,4,0:0:0:0:
287,155,84110,1,0,0:0:0:0:
261,142,84272,1,12,0:0:0:0:
291,125,84433,1,0,0:0:0:0:
288,119,84756,1,12,0:0:0:0:
297,291,85078,1,8,0:0:0:0:
297,291,85239,1,0,0:0:0:0:
282,250,85401,1,4,0:0:0:0:
249,303,85723,1,8,0:0:0:0:
209,261,85885,1,0,0:0:0:0:
204,257,85965,1,0,0:0:0:0:
203,253,86127,1,0,0:0:0:0:
201,250,86207,1,8,0:0:0:0:
185,227,86369,1,0,0:0:0:0:
185,227,86530,1,0,0:0:0:0:
187,212,86691,1,8,0:0:0:0:
180,209,86772,1,8,0:0:0:0:
181,202,86852,1,0,0:0:0:0:
181,202,87014,1,8,0:0:0:0:
181,202,87175,1,8,0:0:0:0:
214,193,87336,1,0,0:0:0:0:
214,193,87417,1,8,0:0:0:0:
221,188,87498,1,8,0:0:0:0:
221,188,87578,1,0,0:0:0:0:
221,188,87659,1,8,0:0:0:0:
222,188,87820,1,0,0:0:0:0:
222,188,87981,1,0,0:0:0:0:
244,238,88304,1,8,0:0:0:0:
245,243,88465,1,0,0:0:0:0:
245,243,88546,1,0,0:0:0:0:
209,120,88627,1,0,0:0:0:0:
209,120,88788,1,0,0:0:0:0:
209,120,88949,1,8,0:0:0:0:
209,120,89110,1,8,0:0:0:0:
269,246,89272,1,0,0:0:0:0:
269,246,89433,1,8,0:0:0:0:
68,134,89514,1,8,0:0:0:0:
291,222,89594,1,0,0:0:0:0:
267,232,89675,1,0,0:0:0:0:
286,219,89836,1,8,0:0:0:0:
262,210,89917,1,0,0:0:0:0:
149,249,90078,1,0,0:0:0:0:
155,282,90159,1,0,0:0:0:0:
155,282,90239,1,8,0:0:0:0:
251,155,90562,1,4,0:0:0:0:
223,238,90885,1,8,0:0:0:0:
280,301,91046,1,0,0:0:0:0:
165,278,91127,1,8,0:0:0:0:
211,270,91288,1,8,0:0:0:0:
205,234,91369,1,0,0:0:0:0:
205,234,91530,1,8,0:0:0:0:
205,234,91691,1,8,0:0:0:0:
189,286,91852,1,0,0:0:0:0:
252,123,91933,1,0,0:0:0:0:
189,286,92014,1,0,0:0:0:0:
258,159,92175,1,8,0:0:0:0:
262,161,92336,1,0,0:0:0:0:
258,159,92417,1,8,0:0:0:0:
278,249,92498,1,8,0:0:0:0:
206,178,92578,1,0,0:0:0:0:
189,177,92659,1,0,0:0:0:0:
227,167,92820,1,8,0:0:0:0:
218,165,92981,1,0,0:0:0:0:
178,156,93062,1,8,0:0:0:0:
85,233,93143,1,0,0:0:0:0:
181,252,93465,1,8,0:0:0:0:
181,252,93627,1,0,0:0:0:0:
258,303,93707,1,0,0:0:0:0:
198,283,93788,1,8,0:0:0:0:
206,314,93949,1,0,0:0:0:0:
206,314,94110,1,8,0:0:0:0:
244,293,94272,1,0,0:0:0:0:
232,286,94352,1,0,0:0:0:0:
221,263,94594,1,8,0:0:0:0:
255,257,94756,1,8,0:0:0:0:
280,252,94917,1,0,0:0:0:0:
192,285,94998,1,8,0:0:0:0:
267,244,95078,1,8,0:0:0:0:
198,287,95239,1,8,0:0:0:0:
198,287,95320,1,8,0:0:0:0:
230,253,95401,1,0,0:0:0:0:
213,181,95723,1,12,0:0:0:0:
375,227,96046,1,8,0:0:0:0:
365,307,96207,1,0,0:0:0:0:
242,272,96288,1,0,0:0:0:0:
227,267,96369,1,0,0:0:0:0:
278,269,96530,1,8,0:0:0:0:
286,265,96691,1,0,0:0:0:0:
279,262,96772,1,8,0:0:0:0:
279,262,96852,1,8,0:0:0:0:
308,252,97014,1,0,0:0:0:0:
304,251,97175,1,8,0:0:0:0:
238,267,97256,1,0,0:0:0:0:
243,260,97417,1,0,0:0:0:0:
244,256,97498,1,8,0:0:0:0:
221,253,97578,1,8,0:0:0:0:
216,250,97659,1,0,0:0:0:0:
212,256,97820,1,0,0:0:0:0:
187,236,97901,1,0,0:0:0:0:
187,236,97981,1,8,0:0:0:0:
187,236,98143,1,0,0:0:0:0:
136,155,98304,1,0,0:0:0:0:
326,139,98627,1,8,0:0:0:0:
337,146,98788,1,0,0:0:0:0:
208,154,98869,1,0,0:0:0:0:
208,154,99030,1,8,0:0:0:0:
208,154,99110,1,0,0:0:0:0:
366,213,99272,1,8,0:0:0:0:
366,213,99433,1,8,0:0:0:0:
252,238,99594,1,0,0:0:0:0:
266,236,99675,1,8,0:0:0:0:
250,267,99756,1,0,0:0:0:0:
244,268,99836,1,0,0:0:0:0:
236,261,99917,1,8,0:0:0:0:
115,270,100078,1,0,0:0:0:0:
243,261,100239,1,8,0:0:0:0:
238,260,100320,1,8,0:0:0:0:
170,297,100401,1,0,0:0:0:0:
170,291,100481,1,0,0:0:0:0:
170,297,100562,1,0,0:0:0:0:
248,260,100885,1,12,0:0:0:0:
276,267,101207,1,8,0:0:0:0:
276,267,101369,1,0,0:0:0:0:
276,267,101449,1,0,0:0:0:0:
276,267,101530,1,8,0:0:0:0:
202,268,101691,1,8,0:0:0:0:
202,268,101852,1,0,0:0:0:0:
203,253,102014,1,8,0:0:0:0:
202,253,102175,1,0,0:0:0:0:
202,253,102256,1,0,0:0:0:0:
201,253,102336,1,0,0:0:0:0:
201,253,102417,1,0,0:0:0:0:
200,253,102498,1,8,0:0:0:0:
184,252,102659,1,0,0:0:0:0:
184,252,102820,1,8,0:0:0:0:
191,245,102901,1,0,0:0:0:0:
180,196,103062,1,0,0:0:0:0:
180,196,103143,1,8,0:0:0:0:
180,196,103223,1,8,0:0:0:0:
180,196,103304,1,0,0:0:0:0:
228,148,103465,1,8,0:0:0:0:
223,257,103627,1,0,0:0:0:0:
220,264,103707,1,0,0:0:0:0:
213,258,103788,1,8,0:0:0:0:
213,258,103949,1,8,0:0:0:0:
218,254,104110,1,0,0:0:0:0:
371,293,104191,1,0,0:0:0:0:
322,276,104272,1,0,0:0:0:0:
223,257,104433,1,8,0:0:0:0:
172,207,104594,1,8,0:0:0:0:
172,207,104756,1,0,0:0:0:0:
262,223,105401,1,8,0:0:0:0:
276,204,106046,1,0,0:0:0:0:
276,204,106086,1,0,0:0:0:0:
271,199,106207,1,8,0:0:0:0:
271,199,106248,1,8,0:0:0:0:
368,202,106369,1,0,0:0:0:0:
151,193,106449,1,8,0:0:0:0:
224,276,106530,1,0,0:0:0:0:
224,276,106610,1,0,0:0:0:0:
167,208,106691,1,8,0:0:0:0:
151,193,106772,1,0,0:0:0:0:
215,165,106852,1,8,0:0:0:0:
151,193,107014,1,0,0:0:0:0:
254,239,107067,1,8,0:0:0:0:
80,104,107121,1,8,0:0:0:0:
254,239,107175,1,0,0:0:0:0:
320,139,107336,1,8,0:0:0:0:
320,139,107377,1,8,0:0:0:0:
153,145,107498,1,8,0:0:0:0:
153,145,107538,1,8,0:0:0:0:
247,126,107659,1,0,0:0:0:0:
370,223,107820,1,8,0:0:0:0:
292,273,107901,1,0,0:0:0:0:
276,270,107981,1,8,0:0:0:0:
245,260,108062,1,8,0:0:0:0:
170,219,108143,1,0,0:0:0:0:
100,219,108223,1,0,0:0:0:0:
163,270,108304,1,8,0:0:0:0:
313,106,108627,1,0,0:0:0:0:
313,106,108667,1,0,0:0:0:0:
313,106,108788,1,0,0:0:0:0:
313,106,108828,1,0,0:0:0:0:
303,97,108949,1,8,0:0:0:0:
303,97,109057,1,8,0:0:0:0:
303,97,109164,1,8,0:0:0:0:
345,76,109272,1,0,0:0:0:0:
276,253,109352,1,0,0:0:0:0:
263,255,109433,1,8,0:0:0:0:
183,242,109594,1,0,0:0:0:0:
144,230,109675,1,8,0:0:0:0:
156,232,109756,1,8,0:0:0:0:
145,222,109836,1,0,0:0:0:0:
142,222,109917,1,8,0:0:0:0:
90,276,109998,1,0,0:0:0:0:
90,276,110078,1,0,0:0:0:0:
167,206,110239,1,0,0:0:0:0:
208,206,110320,1,8,0:0:0:0:
95,198,110401,1,8,0:0:0:0:
174,198,110562,1,0,0:0:0:0:
240,210,110643,1,8,0:0:0:0:
240,210,110723,1,8,0:0:0:0:
240,210,110804,1,0,0:0:0:0:
240,210,110885,1,0,0:0:0:0:
240,210,110965,1,8,0:0:0:0:
240,210,111046,1,0,0:0:0:0:
150,168,111207,1,8,0:0:0:0:
156,168,111248,1,8,0:0:0:0:
156,167,111369,1,8,0:0:0:0:
156,167,111409,1,8,0:0:0:0:
381,98,111530,1,0,0:0:0:0:
381,98,111584,1,0,0:0:0:0:
381,98,111637,1,0,0:0:0:0:
381,98,111691,1,0,0:0:0:0:
364,258,111852,1,8,0:0:0:0:
279,254,111933,1,0,0:0:0:0:
218,274,112014,1,8,0:0:0:0:
218,274,112094,1,8,0:0:0:0:
218,274,112175,1,0,0:0:0:0:
218,274,112256,1,0,0:0:0:0:
218,274,112336,1,0,0:0:0:0:
231,140,112498,1,8,0:0:0:0:
231,140,112538,1,8,0:0:0:0:
221,132,112659,1,8,0:0:0:0:
231,140,112699,1,8,0:0:0:0:
323,138,112820,1,0,0:0:0:0:
323,138,112860,1,0,0:0:0:0:
329,244,112981,1,0,0:0:0:0:
239,264,113062,1,0,0:0:0:0:
210,251,113143,1,8,0:0:0:0:
109,222,113223,1,0,0:0:0:0:
172,212,113304,1,8,0:0:0:0:
347,173,113465,1,0,0:0:0:0:
347,173,113519,1,8,0:0:0:0:
347,173,113573,1,8,0:0:0:0:
347,173,113627,1,0,0:0:0:0:
237,214,113788,1,0,0:0:0:0:
244,194,113828,1,0,0:0:0:0:
336,156,113949,1,8,0:0:0:0:
336,156,113989,1,8,0:0:0:0:
321,160,114110,1,0,0:0:0:0:
336,156,114272,1,8,0:0:0:0:
336,156,114312,1,8,0:0:0:0:
336,156,114433,1,8,0:0:0:0:
336,156,114473,1,8,0:0:0:0:
253,108,114594,1,0,0:0:0:0:
253,108,114756,1,8,0:0:0:0:
253,108,114796,1,8,0:0:0:0:
253,108,114917,1,0,0:0:0:0:
253,108,114957,1,0,0:0:0:0:
187,250,115078,1,8,0:0:0:0:
187,250,115159,1,0,0:0:0:0:
187,250,115239,1,8,0:0:0:0:
187,250,115320,1,8,0:0:0:0:
187,250,115401,1,0,0:0:0:0:
187,250,115562,1,8,0:0:0:0:
236,226,115723,1,0,0:0:0:0:
236,226,115804,1,8,0:0:0:0:
236,226,115885,1,8,0:0:0:0:
250,223,115965,1,0,0:0:0:0:
250,222,116046,1,8,0:0:0:0:
250,222,116127,1,0,0:0:0:0:
250,222,116207,1,0,0:0:0:0:
290,123,116369,1,8,0:0:0:0:
290,123,116409,1,8,0:0:0:0:
290,123,116530,1,8,0:0:0:0:
290,123,116570,1,8,0:0:0:0:
239,129,116691,1,0,0:0:0:0:
239,129,116772,1,0,0:0:0:0:
239,129,116852,1,0,0:0:0:0:
322,229,117014,1,8,0:0:0:0:
322,229,117094,1,8,0:0:0:0:
322,229,117175,1,8,0:0:0:0:
322,229,117256,1,0,0:0:0:0:
322,229,117336,1,8,0:0:0:0:
322,229,117417,1,8,0:0:0:0:
190,271,117498,1,0,0:0:0:0:
118,312,117578,1,0,0:0:0:0:
118,312,117659,1,0,0:0:0:0:
113,306,117739,1,8,0:0:0:0:
266,244,117820,1,8,0:0:0:0:
262,228,117901,1,8,0:0:0:0:
261,229,117981,1,0,0:0:0:0:
102,283,118143,1,8,0:0:0:0:
226,299,118223,1,0,0:0:0:0:
214,271,118304,1,8,0:0:0:0:
225,252,118385,1,8,0:0:0:0:
222,250,118465,1,0,0:0:0:0:
248,302,118627,1,8,0:0:0:0:
244,299,118707,1,8,0:0:0:0:
243,299,118788,1,0,0:0:0:0:
239,297,118869,1,8,0:0:0:0:
239,297,118949,1,0,0:0:0:0:
313,164,119003,1,0,0:0:0:0:
313,164,119057,1,0,0:0:0:0:
313,164,119110,1,8,0:0:0:0:
397,259,119272,1,0,0:0:0:0:
314,276,119352,1,8,0:0:0:0:
245,253,119433,1,8,0:0:0:0:
245,253,119514,1,0,0:0:0:0:
239,249,119594,1,8,0:0:0:0:
236,248,119675,1,8,0:0:0:0:
203,241,119756,1,0,0:0:0:0:
223,230,119917,1,8,0:0:0:0:
127,259,119998,1,0,0:0:0:0:
127,259,120078,1,8,0:0:0:0:
15,227,120159,1,8,0:0:0:0:
110,255,120239,1,8,0:0:0:0:
185,247,120320,1,0,0:0:0:0:
195,253,120401,1,0,0:0:0:0:
191,241,120562,1,0,0:0:0:0:
190,240,120723,1,8,0:0:0:0:
184,230,120804,1,8,0:0:0:0:
179,228,120885,1,0,0:0:0:0:
187,229,121046,1,8,0:0:0:0:
195,231,121127,1,0,0:0:0:0:
197,230,121207,1,8,0:0:0:0:
197,229,121288,1,8,0:0:0:0:
133,170,121369,1,0,0:0:0:0:
311,206,121530,1,8,0:0:0:0:
311,206,121570,1,8,0:0:0:0:
311,206,121691,1,0,0:0:0:0:
311,206,121731,1,0,0:0:0:0:
361,111,121852,1,8,0:0:0:0:
361,111,121906,1,8,0:0:0:0:
361,111,121960,1,8,0:0:0:0:
361,111,122014,1,0,0:0:0:0:
325,116,122094,1,0,0:0:0:0:
325,116,122175,1,8,0:0:0:0:
307,274,122336,1,0,0:0:0:0:
102,194,122417,1,8,0:0:0:0:
272,230,122498,1,8,0:0:0:0:
123,199,122578,1,0,0:0:0:0:
114,196,122659,1,8,0:0:0:0:
179,261,122820,1,0,0:0:0:0:
187,245,122901,1,8,0:0:0:0:
161,234,122981,1,8,0:0:0:0:
187,245,123062,1,8,0:0:0:0:
161,234,123143,1,0,0:0:0:0:
70,293,123223,1,8,0:0:0:0:
99,255,123304,1,0,0:0:0:0:
75,273,123385,1,0,0:0:0:0:
76,274,123465,1,8,0:0:0:0:
225,239,123546,1,0,0:0:0:0:
213,229,123627,1,0,0:0:0:0:
228,197,123788,1,8,0:0:0:0:
205,176,123869,1,8,0:0:0:0:
164,267,123949,1,8,0:0:0:0:
231,169,124110,1,0,0:0:0:0:
208,321,124272,1,0,0:0:0:0:
231,169,124433,1,8,0:0:0:0:
367,239,124594,1,0,0:0:0:0:
135,294,124756,1,8,0:0:0:0:
251,264,124917,1,8,0:0:0:0:
242,234,125078,1,0,0:0:0:0:
353,227,125239,1,0,0:0:0:0:
344,250,125401,1,8,0:0:0:0:
163,177,125562,1,0,0:0:0:0:
209,192,125643,1,0,0:0:0:0:
163,177,125723,1,0,0:0:0:0:
264,138,125885,1,8,0:0:0:0:
265,125,126046,1,0,0:0:0:0:
265,125,126153,1,0,0:0:0:0:
265,125,126261,1,0,0:0:0:0:
265,125,126369,1,8,0:0:0:0:
288,161,126691,1,4,0:0:0:0:
288,161,127336,1,8,0:0:0:0:
288,161,127981,1,4,0:0:0:0:
246,133,128304,1,0,0:0:0:0:
334,202,128627,1,8,0:0:0:0:
334,202,129272,1,4,0:0:0:0:
324,196,129756,1,0,0:0:0:0:
324,196,129917,1,8,0:0:0:0:
303,184,130401,1,0,0:0:0:0:
293,173,130562,1,4,0:0:0:0:
292,173,130885,1,0,0:0:0:0:
292,173,131207,1,8,0:0:0:0:
292,173,131369,1,0,0:0:0:0:
250,139,131852,1,4,0:0:0:0:
250,139,132498,1,8,0:0:0:0:
404,236,132981,1,0,0:0:0:0:
309,205,133304,1,0,0:0:0:0:
255,247,133627,1,0,0:0:0:0:
343,239,133788,1,8,0:0:0:0:
269,280,134433,1,4,0:0:0:0:
266,275,134917,1,0,0:0:0:0:
252,259,135078,1,8,0:0:0:0:
304,263,135401,1,0,0:0:0:0:
304,263,135562,1,0,0:0:0:0:
231,225,135723,1,12,0:0:0:0:
231,225,136046,1,12,0:0:0:0:
336,216,136530,1,0,0:0:0:0:
336,216,136584,1,0,0:0:0:0:
336,216,136637,1,0,0:0:0:0:
336,216,136691,1,8,0:0:0:0:
369,97,136852,1,8,0:0:0:0:
369,97,136933,1,8,0:0:0:0:
369,97,137014,1,0,0:0:0:0:
215,264,137336,1,8,0:0:0:0:
212,276,137498,1,0,0:0:0:0:
204,102,137578,1,0,0:0:0:0:
204,102,137659,1,0,0:0:0:0:
204,102,137739,1,8,0:0:0:0:
204,102,137820,1,0,0:0:0:0:
204,102,137981,1,8,0:0:0:0:
233,222,138143,1,0,0:0:0:0:
246,220,138223,1,0,0:0:0:0:
241,217,138304,1,8,0:0:0:0:
349,310,138465,1,8,0:0:0:0:
349,310,138546,1,0,0:0:0:0:
172,127,138707,1,0,0:0:0:0:
172,127,138788,1,8,0:0:0:0:
172,127,138869,1,8,0:0:0:0:
172,127,138949,1,0,0:0:0:0:
244,248,139110,1,0,0:0:0:0:
202,150,139191,1,0,0:0:0:0:
202,150,139272,1,8,0:0:0:0:
185,266,139433,1,8,0:0:0:0:
346,253,139594,1,0,0:0:0:0:
277,194,139756,1,8,0:0:0:0:
211,239,139836,1,8,0:0:0:0:
211,239,139917,1,0,0:0:0:0:
167,266,140078,1,0,0:0:0:0:
167,265,140159,1,8,0:0:0:0:
167,265,140320,1,8,0:0:0:0:
167,264,140401,1,0,0:0:0:0:
167,265,140481,1,0,0:0:0:0:
167,266,140562,1,8,0:0:0:0:
167,266,140723,1,0,0:0:0:0:
170,263,140885,1,8,0:0:0:0:
171,262,140965,1,8,0:0:0:0:
170,262,141046,1,0,0:0:0:0:
167,265,141127,1,0,0:0:0:0:
170,262,141207,1,8,0:0:0:0:
235,250,141369,1,8,0:0:0:0:
235,250,141530,1,0,0:0:0:0:
235,250,141691,1,0,0:0:0:0:
235,250,141772,1,0,0:0:0:0:
235,250,141852,1,8,0:0:0:0:
235,250,142014,1,0,0:0:0:0:
235,250,142175,1,0,0:0:0:0:
237,241,142498,1,8,0:0:0:0:
235,240,142659,1,8,0:0:0:0:
236,236,142820,1,0,0:0:0:0:
228,235,142981,1,0,0:0:0:0:
228,235,143062,1,0,0:0:0:0:
236,236,143143,1,8,0:0:0:0:
261,266,143304,1,8,0:0:0:0:
261,266,143465,1,0,0:0:0:0:
233,276,143788,1,8,0:0:0:0:
236,304,143949,1,0,0:0:0:0:
225,292,144030,1,8,0:0:0:0:
218,287,144191,1,8,0:0:0:0:
203,276,144272,1,0,0:0:0:0:
231,264,144433,1,8,0:0:0:0:
231,264,144594,1,8,0:0:0:0:
225,259,144756,1,0,0:0:0:0:
224,258,145078,1,8,0:0:0:0:
249,251,145239,1,8,0:0:0:0:
256,248,145401,1,0,0:0:0:0:
257,248,145562,1,0,0:0:0:0:
257,246,145643,1,0,0:0:0:0:
252,244,145723,1,8,0:0:0:0:
252,244,145885,1,0,0:0:0:0:
252,244,146046,1,12,0:0:0:0:
252,244,146369,1,12,0:0:0:0:
276,241,146852,1,0,0:0:0:0:
235,272,146933,1,0,0:0:0:0:
276,241,147014,1,8,0:0:0:0:
264,255,147175,1,0,0:0:0:0:
262,254,147336,1,4,0:0:0:0:
261,169,147659,1,0,0:0:0:0:
335,163,147820,1,12,0:0:0:0:
326,162,147981,1,0,0:0:0:0:
226,125,148304,1,4,0:0:0:0:
226,125,148627,1,0,0:0:0:0:
226,125,148788,1,12,0:0:0:0:
226,125,148949,1,0,0:0:0:0:
381,204,149272,1,12,0:0:0:0:
355,166,149594,1,8,0:0:0:0:
374,175,149756,1,0,0:0:0:0:
192,151,149917,1,12,0:0:0:0:
296,227,150078,1,0,0:0:0:0:
248,301,150159,1,0,0:0:0:0:
227,276,150239,1,0,0:0:0:0:
234,278,150401,1,8,0:0:0:0:
235,278,150562,1,0,0:0:0:0:
238,272,150643,1,0,0:0:0:0:
234,278,150723,1,0,0:0:0:0:
238,272,150885,1,8,0:0:0:0:
240,270,151046,1,0,0:0:0:0:
240,270,151207,1,8,0:0:0:0:
253,262,151369,1,0,0:0:0:0:
250,260,151449,1,0,0:0:0:0:
250,259,151530,1,8,0:0:0:0:
263,248,151691,1,0,0:0:0:0:
263,248,151852,1,8,0:0:0:0:
253,241,152175,1,4,0:0:0:0:
253,241,152336,1,4,0:0:0:0:
256,192,152498,12,8,154272,0:0:0:0:
