osu file format v14

[General]
AudioFilename: audio.mp3
AudioLeadIn: 0
PreviewTime: 62025
Countdown: 0
SampleSet: Normal
StackLeniency: 0.7
Mode: 1
LetterboxInBreaks: 0
WidescreenStoryboard: 1

[Editor]
DistanceSpacing: 1
BeatDivisor: 4
GridSize: 4
TimelineZoom: 2.1

[Metadata]
Title:The Day feat. Aruvn (dj-Jo Remix) Extended Version
TitleUnicode:The Day feat. Aruvn (dj-Jo Remix) Extended Version
Artist:Porno Graffiti
ArtistUnicode:Porno Graffiti
Creator:Chromoxx
Version:Futsuu
Source:僕のヒーローアカデミア
Tags:midnaait surono drum and bass, boku no hero academia, dnb
BeatmapID:1473029
BeatmapSetID:693174

[Difficulty]
HPDrainRate:7
CircleSize:5
OverallDifficulty:4.5
ApproachRate:5
SliderMultiplier:1.4
SliderTickRate:1

[Events]
//Background and Video events
0,0,"that day.jpg",0,70
//Break Periods
//Storyboard Layer 0 (Background)
//Storyboard Layer 1 (Fail)
//Storyboard Layer 2 (Pass)
//Storyboard Layer 3 (Foreground)
//Storyboard Sound Samples

[TimingPoints]
240,322.58064516129,4,1,0,80,1,0
62175,-100,4,1,0,80,0,1
71530,-100,4,1,0,80,0,0
72498,-100,4,1,0,80,0,1
82820,-100,4,1,0,80,0,0
126691,-100,4,1,0,80,0,1
136046,-100,4,1,0,80,0,0
137014,-100,4,1,0,80,0,1
147336,-100,4,1,0,80,0,0

[HitObjects]
190,141,78,5,0,0:0:0:0:
190,141,240,1,0,0:0:0:0:
394,342,562,1,8,0:0:0:0:
269,265,885,1,0,0:0:0:0:
261,259,1046,1,0,0:0:0:0:
152,235,1369,1,8,0:0:0:0:
152,235,1691,1,0,0:0:0:0:
244,201,2014,1,8,0:0:0:0:
251,251,2820,1,0,0:0:0:0:
247,248,4110,1,8,0:0:0:0:
247,248,5401,1,0,0:0:0:0:
268,202,6691,1,8,0:0:0:0:
268,202,7820,1,0,0:0:0:0:
268,202,7981,1,0,0:0:0:0:
201,188,9272,1,0,0:0:0:0:
208,191,10562,1,0,0:0:0:0:
334,246,11852,1,12,0:0:0:0:
334,246,12175,1,12,0:0:0:0:
274,197,13143,1,8,0:0:0:0:
274,197,13465,1,0,0:0:0:0:
274,197,13627,1,8,0:0:0:0:
274,197,13788,1,0,0:0:0:0:
250,186,14110,1,8,0:0:0:0:
250,186,14433,1,0,0:0:0:0:
250,186,14594,1,8,0:0:0:0:
250,186,14756,1,0,0:0:0:0:
201,175,15078,1,8,0:0:0:0:
182,169,15723,1,0,0:0:0:0:
182,169,16046,1,8,0:0:0:0:
119,222,16207,1,0,0:0:0:0:
75,129,16369,1,0,0:0:0:0:
136,203,16691,1,0,0:0:0:0:
142,207,17014,1,8,0:0:0:0:
316,189,17175,1,8,0:0:0:0:
333,179,17498,1,0,0:0:0:0:
303,172,17659,1,8,0:0:0:0:
261,163,17981,1,8,0:0:0:0:
261,163,18304,1,0,0:0:0:0:
212,160,18949,1,0,0:0:0:0:
215,160,19272,1,0,0:0:0:0:
218,160,19594,1,8,0:0:0:0:
375,277,20078,1,8,0:0:0:0:
375,277,20562,1,8,0:0:0:0:
264,211,20885,1,0,0:0:0:0:
296,248,21207,1,8,0:0:0:0:
136,239,21369,1,0,0:0:0:0:
257,247,21530,1,0,0:0:0:0:
189,231,21852,1,0,0:0:0:0:
189,231,22175,1,8,0:0:0:0:
189,231,22336,1,8,0:0:0:0:
189,231,22498,1,0,0:0:0:0:
324,266,22820,1,8,0:0:0:0:
244,263,23143,1,0,0:0:0:0:
244,263,23304,1,8,0:0:0:0:
174,157,23465,1,0,0:0:0:0:
198,179,24110,1,0,0:0:0:0:
198,179,24433,1,0,0:0:0:0:
258,193,24756,1,8,0:0:0:0:
244,212,26046,1,0,0:0:0:0:
244,212,26369,1,8,0:0:0:0:
289,255,26530,1,8,0:0:0:0:
289,255,26691,1,0,0:0:0:0:
289,255,27014,1,0,0:0:0:0:
283,194,27336,1,8,0:0:0:0:
285,208,27981,1,0,0:0:0:0:
239,247,28627,1,8,0:0:0:0:
256,207,28949,1,0,0:0:0:0:
256,207,29110,1,0,0:0:0:0:
256,207,29272,1,8,0:0:0:0:
256,207,29594,1,8,0:0:0:0:
192,170,29917,1,0,0:0:0:0:
192,170,30562,1,8,0:0:0:0:
192,170,31207,1,0,0:0:0:0:
192,170,31530,1,8,0:0:0:0:
254,196,31691,1,0,0:0:0:0:
254,196,31852,1,8,0:0:0:0:
254,196,32175,1,8,0:0:0:0:
254,196,32498,1,0,0:0:0:0:
222,194,32820,1,8,0:0:0:0:
254,196,32981,1,8,0:0:0:0:
222,194,33304,1,0,0:0:0:0:
275,162,33465,1,8,0:0:0:0:
275,162,33788,1,0,0:0:0:0:
222,194,34433,1,8,0:0:0:0:
222,194,35078,1,0,0:0:0:0:
222,194,35401,1,8,0:0:0:0:
228,186,35723,1,0,0:0:0:0:
310,187,36369,1,0,0:0:0:0:
310,187,36691,1,8,0:0:0:0:
310,187,36852,1,0,0:0:0:0:
260,190,37175,1,0,0:0:0:0:
198,176,37336,1,8,0:0:0:0:
310,187,37659,1,0,0:0:0:0:
310,187,38304,1,8,0:0:0:0:
217,240,38949,1,0,0:0:0:0:
227,241,39272,1,0,0:0:0:0:
227,241,39433,1,8,0:0:0:0:
227,241,39756,1,8,0:0:0:0:
227,241,39917,1,0,0:0:0:0:
227,241,40239,1,8,0:0:0:0:
283,206,40885,1,0,0:0:0:0:
283,206,41530,1,8,0:0:0:0:
214,199,41852,1,8,0:0:0:0:
283,206,42014,1,0,0:0:0:0:
257,205,42336,1,0,0:0:0:0:
257,205,42498,1,8,0:0:0:0:
257,205,42820,1,0,0:0:0:0:
262,198,43304,1,8,0:0:0:0:
293,196,43788,1,8,0:0:0:0:
293,196,44110,1,0,0:0:0:0:
293,196,44756,1,8,0:0:0:0:
187,188,45401,1,0,0:0:0:0:
208,181,45723,1,8,0:0:0:0:
188,178,45885,1,0,0:0:0:0:
179,155,46207,1,12,0:0:0:0:
218,159,46691,1,0,0:0:0:0:
218,159,47014,1,0,0:0:0:0:
278,157,47336,1,12,0:0:0:0:
210,132,47981,1,8,0:0:0:0:
210,132,48143,1,8,0:0:0:0:
210,132,48304,1,8,0:0:0:0:
210,132,48627,1,8,0:0:0:0:
215,126,49272,1,0,0:0:0:0:
215,126,49756,1,0,0:0:0:0:
223,128,49917,1,12,0:0:0:0:
342,184,50401,1,8,0:0:0:0:
220,193,50723,1,0,0:0:0:0:
220,193,50885,1,0,0:0:0:0:
259,177,51207,1,8,0:0:0:0:
259,177,51852,1,0,0:0:0:0:
259,177,52014,1,0,0:0:0:0:
333,199,52498,1,4,0:0:0:0:
301,192,53143,1,0,0:0:0:0:
207,218,53304,1,8,0:0:0:0:
207,218,53465,1,8,0:0:0:0:
207,218,53788,1,0,0:0:0:0:
219,205,54433,1,8,0:0:0:0:
219,205,55078,1,8,0:0:0:0:
219,205,55401,1,8,0:0:0:0:
219,205,55723,1,0,0:0:0:0:
219,205,56369,1,0,0:0:0:0:
219,205,56691,1,0,0:0:0:0:
191,197,57014,1,12,0:0:0:0:
191,197,57498,1,12,0:0:0:0:
197,198,57820,1,4,0:0:0:0:
200,198,58143,1,4,0:0:0:0:
297,178,59594,1,8,0:0:0:0:
297,178,59917,1,0,0:0:0:0:
297,178,60078,1,8,0:0:0:0:
297,178,60239,1,8,0:0:0:0:
297,178,60562,1,0,0:0:0:0:
297,178,60885,1,8,0:0:0:0:
297,178,61046,1,0,0:0:0:0:
297,178,61207,1,0,0:0:0:0:
247,258,61530,1,8,0:0:0:0:
351,194,62175,1,4,0:0:0:0:
315,232,62498,1,8,0:0:0:0:
315,232,62659,1,0,0:0:0:0:
315,232,62981,1,0,0:0:0:0:
315,232,63143,1,8,0:0:0:0:
206,179,63465,1,0,0:0:0:0:
318,179,63788,1,8,0:0:0:0:
311,177,63949,1,8,0:0:0:0:
270,166,64272,1,0,0:0:0:0:
270,166,64433,1,8,0:0:0:0:
270,166,64756,1,0,0:0:0:0:
111,288,65401,1,8,0:0:0:0:
191,231,65562,1,0,0:0:0:0:
261,191,65723,1,8,0:0:0:0:
318,213,66046,1,0,0:0:0:0:
318,213,66369,1,8,0:0:0:0:
318,213,66691,1,0,0:0:0:0:
318,213,66852,1,0,0:0:0:0:
318,213,67014,1,8,0:0:0:0:
209,142,67336,1,0,0:0:0:0:
210,181,67981,1,8,0:0:0:0:
253,210,68627,1,0,0:0:0:0:
253,210,68949,1,0,0:0:0:0:
253,210,69272,1,8,0:0:0:0:
261,212,69917,1,0,0:0:0:0:
261,212,70562,1,8,0:0:0:0:
261,212,70885,1,0,0:0:0:0:
281,204,71207,1,12,0:0:0:0:
281,205,71530,1,12,0:0:0:0:
274,212,72498,1,4,0:0:0:0:
367,226,72820,1,8,0:0:0:0:
367,226,72981,1,8,0:0:0:0:
367,226,73304,1,0,0:0:0:0:
367,226,73465,1,8,0:0:0:0:
227,187,73788,1,0,0:0:0:0:
227,187,74110,1,8,0:0:0:0:
227,187,74272,1,0,0:0:0:0:
227,187,74594,1,0,0:0:0:0:
227,187,74756,1,8,0:0:0:0:
216,174,75078,1,0,0:0:0:0:
216,174,75723,1,8,0:0:0:0:
216,174,75885,1,0,0:0:0:0:
216,174,76046,1,8,0:0:0:0:
241,219,76369,1,0,0:0:0:0:
210,219,76691,1,8,0:0:0:0:
210,219,77014,1,0,0:0:0:0:
210,219,77175,1,0,0:0:0:0:
218,211,77336,1,8,0:0:0:0:
206,227,77659,1,0,0:0:0:0:
206,227,78304,1,8,0:0:0:0:
206,227,78949,1,0,0:0:0:0:
206,227,79272,1,0,0:0:0:0:
206,227,79594,1,8,0:0:0:0:
219,215,79917,1,8,0:0:0:0:
219,215,80239,1,0,0:0:0:0:
219,215,80885,1,8,0:0:0:0:
219,215,81207,1,0,0:0:0:0:
163,132,81530,1,12,0:0:0:0:
163,132,81852,1,12,0:0:0:0:
257,203,82498,1,8,0:0:0:0:
248,262,82820,1,0,0:0:0:0:
231,257,83143,1,0,0:0:0:0:
231,257,83304,1,8,0:0:0:0:
231,257,83465,1,0,0:0:0:0:
204,272,83788,1,8,0:0:0:0:
239,241,84110,1,0,0:0:0:0:
239,241,84272,1,8,0:0:0:0:
242,233,84433,1,0,0:0:0:0:
242,233,84756,1,8,0:0:0:0:
229,254,85401,1,0,0:0:0:0:
229,254,85723,1,8,0:0:0:0:
229,254,85885,1,0,0:0:0:0:
229,254,86207,1,0,0:0:0:0:
229,254,86369,1,8,0:0:0:0:
296,199,86691,1,0,0:0:0:0:
296,199,87014,1,8,0:0:0:0:
278,219,87659,1,8,0:0:0:0:
156,163,87981,1,0,0:0:0:0:
169,237,88304,1,8,0:0:0:0:
218,222,88465,1,0,0:0:0:0:
186,173,88788,1,8,0:0:0:0:
196,155,88949,1,8,0:0:0:0:
242,272,89272,1,0,0:0:0:0:
242,272,89594,1,8,0:0:0:0:
237,264,90078,1,0,0:0:0:0:
237,264,90239,1,8,0:0:0:0:
227,257,90562,1,0,0:0:0:0:
275,255,90885,1,8,0:0:0:0:
275,255,91046,1,0,0:0:0:0:
382,194,91369,1,0,0:0:0:0:
382,194,91530,1,8,0:0:0:0:
382,194,91852,1,0,0:0:0:0:
283,188,92175,1,8,0:0:0:0:
283,188,92820,1,8,0:0:0:0:
283,188,93143,1,0,0:0:0:0:
215,199,93465,1,8,0:0:0:0:
215,199,93627,1,0,0:0:0:0:
210,194,93949,1,8,0:0:0:0:
210,194,94110,1,8,0:0:0:0:
255,153,94594,1,8,0:0:0:0:
219,196,94756,1,8,0:0:0:0:
204,163,95401,1,8,0:0:0:0:
230,158,95723,1,4,0:0:0:0:
347,193,96046,1,8,0:0:0:0:
347,193,96207,1,0,0:0:0:0:
307,230,96530,1,0,0:0:0:0:
307,230,96691,1,8,0:0:0:0:
307,230,97014,1,0,0:0:0:0:
307,230,97336,1,8,0:0:0:0:
307,230,97981,1,8,0:0:0:0:
250,209,98304,1,0,0:0:0:0:
250,209,98627,1,8,0:0:0:0:
256,213,98788,1,0,0:0:0:0:
256,213,99110,1,8,0:0:0:0:
255,213,99272,1,8,0:0:0:0:
255,213,99594,1,0,0:0:0:0:
215,239,99917,1,8,0:0:0:0:
215,239,100401,1,0,0:0:0:0:
215,239,100562,1,8,0:0:0:0:
215,239,100885,1,0,0:0:0:0:
215,239,101207,1,8,0:0:0:0:
342,224,101530,1,0,0:0:0:0:
342,224,101691,1,0,0:0:0:0:
342,224,101852,1,8,0:0:0:0:
331,221,102175,1,0,0:0:0:0:
331,221,102498,1,8,0:0:0:0:
331,221,102820,1,0,0:0:0:0:
211,213,103143,1,8,0:0:0:0:
211,213,103304,1,0,0:0:0:0:
211,213,103465,1,0,0:0:0:0:
187,198,103788,1,8,0:0:0:0:
216,211,104272,1,0,0:0:0:0:
267,257,104433,1,8,0:0:0:0:
200,192,104756,1,0,0:0:0:0:
332,218,106046,1,0,0:0:0:0:
245,257,106369,1,8,0:0:0:0:
245,257,106530,1,0,0:0:0:0:
245,257,106691,1,0,0:0:0:0:
189,289,107014,1,0,0:0:0:0:
209,266,107336,1,8,0:0:0:0:
209,266,107498,1,8,0:0:0:0:
222,253,107820,1,0,0:0:0:0:
222,253,107981,1,8,0:0:0:0:
240,230,108304,1,8,0:0:0:0:
253,221,108627,1,0,0:0:0:0:
253,221,108949,1,8,0:0:0:0:
198,139,109110,1,8,0:0:0:0:
253,221,109272,1,0,0:0:0:0:
253,221,109917,1,8,0:0:0:0:
223,243,110239,1,8,0:0:0:0:
223,243,110562,1,0,0:0:0:0:
223,243,110723,1,8,0:0:0:0:
223,243,110885,1,0,0:0:0:0:
223,243,111207,1,8,0:0:0:0:
223,243,111530,1,0,0:0:0:0:
219,248,111691,1,0,0:0:0:0:
219,248,111852,1,8,0:0:0:0:
212,240,112175,1,0,0:0:0:0:
212,240,112498,1,8,0:0:0:0:
212,240,112659,1,8,0:0:0:0:
210,240,112820,1,0,0:0:0:0:
212,240,113143,1,8,0:0:0:0:
210,240,113788,1,0,0:0:0:0:
212,240,113949,1,0,0:0:0:0:
215,240,114272,1,8,0:0:0:0:
215,240,114433,1,8,0:0:0:0:
209,233,114756,1,0,0:0:0:0:
209,233,115078,1,8,0:0:0:0:
209,233,115239,1,8,0:0:0:0:
208,233,115401,1,0,0:0:0:0:
209,233,115723,1,8,0:0:0:0:
381,200,116369,1,8,0:0:0:0:
293,214,116691,1,0,0:0:0:0:
293,214,116852,1,0,0:0:0:0:
293,214,117014,1,8,0:0:0:0:
193,209,117175,1,8,0:0:0:0:
193,209,117336,1,0,0:0:0:0:
258,183,117659,1,8,0:0:0:0:
258,183,117981,1,0,0:0:0:0:
198,233,118143,1,0,0:0:0:0:
198,233,118304,1,8,0:0:0:0:
227,207,118627,1,8,0:0:0:0:
227,207,118949,1,0,0:0:0:0:
227,207,119594,1,8,0:0:0:0:
215,206,119917,1,0,0:0:0:0:
215,206,120239,1,8,0:0:0:0:
215,206,120723,1,8,0:0:0:0:
213,205,121207,1,8,0:0:0:0:
273,262,121530,1,0,0:0:0:0:
296,253,121852,1,8,0:0:0:0:
163,244,122014,1,0,0:0:0:0:
163,244,122336,1,0,0:0:0:0:
185,239,122498,1,0,0:0:0:0:
221,235,122820,1,8,0:0:0:0:
221,235,122981,1,0,0:0:0:0:
221,235,123143,1,8,0:0:0:0:
221,235,123465,1,0,0:0:0:0:
237,227,124110,1,8,0:0:0:0:
229,231,124433,1,0,0:0:0:0:
238,299,124594,1,8,0:0:0:0:
229,231,124756,1,8,0:0:0:0:
228,230,125078,1,0,0:0:0:0:
229,231,125401,1,8,0:0:0:0:
229,231,125562,1,0,0:0:0:0:
229,231,125723,1,0,0:0:0:0:
198,265,126046,1,8,0:0:0:0:
246,272,126691,1,4,0:0:0:0:
227,264,127336,1,8,0:0:0:0:
227,264,127981,1,0,0:0:0:0:
227,264,128304,1,0,0:0:0:0:
227,264,128627,1,8,0:0:0:0:
227,264,129272,1,0,0:0:0:0:
204,267,129756,1,0,0:0:0:0:
204,267,129917,1,8,0:0:0:0:
204,267,130401,1,0,0:0:0:0:
204,267,130562,1,0,0:0:0:0:
204,267,130885,1,0,0:0:0:0:
204,267,131207,1,8,0:0:0:0:
204,267,131369,1,0,0:0:0:0:
197,263,131852,1,0,0:0:0:0:
197,263,132498,1,8,0:0:0:0:
376,206,132981,1,0,0:0:0:0:
376,206,133304,1,0,0:0:0:0:
376,206,133627,1,0,0:0:0:0:
321,185,133788,1,8,0:0:0:0:
321,185,134433,1,0,0:0:0:0:
331,165,134917,1,0,0:0:0:0:
331,166,135078,1,8,0:0:0:0:
331,166,135401,1,0,0:0:0:0:
289,153,135723,1,12,0:0:0:0:
289,153,136046,1,12,0:0:0:0:
274,212,137014,1,4,0:0:0:0:
367,226,137336,1,8,0:0:0:0:
367,226,137497,1,8,0:0:0:0:
367,226,137820,1,0,0:0:0:0:
367,226,137981,1,8,0:0:0:0:
227,187,138304,1,0,0:0:0:0:
227,187,138626,1,8,0:0:0:0:
227,187,138788,1,0,0:0:0:0:
227,187,139110,1,0,0:0:0:0:
227,187,139272,1,8,0:0:0:0:
216,174,139594,1,0,0:0:0:0:
216,174,140239,1,8,0:0:0:0:
216,174,140401,1,0,0:0:0:0:
216,174,140562,1,8,0:0:0:0:
241,219,140885,1,0,0:0:0:0:
210,219,141207,1,8,0:0:0:0:
210,219,141530,1,0,0:0:0:0:
210,219,141691,1,0,0:0:0:0:
218,211,141852,1,8,0:0:0:0:
206,227,142175,1,0,0:0:0:0:
206,227,142820,1,8,0:0:0:0:
206,227,143465,1,0,0:0:0:0:
206,227,143788,1,8,0:0:0:0:
370,183,143949,1,0,0:0:0:0:
206,227,144110,1,8,0:0:0:0:
219,215,144433,1,8,0:0:0:0:
219,215,144755,1,0,0:0:0:0:
219,215,145401,1,8,0:0:0:0:
274,242,145562,1,8,0:0:0:0:
219,215,145723,1,0,0:0:0:0:
163,132,146046,1,12,0:0:0:0:
163,132,146368,1,12,0:0:0:0:
257,203,147014,1,8,0:0:0:0:
248,262,147336,1,0,0:0:0:0:
343,225,147659,1,0,0:0:0:0:
343,225,147820,1,8,0:0:0:0:
343,225,147981,1,0,0:0:0:0:
297,158,148304,1,8,0:0:0:0:
297,158,148627,1,0,0:0:0:0:
297,158,148788,1,8,0:0:0:0:
297,158,148949,1,0,0:0:0:0:
295,171,149272,1,8,0:0:0:0:
291,168,149917,1,0,0:0:0:0:
295,171,150239,1,8,0:0:0:0:
291,168,150401,1,8,0:0:0:0:
296,168,150562,1,0,0:0:0:0:
266,143,150885,1,8,0:0:0:0:
266,143,151046,1,0,0:0:0:0:
266,143,151207,1,8,0:0:0:0:
266,143,151530,1,0,0:0:0:0:
266,143,151852,1,8,0:0:0:0:
377,261,152175,1,4,0:0:0:0:
377,261,152336,1,4,0:0:0:0:
256,192,152498,12,8,154272,0:0:0:0:
