osu file format v14

[General]
AudioFilename: audio.mp3
AudioLeadIn: 0
PreviewTime: 38378
Countdown: 0
SampleSet: Normal
StackLeniency: 0.7
Mode: 1
LetterboxInBreaks: 0
WidescreenStoryboard: 1

[Editor]
Bookmarks: 6605,12980,19354,25330,32103,33697,35290,38478,43258,44852,49633,51227,56007,57601,62382,63976
DistanceSpacing: 1.4
BeatDivisor: 4
GridSize: 32
TimelineZoom: 2.599999

[Metadata]
Title:Pretty Little Psycho (Sped Up & Cut Ver.)
TitleUnicode:Pretty Little Psycho (Sped Up & Cut Ver.)
Artist:Porcelain Black
ArtistUnicode:Porcelain Black
Creator:Asahina Oleshev
Version:Kantan
Source:
Tags:hausenberg ryxliee Tachibana_ speed nightcore english pop rock club electronic female vocals Mannequin Factory
BeatmapID:3579721
BeatmapSetID:1749794

[Difficulty]
HPDrainRate:8.5
CircleSize:2
OverallDifficulty:3
ApproachRate:10
SliderMultiplier:1.4
SliderTickRate:1

[Events]
//Background and Video events
0,0,"Konachan.jpg",0,50
//Break Periods
2,6805,11386
//Storyboard Layer 0 (Background)
//Storyboard Layer 1 (Fail)
//Storyboard Layer 2 (Pass)
//Storyboard Layer 3 (Foreground)
//Storyboard Layer 4 (Overlay)
//Storyboard Sound Samples

[TimingPoints]
231,398.406374501992,4,1,0,65,1,0
231,-100,4,1,0,45,0,0
5011,-100,4,1,0,50,0,0
6605,-100,4,1,0,45,0,0
19354,-100,4,1,0,65,0,0
32103,-100,4,1,0,50,0,0
38079,-100,4,1,0,70,0,0
38478,-100,4,1,0,75,0,1
49633,-100,4,1,0,75,0,0
51227,-100,4,1,0,75,0,1
63577,-100,4,1,0,75,0,0

[Colours]
Combo1 : 255,172,132
Combo2 : 249,191,223
Combo3 : 255,128,128

[HitObjects]
256,192,231,5,12,0:0:0:0:
256,192,1027,5,0,0:0:0:0:
256,192,1625,5,8,0:0:0:0:
256,192,2621,5,8,0:0:0:0:
256,192,3418,5,8,0:0:0:0:
256,192,4215,5,0,0:0:0:0:
256,192,5011,5,8,0:0:0:0:
256,192,5808,5,8,0:0:0:0:
256,192,6207,5,8,0:0:0:0:
256,192,6605,5,0,0:0:0:0:
256,192,12980,5,0,0:0:0:0:
256,192,13577,5,0,0:0:0:0:
256,192,14175,5,8,0:0:0:0:
256,192,14573,5,0,0:0:0:0:
256,192,16167,5,0,0:0:0:0:
256,192,16764,5,0,0:0:0:0:
256,192,17362,5,8,0:0:0:0:
256,192,17760,5,0,0:0:0:0:
256,192,19354,5,12,0:0:0:0:
256,192,20151,5,0,0:0:0:0:
256,192,20948,5,0,0:0:0:0:
256,192,21346,5,8,0:0:0:0:
256,192,21744,5,8,0:0:0:0:
256,192,22541,5,8,0:0:0:0:
256,192,23338,5,0,0:0:0:0:
256,192,24135,5,8,0:0:0:0:
256,192,24533,5,0,0:0:0:0:
256,192,24932,5,0,0:0:0:0:
256,192,25330,5,8,0:0:0:0:
256,192,25729,5,0,0:0:0:0:
256,192,26525,5,0,0:0:0:0:
256,192,27322,5,0,0:0:0:0:
256,192,27721,5,8,0:0:0:0:
256,192,28119,5,0,0:0:0:0:
256,192,28916,5,8,0:0:0:0:
256,192,29314,5,8,0:0:0:0:
256,192,29713,5,0,0:0:0:0:
256,192,30509,5,0,0:0:0:0:
256,192,30908,5,0,0:0:0:0:
256,192,31306,5,8,0:0:0:0:
256,192,32103,5,12,0:0:0:0:
256,192,32900,5,0,0:0:0:0:
256,192,33697,5,12,0:0:0:0:
256,192,35290,5,12,0:0:0:0:
256,192,36087,5,0,0:0:0:0:
256,192,36884,5,0,0:0:0:0:
256,192,38478,5,12,0:0:0:0:
256,192,38876,5,0,0:0:0:0:
256,192,39274,5,8,0:0:0:0:
256,192,39872,5,8,0:0:0:0:
256,192,40868,5,8,0:0:0:0:
256,192,41665,5,8,0:0:0:0:
256,192,42063,5,8,0:0:0:0:
256,192,42462,5,0,0:0:0:0:
256,192,43258,5,12,0:0:0:0:
256,192,43657,5,4,0:0:0:0:
256,192,44055,5,12,0:0:0:0:
256,192,44852,5,12,0:0:0:0:
256,192,45250,5,0,0:0:0:0:
256,192,45649,5,0,0:0:0:0:
256,192,46246,5,8,0:0:0:0:
256,192,47242,5,8,0:0:0:0:
256,192,48039,5,0,0:0:0:0:
256,192,48438,5,8,0:0:0:0:
256,192,48836,5,0,0:0:0:0:
256,192,49633,5,12,0:0:0:0:
256,192,50031,5,4,0:0:0:0:
256,192,50430,5,12,0:0:0:0:
256,192,51227,5,4,0:0:0:0:
256,192,51625,5,8,0:0:0:0:
256,192,52023,5,0,0:0:0:0:
256,192,52422,5,8,0:0:0:0:
256,192,52820,5,8,0:0:0:0:
256,192,53418,5,0,0:0:0:0:
256,192,54414,5,0,0:0:0:0:
256,192,54812,5,8,0:0:0:0:
256,192,55210,5,0,0:0:0:0:
256,192,56007,5,12,0:0:0:0:
256,192,56406,5,4,0:0:0:0:
256,192,56804,5,12,0:0:0:0:
256,192,57601,5,4,0:0:0:0:
256,192,57999,5,8,0:0:0:0:
256,192,58397,5,0,0:0:0:0:
256,192,58796,5,8,0:0:0:0:
256,192,59194,5,8,0:0:0:0:
256,192,59792,5,0,0:0:0:0:
256,192,60788,5,0,0:0:0:0:
256,192,61186,5,8,0:0:0:0:
256,192,61584,5,0,0:0:0:0:
256,192,62382,5,12,0:0:0:0:
256,192,62780,5,4,0:0:0:0:
256,192,63179,5,12,0:0:0:0:
256,192,63577,5,12,0:0:0:0:
