osu file format v14

[General]
AudioFilename: audio.mp3
AudioLeadIn: 0
PreviewTime: 38378
Countdown: 0
SampleSet: Normal
StackLeniency: 0.7
Mode: 1
LetterboxInBreaks: 0
WidescreenStoryboard: 0

[Editor]
Bookmarks: 6605,12980,19354,25330,32103,33697,35290,38478,43258,44852,49633,51227,56007,57601,62382,63976
DistanceSpacing: 1.4
BeatDivisor: 4
GridSize: 32
TimelineZoom: 2.599999

[Metadata]
Title:Pretty Little Psycho (Sped Up & Cut Ver.)
TitleUnicode:Pretty Little Psycho (Sped Up & Cut Ver.)
Artist:Porcelain Black
ArtistUnicode:Porcelain Black
Creator:Asahina Oleshev
Version:Agony
Source:
Tags:hausenberg ryxliee Tachibana_ speed nightcore english pop rock club electronic female vocals Mannequin Factory
BeatmapID:3579720
BeatmapSetID:1749794

[Difficulty]
HPDrainRate:5.5
CircleSize:2
OverallDifficulty:5.5
ApproachRate:10
SliderMultiplier:1.4
SliderTickRate:1

[Events]
//Background and Video events
0,0,"Konachan.jpg",0,50
//Break Periods
2,6805,11386
//Storyboard Layer 0 (Background)
//Storyboard Layer 1 (Fail)
//Storyboard Layer 2 (Pass)
//Storyboard Layer 3 (Foreground)
//Storyboard Layer 4 (Overlay)
//Storyboard Sound Samples

[TimingPoints]
231,398.406374501992,4,1,0,65,1,0
231,-125,4,1,0,45,0,0
5011,-125,4,1,0,50,0,0
6605,-125,4,1,0,45,0,0
12955,-111.111111111111,4,1,0,45,0,0
12980,-111.111111111111,4,1,0,45,0,0
19329,-90.9090909090909,4,1,0,65,0,0
19354,-90.9090909090909,4,1,0,65,0,0
32078,-100,4,1,0,50,0,0
32103,-100,4,1,0,50,0,0
38054,-86.2068965517241,4,1,0,70,0,0
38453,-83.3333333333333,4,1,0,75,0,0
38478,-83.3333333333333,4,1,0,75,0,1
43233,-76.9230769230769,4,1,0,75,0,1
44827,-83.3333333333333,4,1,0,75,0,1
49608,-76.9230769230769,4,1,0,75,0,1
49633,-76.9230769230769,4,1,0,75,0,0
51202,-83.3333333333333,4,1,0,75,0,0
51227,-83.3333333333333,4,1,0,75,0,1
55982,-76.9230769230769,4,1,0,75,0,1
57576,-83.3333333333333,4,1,0,75,0,1
62357,-76.9230769230769,4,1,0,75,0,1
63577,-76.9230769230769,4,1,0,75,0,0

[Colours]
Combo1 : 255,172,132
Combo2 : 249,191,223
Combo3 : 255,128,128

[HitObjects]
256,192,231,5,12,0:0:0:0:
256,192,629,5,0,0:0:0:0:
256,192,1027,5,8,0:0:0:0:
256,192,1426,5,0,0:0:0:0:
256,192,1625,5,8,0:0:0:0:
256,192,2023,5,8,0:0:0:0:
256,192,2422,5,0,0:0:0:0:
256,192,2621,5,8,0:0:0:0:
256,192,3019,5,8,0:0:0:0:
256,192,3219,5,0,0:0:0:0:
256,192,3418,5,8,0:0:0:0:
256,192,3617,5,0,0:0:0:0:
256,192,3816,5,8,0:0:0:0:
256,192,4015,5,8,0:0:0:0:
256,192,4215,5,0,0:0:0:0:
256,192,4414,5,8,0:0:0:0:
256,192,4613,5,8,0:0:0:0:
256,192,4812,5,0,0:0:0:0:
256,192,5011,5,8,0:0:0:0:
256,192,5211,5,8,0:0:0:0:
256,192,5410,5,8,0:0:0:0:
256,192,5609,5,0,0:0:0:0:
256,192,5808,5,8,0:0:0:0:
256,192,6207,5,8,0:0:0:0:
256,192,6605,5,0,0:0:0:0:
256,192,12980,5,0,0:0:0:0:
256,192,13378,5,0,0:0:0:0:
256,192,13577,5,8,0:0:0:0:
256,192,13776,5,0,0:0:0:0:
256,192,13976,5,8,0:0:0:0:
256,192,14175,5,8,0:0:0:0:
256,192,14573,5,8,0:0:0:0:
256,192,14972,5,8,0:0:0:0:
256,192,15171,5,0,0:0:0:0:
256,192,15370,5,8,0:0:0:0:
256,192,15569,5,8,0:0:0:0:
256,192,15768,5,0,0:0:0:0:
256,192,16167,5,0,0:0:0:0:
256,192,16565,5,0,0:0:0:0:
256,192,16764,5,8,0:0:0:0:
256,192,16964,5,0,0:0:0:0:
256,192,17163,5,0,0:0:0:0:
256,192,17362,5,8,0:0:0:0:
256,192,17760,5,0,0:0:0:0:
256,192,17960,5,8,0:0:0:0:
256,192,18159,5,8,0:0:0:0:
256,192,18358,5,0,0:0:0:0:
256,192,18557,5,8,0:0:0:0:
256,192,18756,5,0,0:0:0:0:
256,192,18956,5,8,0:0:0:0:
256,192,19354,5,12,0:0:0:0:
256,192,19553,5,0,0:0:0:0:
256,192,19653,5,0,0:0:0:0:
256,192,19752,5,8,0:0:0:0:
256,192,19952,5,0,0:0:0:0:
256,192,20151,5,8,0:0:0:0:
256,192,20350,5,8,0:0:0:0:
256,192,20450,5,0,0:0:0:0:
256,192,20549,5,8,0:0:0:0:
256,192,20748,5,0,0:0:0:0:
256,192,20948,5,8,0:0:0:0:
256,192,21147,5,0,0:0:0:0:
256,192,21246,5,0,0:0:0:0:
256,192,21346,5,8,0:0:0:0:
256,192,21545,5,0,0:0:0:0:
256,192,21744,5,8,0:0:0:0:
256,192,21944,5,8,0:0:0:0:
256,192,22043,5,0,0:0:0:0:
256,192,22143,5,8,0:0:0:0:
256,192,22541,5,8,0:0:0:0:
256,192,22740,5,8,0:0:0:0:
256,192,22840,5,0,0:0:0:0:
256,192,23039,5,0,0:0:0:0:
256,192,23139,5,8,0:0:0:0:
256,192,23338,5,8,0:0:0:0:
256,192,23537,5,8,0:0:0:0:
256,192,23637,5,0,0:0:0:0:
256,192,23736,5,0,0:0:0:0:
256,192,23936,5,8,0:0:0:0:
256,192,24135,5,0,0:0:0:0:
256,192,24334,5,8,0:0:0:0:
256,192,24533,5,8,0:0:0:0:
256,192,24732,5,0,0:0:0:0:
256,192,24932,5,0,0:0:0:0:
256,192,25131,5,8,0:0:0:0:
256,192,25230,5,0,0:0:0:0:
256,192,25330,5,8,0:0:0:0:
256,192,25729,5,8,0:0:0:0:
256,192,25828,5,0,0:0:0:0:
256,192,26027,5,8,0:0:0:0:
256,192,26127,5,0,0:0:0:0:
256,192,26326,5,0,0:0:0:0:
256,192,26426,5,8,0:0:0:0:
256,192,26525,5,8,0:0:0:0:
256,192,26625,5,8,0:0:0:0:
256,192,26824,5,0,0:0:0:0:
256,192,26924,5,8,0:0:0:0:
256,192,27123,5,0,0:0:0:0:
256,192,27322,5,8,0:0:0:0:
256,192,27521,5,8,0:0:0:0:
256,192,27721,5,0,0:0:0:0:
256,192,27920,5,0,0:0:0:0:
256,192,28019,5,8,0:0:0:0:
256,192,28119,5,8,0:0:0:0:
256,192,28318,5,8,0:0:0:0:
256,192,28418,5,0,0:0:0:0:
256,192,28517,5,8,0:0:0:0:
256,192,28916,5,8,0:0:0:0:
256,192,29115,5,0,0:0:0:0:
256,192,29314,5,8,0:0:0:0:
256,192,29513,5,8,0:0:0:0:
256,192,29713,5,0,0:0:0:0:
256,192,29912,5,0,0:0:0:0:
256,192,30011,5,8,0:0:0:0:
256,192,30211,5,0,0:0:0:0:
256,192,30310,5,0,0:0:0:0:
256,192,30509,5,8,0:0:0:0:
256,192,30709,5,0,0:0:0:0:
256,192,30908,5,0,0:0:0:0:
256,192,31107,5,8,0:0:0:0:
256,192,31306,5,8,0:0:0:0:
256,192,31505,5,0,0:0:0:0:
256,192,31605,5,0,0:0:0:0:
256,192,31705,5,8,0:0:0:0:
256,192,32103,5,12,0:0:0:0:
256,192,32501,5,0,0:0:0:0:
256,192,32900,5,8,0:0:0:0:
256,192,33099,5,0,0:0:0:0:
256,192,33298,5,8,0:0:0:0:
256,192,33497,5,0,0:0:0:0:
256,192,33697,5,12,0:0:0:0:
256,192,33995,5,4,0:0:0:0:
256,192,34294,5,4,0:0:0:0:
256,192,34493,5,8,0:0:0:0:
256,192,34892,5,8,0:0:0:0:
256,192,35290,5,12,0:0:0:0:
256,192,35689,5,0,0:0:0:0:
256,192,36087,5,8,0:0:0:0:
256,192,36286,5,0,0:0:0:0:
256,192,36485,5,8,0:0:0:0:
256,192,36685,5,8,0:0:0:0:
256,192,36884,5,0,0:0:0:0:
256,192,38079,5,8,0:0:0:0:
256,192,38478,5,12,0:0:0:0:
256,192,38677,5,0,0:0:0:0:
256,192,38776,5,0,0:0:0:0:
256,192,38876,5,8,0:0:0:0:
256,192,39075,5,8,0:0:0:0:
256,192,39274,5,0,0:0:0:0:
256,192,39374,5,0,0:0:0:0:
256,192,39474,5,0,0:0:0:0:
256,192,39573,5,0,0:0:0:0:
256,192,39673,5,8,0:0:0:0:
256,192,39872,5,8,0:0:0:0:
256,192,39972,5,0,0:0:0:0:
256,192,40071,5,8,0:0:0:0:
256,192,40270,5,0,0:0:0:0:
256,192,40370,5,0,0:0:0:0:
256,192,40470,5,8,0:0:0:0:
256,192,40569,5,0,0:0:0:0:
256,192,40669,5,0,0:0:0:0:
256,192,40868,5,8,0:0:0:0:
256,192,41266,5,8,0:0:0:0:
256,192,41366,5,8,0:0:0:0:
256,192,41466,5,8,0:0:0:0:
256,192,41665,5,8,0:0:0:0:
256,192,41864,5,0,0:0:0:0:
256,192,41964,5,8,0:0:0:0:
256,192,42063,5,0,0:0:0:0:
256,192,42262,5,8,0:0:0:0:
256,192,42462,5,0,0:0:0:0:
256,192,42661,5,8,0:0:0:0:
256,192,42760,5,0,0:0:0:0:
256,192,42860,5,8,0:0:0:0:
256,192,43059,5,0,0:0:0:0:
256,192,43258,5,12,0:0:0:0:
256,192,43458,5,12,0:0:0:0:
256,192,43657,5,4,0:0:0:0:
256,192,43856,5,4,0:0:0:0:
256,192,44055,5,12,0:0:0:0:
256,192,44254,5,4,0:0:0:0:
256,192,44454,5,12,0:0:0:0:
256,192,44852,5,12,0:0:0:0:
256,192,45051,5,0,0:0:0:0:
256,192,45150,5,0,0:0:0:0:
256,192,45250,5,8,0:0:0:0:
256,192,45449,5,8,0:0:0:0:
256,192,45648,5,0,0:0:0:0:
256,192,45748,5,0,0:0:0:0:
256,192,45848,5,0,0:0:0:0:
256,192,45947,5,0,0:0:0:0:
256,192,46047,5,8,0:0:0:0:
256,192,46246,5,8,0:0:0:0:
256,192,46346,5,0,0:0:0:0:
256,192,46445,5,8,0:0:0:0:
256,192,46644,5,0,0:0:0:0:
256,192,46744,5,0,0:0:0:0:
256,192,46844,5,8,0:0:0:0:
256,192,46943,5,8,0:0:0:0:
256,192,47043,5,8,0:0:0:0:
256,192,47242,5,8,0:0:0:0:
256,192,47641,5,8,0:0:0:0:
256,192,47840,5,0,0:0:0:0:
256,192,48039,5,8,0:0:0:0:
256,192,48238,5,8,0:0:0:0:
256,192,48338,5,0,0:0:0:0:
256,192,48438,5,0,0:0:0:0:
256,192,48637,5,8,0:0:0:0:
256,192,48836,5,0,0:0:0:0:
256,192,49035,5,8,0:0:0:0:
256,192,49135,5,0,0:0:0:0:
256,192,49234,5,8,0:0:0:0:
256,192,49434,5,0,0:0:0:0:
256,192,49633,5,12,0:0:0:0:
256,192,49832,5,4,0:0:0:0:
256,192,50031,5,12,0:0:0:0:
256,192,50231,5,4,0:0:0:0:
256,192,50430,5,12,0:0:0:0:
256,192,50629,5,12,0:0:0:0:
256,192,50828,5,4,0:0:0:0:
256,192,51227,5,12,0:0:0:0:
256,192,51426,5,0,0:0:0:0:
256,192,51525,5,8,0:0:0:0:
256,192,51625,5,0,0:0:0:0:
256,192,51725,5,0,0:0:0:0:
256,192,51824,5,0,0:0:0:0:
256,192,52023,5,8,0:0:0:0:
256,192,52223,5,0,0:0:0:0:
256,192,52422,5,0,0:0:0:0:
256,192,52521,5,0,0:0:0:0:
256,192,52621,5,8,0:0:0:0:
256,192,52820,5,8,0:0:0:0:
256,192,53019,5,8,0:0:0:0:
256,192,53119,5,0,0:0:0:0:
256,192,53219,5,0,0:0:0:0:
256,192,53418,5,8,0:0:0:0:
256,192,53617,5,0,0:0:0:0:
256,192,53816,5,8,0:0:0:0:
256,192,54015,5,8,0:0:0:0:
256,192,54414,5,8,0:0:0:0:
256,192,54613,5,8,0:0:0:0:
256,192,54712,5,0,0:0:0:0:
256,192,54812,5,8,0:0:0:0:
256,192,54912,5,8,0:0:0:0:
256,192,55011,5,0,0:0:0:0:
256,192,55210,5,8,0:0:0:0:
256,192,55410,5,0,0:0:0:0:
256,192,55609,5,8,0:0:0:0:
256,192,55709,5,8,0:0:0:0:
256,192,55808,5,0,0:0:0:0:
256,192,56007,5,12,0:0:0:0:
256,192,56207,5,12,0:0:0:0:
256,192,56406,5,4,0:0:0:0:
256,192,56605,5,4,0:0:0:0:
256,192,56804,5,12,0:0:0:0:
256,192,57003,5,4,0:0:0:0:
256,192,57203,5,12,0:0:0:0:
256,192,57601,5,12,0:0:0:0:
256,192,57800,5,0,0:0:0:0:
256,192,57899,5,8,0:0:0:0:
256,192,57999,5,0,0:0:0:0:
256,192,58099,5,0,0:0:0:0:
256,192,58198,5,0,0:0:0:0:
256,192,58397,5,8,0:0:0:0:
256,192,58597,5,0,0:0:0:0:
256,192,58796,5,0,0:0:0:0:
256,192,58896,5,0,0:0:0:0:
256,192,58995,5,8,0:0:0:0:
256,192,59194,5,8,0:0:0:0:
256,192,59393,5,8,0:0:0:0:
256,192,59493,5,0,0:0:0:0:
256,192,59593,5,0,0:0:0:0:
256,192,59792,5,8,0:0:0:0:
256,192,59991,5,0,0:0:0:0:
256,192,60190,5,8,0:0:0:0:
256,192,60389,5,8,0:0:0:0:
256,192,60788,5,8,0:0:0:0:
256,192,60987,5,8,0:0:0:0:
256,192,61086,5,0,0:0:0:0:
256,192,61186,5,8,0:0:0:0:
256,192,61286,5,8,0:0:0:0:
256,192,61385,5,0,0:0:0:0:
256,192,61584,5,8,0:0:0:0:
256,192,61784,5,0,0:0:0:0:
256,192,61983,5,8,0:0:0:0:
256,192,62083,5,8,0:0:0:0:
256,192,62183,5,0,0:0:0:0:
256,192,62381,5,12,0:0:0:0:
256,192,62581,5,4,0:0:0:0:
256,192,62780,5,12,0:0:0:0:
256,192,62979,5,4,0:0:0:0:
256,192,63178,5,12,0:0:0:0:
256,192,63377,5,4,0:0:0:0:
256,192,63577,5,12,0:0:0:0:
