osu file format v14

[General]
AudioFilename: audio.mp3
AudioLeadIn: 0
PreviewTime: 37659
Countdown: 1
SampleSet: Soft
StackLeniency: 0
Mode: 0
LetterboxInBreaks: 0
WidescreenStoryboard: 1

[Editor]
DistanceSpacing: 1
BeatDivisor: 8
GridSize: 4
TimelineZoom: 3.519999

[Metadata]
Title:Pretty Little Psycho (Nightcore mix)
TitleUnicode:Pretty Little Psycho (Nightcore mix)
Artist:Porcelain Black
ArtistUnicode:Porcelain Black
Creator:VADSIG
Version:resource expert
Source:
Tags:nightcore
BeatmapID:3456224
BeatmapSetID:955946

[Difficulty]
HPDrainRate:5
CircleSize:4
OverallDifficulty:6
ApproachRate:9.5
SliderMultiplier:3
SliderTickRate:1

[Events]
//Background and Video events
//Break Periods
2,71854,77469
//Storyboard Layer 0 (Background)
Sprite,Background,TopLeft,"banner.jpg",0,0
//Storyboard Layer 1 (Fail)
//Storyboard Layer 2 (Pass)
//Storyboard Layer 3 (Foreground)
//Storyboard Layer 4 (Overlay)
//Storyboard Sound Samples

[TimingPoints]
212,398.379921651949,4,2,0,50,1,0
6586,-149.253731343284,4,2,0,50,0,0
8179,-133.333333333333,4,2,0,50,0,0
9773,-111.111111111111,4,2,0,50,0,0
11366,-100,4,2,0,50,0,0
12163,-55.5555555555556,4,2,0,50,0,0
12960,-100,4,2,0,50,0,0
20130,-500,4,2,0,50,0,0
20330,-100,4,2,0,50,0,0
26803,-66.6666666666667,4,2,0,50,0,0
27202,-100,4,2,0,50,0,0
28397,-76.9230769230769,4,2,0,50,0,0
28696,-100,4,2,0,50,0,0
32082,-1000,4,2,0,50,0,0
33675,-100,4,2,0,50,0,0
35269,-1000,4,2,0,50,0,0
36862,-66.6666666666667,4,2,0,50,0,0
50407,-55.5555555555556,4,2,0,50,0,0
51204,-76.9230769230769,4,2,0,50,0,0
55985,-66.6666666666667,4,2,0,50,0,0
57578,-76.9230769230769,4,2,0,50,0,0
63156,-55.5555555555556,4,2,0,50,0,0
63952,-76.9230769230769,4,2,0,50,0,0
81481,-66.6666666666667,4,2,0,50,0,0

[Colours]
Combo1 : 160,239,14
Combo2 : 179,0,0
Combo3 : 255,138,21
Combo4 : 171,134,240

[HitObjects]
221,291,6586,6,0,L|36:198,1,200.999990492249
233,58,7183,2,0,B|386:57|386:57|412:57|441:74,1,200.999990492249
476,92,7681,1,0,0:0:0:0:
476,92,7781,1,0,0:0:0:0:
184,333,8179,6,0,B|323:234|323:234|251:224,1,225.000008583069
75,163,8777,2,0,B|44:192|44:192|224:219,1,225.000008583069
269,226,9275,1,0,0:0:0:0:
313,234,9374,1,0,0:0:0:0:
443,141,9773,6,0,B|498:57|409:66|375:-13|241:70,1,269.999991760254
103,232,10370,2,0,B|143:234|143:234|178:213|178:213|219:223|219:223|246:197|246:197|287:207|287:207|317:179|317:179|368:184,1,269.999991760254
410,185,10868,1,0,0:0:0:0:
477,189,10968,1,0,0:0:0:0:
103,232,11366,6,0,B|195:180|218:157|218:157|257:111|371:119|373:198,1,337.5
482,169,11964,1,0,0:0:0:0:
289,358,12163,2,0,B|256:188|81:76|81:76|151:7|282:-4|384:93|231:150|231:150|384:94|282:-2|149:5|81:77,1,1079.99996704102
74,89,13358,5,0,0:0:0:0:
61,103,13756,1,0,0:0:0:0:
49,117,14155,1,0,0:0:0:0:
413,167,14553,5,0,0:0:0:0:
427,153,14952,1,0,0:0:0:0:
429,133,15350,1,0,0:0:0:0:
413,120,15748,1,0,0:0:0:0:
85,60,16147,5,0,0:0:0:0:
114,67,16545,1,0,0:0:0:0:
90,85,16943,1,0,0:0:0:0:
92,55,17342,1,0,0:0:0:0:
110,160,17740,5,0,0:0:0:0:
135,235,17939,1,0,0:0:0:0:
213,315,18139,1,0,0:0:0:0:
356,359,18338,1,0,0:0:0:0:
448,154,18537,1,0,0:0:0:0:
230,212,18736,1,0,0:0:0:0:
441,289,18935,1,0,0:0:0:0:
260,86,19135,6,0,B|204:32|204:32|121:33,1,150
109,36,19433,1,0,0:0:0:0:
86,37,19533,1,0,0:0:0:0:
86,37,19931,5,0,0:0:0:0:
178,192,20130,2,0,B|194:223,1,30
160,287,20529,2,0,B|317:274,1,150
384,267,20927,1,0,0:0:0:0:
442,220,21126,1,0,0:0:0:0:
472,151,21326,2,0,P|469:108|450:61,1,75
432,104,21525,1,0,0:0:0:0:
285,87,21724,6,0,L|209:61,1,75
263,132,21923,1,0,0:0:0:0:
275,167,22023,2,0,P|197:181|196:310,1,225
222,370,22521,6,0,L|163:354,1,50
108,363,22720,1,0,0:0:0:0:
136,304,22820,2,0,L|118:256,1,50
263,218,23118,1,0,0:0:0:0:
259,67,23318,6,0,L|299:13,1,50
314,70,23517,1,0,0:0:0:0:
356,95,23616,2,0,B|389:121|401:174,2,75
258,262,24114,5,0,0:0:0:0:
108,254,24313,1,0,0:0:0:0:
221,353,24513,1,0,0:0:0:0:
180,208,24712,1,0,0:0:0:0:
138,352,24911,1,0,0:0:0:0:
258,262,25110,1,0,0:0:0:0:
301,236,25210,1,0,0:0:0:0:
341,207,25309,2,0,B|398:168|398:168|362:147,1,100
334,86,25608,5,0,0:0:0:0:
340,91,25708,1,0,0:0:0:0:
340,91,25807,1,0,0:0:0:0:
105,47,26007,2,0,L|67:81,2,50
241,260,26405,1,0,0:0:0:0:
284,285,26505,1,0,0:0:0:0:
333,281,26604,1,0,0:0:0:0:
354,132,26803,2,0,B|323:57|269:46|224:97|183:128|114:95|104:42,1,300.000011444092
67,80,27301,5,0,0:0:0:0:
64,180,27501,1,0,0:0:0:0:
147,235,27700,2,0,L|156:339,1,100
204,326,27998,1,0,0:0:0:0:
211,375,28098,1,0,0:0:0:0:
364,247,28297,1,0,0:0:0:0:
383,200,28397,2,0,B|407:150|442:92|362:53|299:76|369:129,1,194.999991073609
316,149,28795,5,0,0:0:0:0:
279,183,28895,1,0,0:0:0:0:
149,258,29094,1,0,0:0:0:0:
44,150,29293,1,0,0:0:0:0:
192,128,29492,1,0,0:0:0:0:
257,263,29692,2,0,P|273:293|296:323,1,50,0|0,0:0|0:0,2:0:0:0:
335,293,29891,1,0,0:0:0:0:
384,270,29990,2,0,B|427:194|427:194|404:211|404:211|421:158,1,150
184,178,30488,5,0,0:0:0:0:
333,170,30688,1,0,0:0:0:0:
182,116,30887,1,0,0:0:0:0:
338,222,31086,1,0,0:0:0:0:
278,20,31285,2,0,L|267:133,1,100
261,184,31584,1,0,0:0:0:0:
268,119,31684,2,0,L|277:19,1,100
139,254,32082,6,0,L|118:326,1,75
135,335,33675,5,0,0:0:0:0:
184,329,33775,1,0,0:0:0:0:
234,295,33875,1,0,0:0:0:0:
275,239,33974,1,0,0:0:0:0:
296,156,34074,1,0,0:0:0:0:
310,57,34173,1,0,0:0:0:0:
403,133,34273,6,0,L|446:178,4,50
370,201,34771,5,0,0:0:0:0:
295,214,34871,1,0,0:0:0:0:
268,283,34970,1,0,0:0:0:0:
194,264,35070,1,0,0:0:0:0:
157,329,35169,1,0,0:0:0:0:
58,124,35269,6,0,L|49:49,1,75
119,46,36862,6,0,L|195:56,1,64.9999970245363
346,77,37062,6,0,L|281:68,1,64.9999970245363
127,121,37261,6,0,L|203:131,1,64.9999970245363
353,149,37460,6,0,L|288:140,1,64.9999970245363
139,205,37659,6,0,L|215:215,1,64.9999970245363
364,239,37858,6,0,L|299:230,1,64.9999970245363
364,239,38058,2,0,L|299:230,1,64.9999970245363
364,239,38257,2,0,L|299:230,1,64.9999970245363
364,239,38456,6,0,P|261:227|129:237,1,225.000008583069
290,345,38854,2,0,P|361:340|486:254,1,225.000008583069
403,122,39253,2,0,B|327:138|274:211|213:122|98:133,1,300.000011444092
282,345,39850,6,0,B|338:346|397:353|432:321,1,150.000005722046
275,79,40249,2,0,B|233:74|196:40|118:63,1,150.000005722046
65,315,40647,5,0,0:0:0:0:
328,290,40846,2,0,P|384:235|422:164,1,150.000005722046,0|0,0:0|0:0,2:0:0:0:
127,117,41245,5,0,0:0:0:0:
143,245,41444,1,0,0:0:0:0:
264,198,41643,1,0,0:0:0:0:
138,165,41842,1,0,0:0:0:0:
229,256,42041,1,0,0:0:0:0:
296,144,42241,1,0,0:0:0:0:
181,204,42440,1,0,0:0:0:0:
310,215,42639,1,0,0:0:0:0:
284,87,42838,1,0,0:0:0:0:
237,208,43037,1,0,0:0:0:0:
372,106,43237,1,0,0:0:0:0:
207,69,43436,1,0,0:0:0:0:
333,180,43635,1,0,0:0:0:0:
285,18,43834,1,0,0:0:0:0:
145,113,44033,2,0,B|146:237|146:237|146:272|212:273|214:222|188:218,1,225.000008583069
320,220,44432,5,0,0:0:0:0:
384,222,44531,1,0,0:0:0:0:
436,224,44631,1,0,0:0:0:0:
468,225,44730,1,0,0:0:0:0:
481,225,44830,2,0,B|496:91|372:53,1,225.000008583069
226,54,45228,2,0,P|183:148|64:185,1,225.000008583069
107,332,45627,2,0,P|166:242|285:225,1,225.000008583069
349,239,46025,1,0,0:0:0:0:
494,203,46224,6,0,B|473:125|473:125|462:91|405:79,1,150.000005722046
154,67,46623,2,0,B|95:71|79:134|115:163|167:161|184:164|184:248,1,225.000008583069
187,367,47021,1,0,0:0:0:0:
418,177,47220,2,0,P|450:57|316:69,1,300.000011444092
170,286,48017,5,0,0:0:0:0:
247,158,48216,1,0,0:0:0:0:
387,103,48415,1,0,0:0:0:0:
266,193,48615,1,0,0:0:0:0:
137,270,48814,1,0,0:0:0:0:
278,220,49013,1,0,0:0:0:0:
362,96,49212,1,0,0:0:0:0:
449,217,49411,1,0,0:0:0:0:
362,96,49611,6,0,L|307:21,3,75.0000028610231
353,145,50009,1,0,0:0:0:0:
333,201,50109,1,0,0:0:0:0:
291,243,50208,1,0,0:0:0:0:
236,269,50308,1,0,0:0:0:0:
176,274,50407,2,0,B|96:130|96:130|163:88|214:107|196:161|142:190,2,314.999990386963
202,318,51204,5,0,0:0:0:0:
254,318,51304,1,0,0:0:0:0:
305,322,51403,1,0,0:0:0:0:
357,325,51503,1,0,0:0:0:0:
409,328,51603,2,0,L|408:211,2,97.4999955368044
487,334,52001,5,0,0:0:0:0:
485,282,52100,1,0,0:0:0:0:
484,229,52200,1,0,0:0:0:0:
485,176,52300,1,0,0:0:0:0:
485,124,52399,2,0,L|483:14,2,97.4999955368044
405,125,52798,5,0,0:0:0:0:
354,136,52897,1,0,0:0:0:0:
304,153,52997,1,0,0:0:0:0:
257,174,53096,1,0,0:0:0:0:
212,201,53196,1,0,0:0:0:0:
173,236,53296,2,0,B|57:322|58:363|118:373|209:368|178:335|140:326,1,259.999988098145
218,311,53794,2,0,P|336:270|470:316,1,259.999988098145
443,197,54391,5,0,0:0:0:0:
375,136,54590,1,0,0:0:0:0:
264,176,54790,1,0,0:0:0:0:
138,83,54989,1,0,0:0:0:0:
63,331,55188,5,0,0:0:0:0:
149,273,55387,1,0,0:0:0:0:
272,345,55586,1,0,0:0:0:0:
449,264,55785,1,0,0:0:0:0:
380,90,55985,6,0,P|312:78|227:81,1,150.000005722046
188,91,56283,1,0,0:0:0:0:
148,112,56383,1,0,0:0:0:0:
113,141,56483,1,0,0:0:0:0:
93,181,56582,1,0,0:0:0:0:
85,225,56682,1,0,0:0:0:0:
87,269,56781,2,0,L|314:248,1,225.000008583069
226,258,57180,2,0,B|230:301|230:301|233:339|279:366|316:331|313:291|313:291|309:245,1,225.000008583069
387,238,57578,5,0,0:0:0:0:
354,197,57678,1,0,0:0:0:0:
319,158,57777,1,0,0:0:0:0:
285,118,57877,1,0,0:0:0:0:
250,79,57977,2,0,B|186:67|186:67|146:10,2,129.999994049073
327,86,58475,5,0,0:0:0:0:
377,94,58574,1,0,0:0:0:0:
428,103,58674,1,0,0:0:0:0:
478,112,58773,2,0,B|490:49|490:49|424:19,2,129.999994049073
460,188,59271,5,0,0:0:0:0:
447,238,59371,1,0,0:0:0:0:
435,288,59471,1,0,0:0:0:0:
384,275,59570,1,0,0:0:0:0:
333,260,59670,1,0,0:0:0:0:
283,246,59769,2,0,B|248:340|248:340|236:372|188:358|176:328|214:305|226:340,1,194.999991073609
189,253,60168,6,0,P|173:185|100:196,2,129.999994049073
423,98,60765,5,0,0:0:0:0:
295,208,60964,1,0,0:0:0:0:
423,98,61164,1,0,0:0:0:0:
278,123,61363,1,0,0:0:0:0:
423,98,61562,5,0,0:0:0:0:
264,41,61761,1,0,0:0:0:0:
423,98,61960,1,0,0:0:0:0:
278,123,62160,1,0,0:0:0:0:
429,22,62359,5,0,0:0:0:0:
406,215,62558,1,0,0:0:0:0:
272,39,62757,1,0,0:0:0:0:
492,149,62956,1,0,0:0:0:0:
212,258,63156,2,0,B|60:322|60:322|25:251|49:202|101:226|124:283,2,314.999990386963
267,321,63952,6,0,P|326:285|376:243,1,129.999994049073
437,252,64251,1,0,0:0:0:0:
501,262,64351,2,0,P|456:202|379:169,1,129.999994049073
423,113,64649,1,0,0:0:0:0:
486,127,64749,2,0,P|468:58|394:58,1,129.999994049073
423,113,65048,1,0,0:0:0:0:
371,73,65147,2,0,B|355:128|259:164|207:62,1,194.999991073609
151,84,65546,5,0,0:0:0:0:
171,251,65745,1,0,0:0:0:0:
329,309,65944,1,0,0:0:0:0:
467,212,66143,1,0,0:0:0:0:
360,80,66343,2,0,L|294:67,1,64.9999970245363
314,130,66542,1,0,0:0:0:0:
370,161,66641,2,0,B|294:199|294:199|250:151|177:160,1,194.999991073609
478,254,67139,6,0,P|466:181|446:125,1,129.999994049073
370,161,67438,1,0,0:0:0:0:
319,93,67538,2,0,P|253:110|185:90,1,129.999994049073
122,51,67836,1,0,0:0:0:0:
136,134,67936,2,0,B|151:237|151:237|177:231,1,129.999994049073
259,217,68235,1,0,0:0:0:0:
282,297,68334,2,0,B|284:355|329:372|373:355|383:302|355:264|333:274|309:283,1,194.999991073609
362,206,68733,6,0,L|399:146,1,64.9999970245363
452,55,68932,1,0,0:0:0:0:
367,44,69032,6,0,L|301:43,1,64.9999970245363
191,42,69231,1,0,0:0:0:0:
160,120,69330,2,0,L|136:193,1,64.9999970245363
223,164,69530,2,0,L|236:237,1,64.9999970245363
155,256,69729,2,0,L|209:307,1,64.9999970245363
287,298,69928,2,0,L|271:361,2,64.9999970245363
371,294,70227,5,0,0:0:0:0:
371,294,70326,2,0,L|376:211,2,64.9999970245363
447,258,70625,2,0,P|442:189|389:150,1,129.999994049073
333,144,70924,2,0,L|287:96,1,64.9999970245363
235,136,71123,2,0,L|236:216,2,64.9999970245363
311,342,71522,6,0,P|241:343|167:302,1,129.999994049073
286,177,78294,5,0,0:0:0:0:
286,177,78394,1,0,0:0:0:0:
336,110,78493,5,0,0:0:0:0:
336,110,78593,1,0,0:0:0:0:
428,96,78692,5,0,0:0:0:0:
428,96,78792,1,0,0:0:0:0:
343,32,78892,5,0,0:0:0:0:
343,32,78992,1,0,0:0:0:0:
235,101,79091,5,0,0:0:0:0:
235,101,79191,1,0,0:0:0:0:
372,182,79290,5,0,0:0:0:0:
372,182,79390,1,0,0:0:0:0:
338,336,79489,5,0,0:0:0:0:
338,336,79589,1,0,0:0:0:0:
234,227,79688,5,0,0:0:0:0:
234,227,79788,1,0,0:0:0:0:
234,227,79887,2,0,L|126:140,1,129.999994049073
74,93,80286,1,0,0:0:0:0:
482,262,80684,5,0,0:0:0:0:
384,63,80883,1,0,0:0:0:0:
234,227,81083,2,0,B|189:299|189:299|170:335|227:357|248:317|194:294,1,194.999991073609
124,265,81481,6,0,L|46:218,1,75.0000028610231
137,242,81680,6,0,L|59:195,1,75.0000028610231
151,212,81879,6,0,L|73:165,1,75.0000028610231
165,189,82079,6,0,L|87:142,1,75.0000028610231
178,166,82278,6,0,L|100:119,1,75.0000028610231
192,136,82477,6,0,L|114:89,1,75.0000028610231
192,136,82676,2,0,L|114:89,1,75.0000028610231
192,136,82875,2,0,L|114:89,1,75.0000028610231
192,136,83075,6,0,P|303:176|411:139,1,225.000008583069
257,199,85863,5,0,0:0:0:0:
369,124,86062,1,0,0:0:0:0:
104,63,86262,1,0,0:0:0:0:
191,166,86461,1,0,0:0:0:0:
440,63,86660,5,0,0:0:0:0:
309,29,86859,1,0,0:0:0:0:
197,274,87058,1,0,0:0:0:0:
327,238,87258,1,0,0:0:0:0:
89,109,87457,5,0,0:0:0:0:
58,95,87556,1,0,0:0:0:0:
28,78,87656,1,0,0:0:0:0:
119,258,87855,5,0,0:0:0:0:
215,199,87955,1,0,0:0:0:0:
120,258,88054,1,0,0:0:0:0:
215,199,88154,1,0,0:0:0:0:
109,236,88253,5,0,0:0:0:0:
216,269,88353,1,0,0:0:0:0:
108,234,88453,1,0,0:0:0:0:
214,269,88552,1,0,0:0:0:0:
122,202,88652,6,0,B|191:101|293:50|293:50|347:73|355:102|346:138|305:159|274:153|231:73,2,450.000017166138
