osu file format v14

[General]
AudioFilename: audio.mp3
AudioLeadIn: 0
PreviewTime: 37659
Countdown: 1
SampleSet: Normal
StackLeniency: 0.7
Mode: 0
LetterboxInBreaks: 0
WidescreenStoryboard: 1

[Editor]
DistanceSpacing: 0.66
BeatDivisor: 8
GridSize: 4
TimelineZoom: 5.219997

[Metadata]
Title:Pretty Little Psycho (Nightcore mix)
TitleUnicode:Pretty Little Psycho (Nightcore mix)
Artist:Porcelain Black
ArtistUnicode:Porcelain Black
Creator:VADSIG
Version:Insane
Source:
Tags:nightcore
BeatmapID:3456227
BeatmapSetID:955946

[Difficulty]
HPDrainRate:4
CircleSize:3.7
OverallDifficulty:6
ApproachRate:9
SliderMultiplier:2
SliderTickRate:1

[Events]
//Background and Video events
//Break Periods
//Storyboard Layer 0 (Background)
Sprite,Background,TopLeft,"banner.jpg",0,0
//Storyboard Layer 1 (Fail)
//Storyboard Layer 2 (Pass)
//Storyboard Layer 3 (Foreground)
//Storyboard Layer 4 (Overlay)
//Storyboard Sound Samples

[TimingPoints]
212,398.379921651949,4,1,1,50,1,0
8179,-90.9090909090909,4,1,1,50,0,0
9773,-76.9230769230769,4,1,1,50,0,0
11366,-66.6666666666667,4,1,1,50,0,0
12163,-55.5555555555556,4,1,1,50,0,0
12960,-100,4,1,1,50,0,0
26007,-66.6666666666667,4,1,1,50,0,0
26206,-100,4,1,1,50,0,0
26803,-66.6666666666667,4,1,1,50,0,0
27202,-100,4,1,1,50,0,0
27700,-100,4,1,1,50,0,0
28397,-76.9230769230769,4,1,1,50,0,0
28696,-100,4,1,1,50,0,0
32082,-1000,4,1,1,50,0,0
33675,-100,4,1,1,50,0,0
35269,-1000,4,1,1,50,0,0
36862,-74.0740740740741,4,1,1,50,0,0
38456,-74.0740740740741,4,1,1,50,0,0
38854,-100,4,1,1,50,0,0
39253,-55.5555555555556,4,1,1,50,0,0
44033,-55.5555555555556,4,1,1,50,0,0
50407,-55.5555555555556,4,1,1,50,0,0
51204,-76.9230769230769,4,1,1,50,0,0
55985,-66.6666666666667,4,1,1,50,0,0
57578,-76.9230769230769,4,1,1,50,0,0
63156,-55.5555555555556,4,1,1,50,0,0
63952,-76.9230769230769,4,1,1,50,0,0
76700,-1000,4,1,1,50,0,0
78194,-100,4,1,1,50,0,0
81083,-66.6666666666667,4,1,1,50,0,0
81481,-100,4,1,1,50,0,0
82079,-76.9230769230769,4,1,1,50,0,0
83473,-100,4,1,1,50,0,0
83871,-66.6666666666667,4,1,1,50,0,0
88652,-55.5555555555556,4,1,1,50,0,0
89449,-66.6666666666667,4,1,1,50,0,0
89847,-100,4,1,1,50,0,0
90245,-55.5555555555556,4,1,1,50,0,0
92636,-76.9230769230769,4,1,1,50,0,0
95026,-66.6666666666667,4,1,1,50,0,0
95823,-76.9230769230769,4,1,1,50,0,0
98014,-66.6666666666667,4,1,1,50,0,0
99010,-76.9230769230769,4,1,1,50,0,0
101400,-66.6666666666667,4,1,1,50,0,0
102197,-76.9230769230769,4,1,1,50,0,0
104388,-66.6666666666667,4,1,1,50,0,0
105384,-76.9230769230769,4,1,1,50,0,0
107774,-55.5555555555556,4,1,1,50,0,0
108471,-100,4,1,1,50,0,0
134067,-333.333333333333,4,1,1,50,0,0
134466,-250,4,1,1,50,0,0
134864,-200,4,1,1,50,0,0
135461,-125,4,1,1,50,0,0
135860,-111.111111111111,4,1,1,50,0,0
139644,-66.6666666666667,4,1,1,50,0,0
140441,-100,4,1,1,50,0,0
140840,-76.9230769230769,4,1,1,50,0,0
141238,-66.6666666666667,4,1,1,50,0,0
145222,-54.054054054054,4,1,1,50,0,0
146417,-58.8235294117647,4,1,1,50,0,0
146815,-66.6666666666667,4,1,1,50,0,0
151596,-76.9230769230769,4,1,1,50,0,0
152393,-55.5555555555556,4,1,1,50,0,0
153189,-66.6666666666667,4,1,1,50,0,0
157970,-55.5555555555556,4,1,1,50,0,0
159563,-66.6666666666667,4,1,1,50,0,0
171515,-50,4,1,1,50,0,0
172312,-50,4,1,1,50,0,0

[Colours]
Combo1 : 160,239,14
Combo2 : 179,0,0
Combo3 : 255,138,21
Combo4 : 171,134,240

[HitObjects]
221,291,6586,6,2,L|39:200,1,200
233,58,7183,2,2,B|386:57|386:57|412:57|436:72,1,200
460,88,7681,1,0,0:0:0:0:
494,79,7781,1,0,0:0:0:0:
261,347,8179,6,2,B|328:318|320:262|320:262|385:245|381:186,1,220.000006713867
114,176,8777,2,2,B|129:345|129:345|155:304,1,220.000006713867
175,262,9275,1,0,0:0:0:0:
182,305,9374,1,0,0:0:0:0:
356,246,9773,6,2,B|453:281|428:360|378:413|287:353,1,259.999988098145
464,37,10370,2,2,B|436:67|436:67|430:107|430:107|396:132|396:132|398:169|398:169|364:194|364:194|367:235|367:235|333:266,1,259.999988098145
327,299,10868,1,0,0:0:0:0:
299,350,10968,1,0,0:0:0:0:
34,247,11366,6,2,B|72:118|143:17|245:32,1,300.000011444092
367,101,11964,1,0,0:0:0:0:
293,360,12163,2,2,B|273:223|170:137|170:137|211:84|288:75|348:150|258:194|258:194|348:151|288:77|210:83|170:138,1,719.999978027345
105,197,13358,5,0,0:0:0:0:
92,211,13756,1,0,0:0:0:0:
79,225,14155,1,8,0:0:0:0:
413,167,14553,5,0,0:0:0:0:
427,153,14952,1,0,0:0:0:0:
429,133,15350,1,0,0:0:0:0:
413,120,15748,1,8,0:0:0:0:
85,60,16147,5,0,0:0:0:0:
103,68,16545,1,0,0:0:0:0:
87,80,16943,1,0,0:0:0:0:
91,60,17342,1,8,0:0:0:0:
110,160,17740,5,0,0:0:0:0:
135,235,17939,1,0,0:0:0:0:
205,305,18139,1,0,0:0:0:0:
333,324,18338,1,8,0:0:0:0:
488,256,18537,1,8,0:0:0:0:
305,221,18736,1,8,0:0:0:0:
494,129,18935,1,8,0:0:0:0:
259,72,19135,6,8,L|148:49,1,100
161,51,19433,1,0,0:0:0:0:
161,51,19533,1,4,0:0:0:0:
377,312,19931,5,0,0:0:0:0:
184,160,20130,2,2,B|224:217|224:217|235:231|248:240,1,100
295,151,20529,2,2,B|336:207|336:207|346:221|350:238,1,100
278,305,20927,1,8,0:0:0:0:
377,312,21126,1,8,0:0:0:0:
446,239,21326,2,0,P|443:208|438:179,1,50
398,153,21525,1,8,0:0:0:0:
285,87,21724,6,0,L|224:67,1,50
263,132,21923,1,8,0:0:0:0:
301,163,22023,2,2,P|245:165|202:245,1,150
222,370,22521,6,0,L|163:354,1,50
108,363,22720,1,8,0:0:0:0:
136,304,22820,2,0,L|118:256,1,50
263,218,23118,1,8,0:0:0:0:
259,67,23318,6,0,L|299:13,1,50
314,70,23517,1,8,0:0:0:0:
356,95,23616,2,0,B|389:121|401:174,2,75,2|2|2,0:0|0:0|0:0,0:0:0:0:
258,262,24114,5,8,0:0:0:0:
108,254,24313,1,8,0:0:0:0:
221,353,24513,1,8,0:0:0:0:
180,208,24712,1,8,0:0:0:0:
138,352,24911,1,0,0:0:0:0:
258,262,25110,1,0,0:0:0:0:
301,236,25210,1,0,0:0:0:0:
341,207,25309,2,2,B|398:168|398:168|362:147,1,100
334,86,25608,5,8,0:0:0:0:
340,91,25708,1,0,0:0:0:0:
340,91,25807,1,0,0:0:0:0:
105,47,26007,2,0,P|73:75|27:62,2,75.0000028610231
99,196,26405,1,8,0:0:0:0:
99,246,26505,1,8,0:0:0:0:
127,286,26604,1,8,0:0:0:0:
354,132,26803,2,2,B|323:57|269:46|224:97|183:128|114:95|104:42,1,300.000011444092
67,80,27301,5,0,0:0:0:0:
84,178,27501,1,0,0:0:0:0:
134,264,27700,2,0,L|166:305,1,50
182,314,27899,1,8,0:0:0:0:
186,326,27998,1,8,0:0:0:0:
172,332,28098,1,8,0:0:0:0:
364,247,28297,1,0,0:0:0:0:
383,200,28397,2,2,B|407:150|442:92|362:53|299:76|369:129,1,194.999991073609
352,114,28795,5,0,0:0:0:0:
335,121,28895,1,8,0:0:0:0:
196,179,29094,1,8,0:0:0:0:
57,235,29293,1,8,0:0:0:0:
150,117,29492,1,8,0:0:0:0:
257,263,29692,2,0,L|298:321,1,50,0|0,0:0|0:0,2:0:0:0:
315,344,29891,1,8,0:0:0:0:
332,297,29990,2,2,B|399:241|399:241|371:249|371:249|406:205,1,150
292,110,30488,5,8,0:0:0:0:
393,222,30688,1,8,0:0:0:0:
245,246,30887,1,8,0:0:0:0:
354,143,31086,1,8,0:0:0:0:
278,20,31285,2,2,L|267:133,1,100
261,184,31584,1,8,0:0:0:0:
268,119,31684,2,2,L|277:19,1,100
139,254,32082,6,4,L|118:326,1,75
135,335,33675,5,8,0:0:0:0:
165,333,33775,1,0,0:0:0:0:
204,326,33875,1,8,0:0:0:0:
252,313,33974,1,0,0:0:0:0:
315,296,34074,1,8,0:0:0:0:
391,273,34173,1,0,0:0:0:0:
489,251,34273,6,8,L|488:311,4,50
474,177,34771,5,0,0:0:0:0:
429,116,34871,1,8,0:0:0:0:
359,84,34970,1,0,0:0:0:0:
283,89,35070,1,8,0:0:0:0:
228,139,35169,1,0,0:0:0:0:
200,209,35269,6,4,L|200:279,1,70,12|12,0:0|0:0,0:0:0:0:
95,279,36862,6,0,L|95:192,1,67.5000002574921
81,249,37062,6,0,L|96:164,1,67.5000002574921
74,217,37261,6,0,L|103:137,1,67.5000002574921
109,82,37460,6,8,L|187:46,1,67.5000002574921
109,82,37659,6,8,L|193:67,1,67.5000002574921
109,82,37858,6,8,L|194:90,1,67.5000002574921
332,105,38058,6,8,L|246:97,1,67.5000002574921
332,105,38257,6,8,L|246:97,1,67.5000002574921
332,105,38456,6,2,L|102:82,1,202.500000772476
63,80,38854,2,2,P|85:147|141:213,1,150
159,279,39253,2,2,B|218:254|233:153|233:153|255:206|255:206|272:160|272:160|275:86|300:74|379:90|376:142|335:174,1,449.99998626709
310,250,39850,6,2,B|283:318|448:364|460:180,1,269.999991760254
473,93,40249,2,2,B|404:105|399:85|386:31|356:31|290:43,1,179.999994506836
144,105,40647,5,0,0:0:0:0:
125,283,40846,2,2,B|125:373|180:384|195:382|225:309|245:303|287:371|312:368|342:301,1,269.999991760254
378,250,41245,5,8,0:0:0:0:
369,100,41444,1,0,0:0:0:0:
244,183,41643,1,8,0:0:0:0:
393,192,41842,5,0,0:0:0:0:
311,67,42041,1,8,0:0:0:0:
244,201,42240,1,0,0:0:0:0:
380,138,42440,5,8,0:0:0:0:
246,71,42639,1,0,0:0:0:0:
255,221,42838,1,8,0:0:0:0:
338,96,43037,5,10,0:0:0:0:
130,127,43236,1,10,0:0:0:0:
280,272,43435,1,10,0:0:0:0:
283,61,43635,1,10,0:0:0:0:
120,193,43834,1,10,0:0:0:0:
301,297,44033,2,2,B|280:145|280:145|274:102|339:87|350:148|325:159,1,269.999991760254
364,209,44432,5,8,0:0:0:0:
403,259,44531,1,8,0:0:0:0:
435,299,44631,1,8,0:0:0:0:
454,325,44730,1,8,0:0:0:0:
463,336,44830,6,2,B|397:373|297:373|240:342,1,224.999993133545
123,182,45228,2,2,P|159:85|275:40,1,225.000008583069
465,80,45627,2,2,P|470:187|383:271,1,225.000008583069
269,323,46025,1,8,0:0:0:0:
448,340,46224,6,2,B|483:263|476:151,1,179.999994506836
239,33,46623,2,2,B|186:59|196:123|240:136|287:114|310:117|328:136|337:187,1,224.999993133545
364,301,47021,1,8,0:0:0:0:
119,352,47220,2,2,P|20:288|112:224,1,269.999991760254
178,282,47619,1,4,0:0:0:0:
178,282,48017,5,8,0:0:0:0:
255,154,48216,1,0,0:0:0:0:
395,99,48415,1,8,0:0:0:0:
274,189,48615,1,0,0:0:0:0:
145,266,48814,1,8,0:0:0:0:
286,216,49013,1,0,0:0:0:0:
370,92,49212,1,8,0:0:0:0:
459,205,49411,1,0,0:0:0:0:
370,92,49611,6,2,P|347:50|342:5,3,89.9999972534181
355,139,50009,1,8,0:0:0:0:
327,192,50109,1,8,0:0:0:0:
286,234,50208,1,8,0:0:0:0:
234,263,50308,1,8,0:0:0:0:
176,274,50407,2,0,B|96:130|96:130|163:88|214:107|196:161|142:190,2,314.999990386963
202,318,51204,5,8,0:0:0:0:
254,318,51304,1,8,0:0:0:0:
305,322,51403,1,8,0:0:0:0:
357,325,51503,1,8,0:0:0:0:
409,328,51603,2,2,L|408:211,2,97.4999955368044
487,334,52001,5,8,0:0:0:0:
485,282,52100,1,8,0:0:0:0:
484,229,52200,1,8,0:0:0:0:
485,176,52300,1,8,0:0:0:0:
485,124,52399,2,2,L|483:14,2,97.4999955368044
405,125,52798,5,8,0:0:0:0:
354,136,52897,1,8,0:0:0:0:
304,153,52997,1,8,0:0:0:0:
257,174,53096,1,8,0:0:0:0:
212,201,53196,1,8,0:0:0:0:
173,236,53296,2,2,B|57:322|58:363|118:373|209:368|178:335|140:326,1,259.999988098145
218,311,53794,2,2,P|336:270|470:316,1,259.999988098145
443,197,54391,5,8,0:0:0:0:
375,136,54590,1,0,0:0:0:0:
264,176,54790,1,8,0:0:0:0:
138,83,54989,1,0,0:0:0:0:
63,331,55188,5,8,0:0:0:0:
149,273,55387,1,0,0:0:0:0:
279,348,55586,1,8,0:0:0:0:
469,258,55785,1,0,0:0:0:0:
380,90,55985,6,2,P|312:78|227:81,1,150.000005722046
188,91,56283,1,8,0:0:0:0:
148,112,56383,1,8,0:0:0:0:
113,141,56483,1,8,0:0:0:0:
93,181,56582,1,8,0:0:0:0:
85,225,56682,1,8,0:0:0:0:
87,269,56781,2,2,L|314:248,1,225.000008583069
226,258,57180,2,2,B|230:301|230:301|233:339|279:366|316:331|313:291|313:291|309:245,1,225.000008583069
387,238,57578,5,8,0:0:0:0:
354,197,57678,1,8,0:0:0:0:
319,158,57777,1,8,0:0:0:0:
285,118,57877,1,8,0:0:0:0:
250,79,57977,2,2,B|186:67|186:67|146:10,2,129.999994049073
327,86,58475,5,8,0:0:0:0:
377,94,58574,1,8,0:0:0:0:
428,103,58674,1,8,0:0:0:0:
478,112,58773,2,2,B|490:49|490:49|424:19,2,129.999994049073
460,188,59271,5,8,0:0:0:0:
447,238,59371,1,8,0:0:0:0:
435,288,59471,1,8,0:0:0:0:
384,275,59570,1,8,0:0:0:0:
333,260,59670,1,8,0:0:0:0:
283,246,59769,2,2,B|248:340|248:340|236:372|188:358|176:328|214:305|226:340,1,194.999991073609
189,253,60168,6,2,P|173:185|100:196,2,129.999994049073
423,98,60765,5,8,0:0:0:0:
295,208,60964,1,0,0:0:0:0:
423,98,61164,1,8,0:0:0:0:
278,123,61363,1,0,0:0:0:0:
423,98,61562,5,8,0:0:0:0:
264,41,61761,1,0,0:0:0:0:
423,98,61960,1,8,0:0:0:0:
278,123,62160,1,0,0:0:0:0:
429,22,62359,5,8,0:0:0:0:
406,215,62558,1,8,0:0:0:0:
272,39,62757,1,8,0:0:0:0:
492,149,62956,1,8,0:0:0:0:
212,258,63156,2,0,B|60:322|60:322|25:251|49:202|101:226|124:283,2,314.999990386963
267,321,63952,6,8,P|326:285|376:243,1,129.999994049073
437,252,64251,1,0,0:0:0:0:
501,262,64351,2,8,P|456:202|379:169,1,129.999994049073
347,155,64649,1,0,0:0:0:0:
397,114,64749,2,8,P|332:83|285:140,1,129.999994049073,8|8,0:0|0:0,2:0:0:0:
347,155,65048,1,0,0:0:0:0:
408,175,65147,2,10,B|392:230|296:264|244:164,1,194.999991073609,8|8,0:0|0:0,0:0:0:0:
151,84,65546,5,8,0:0:0:0:
171,251,65745,1,0,0:0:0:0:
329,309,65944,1,8,0:0:0:0:
467,212,66143,1,0,0:0:0:0:
360,80,66343,2,8,L|294:67,1,64.9999970245363
314,130,66542,1,0,0:0:0:0:
370,161,66641,2,10,B|294:199|294:199|250:151|177:160,1,194.999991073609
478,254,67139,6,8,P|466:181|446:125,1,129.999994049073
387,153,67438,1,0,0:0:0:0:
337,110,67538,2,8,P|271:127|203:107,1,129.999994049073
155,80,67836,1,0,0:0:0:0:
136,134,67936,2,8,B|151:237|151:237|177:231,1,129.999994049073
259,217,68235,1,8,0:0:0:0:
259,217,68334,2,2,B|210:249|220:296|258:324|308:305|325:261|305:248|285:232,1,194.999991073609
259,217,68733,6,0,L|296:154,1,64.9999970245363
338,69,68932,1,8,0:0:0:0:
338,69,69032,2,0,L|272:68,1,64.9999970245363
168,68,69231,1,8,0:0:0:0:
168,68,69330,2,0,L|168:152,1,64.9999970245363
109,163,69530,2,8,L|85:243,1,64.9999970245363
97,290,69729,2,10,P|40:262|22:201,2,129.999994049073
165,299,70227,5,8,0:0:0:0:
165,299,70326,2,0,L|178:216,2,64.9999970245363
245,271,70625,2,2,P|247:201|198:157,1,129.999994049073
262,127,70924,2,8,L|216:79,1,64.9999970245363
281,72,71123,2,0,L|247:0,2,64.9999970245363
361,221,71522,2,2,P|380:153|359:71,1,129.999994049073
260,26,71920,5,8,0:0:0:0:
147,90,72119,1,8,0:0:0:0:
77,199,72318,2,2,P|86:261|137:327,1,129.999994049073
77,199,72717,5,8,0:0:0:0:
73,325,72916,1,8,0:0:0:0:
147,90,73015,2,2,P|191:48|333:56,1,194.999991073609
293,107,73414,5,8,0:0:0:0:
301,40,73513,2,0,P|356:65|396:148,1,129.999994049073
378,251,73912,1,8,0:0:0:0:
248,256,74111,1,0,0:0:0:0:
118,261,74310,6,0,L|142:197,1,64.9999970245363
77,201,74509,1,8,0:0:0:0:
34,250,74609,2,2,P|17:174|115:146,1,194.999991073609
321,55,75107,5,8,0:0:0:0:
126,62,75306,1,0,0:0:0:0:
311,120,75505,1,8,0:0:0:0:
162,246,75704,1,0,0:0:0:0:
350,191,75904,1,8,0:0:0:0:
165,129,76103,6,2,P|228:158|244:225,2,129.999994049073
238,350,76700,6,4,L|242:276,1,75,0|0,0:0|0:0,0:0:0:0:
242,275,78294,5,8,0:0:0:0:
242,275,78394,1,0,0:0:0:0:
293,264,78493,5,8,0:0:0:0:
293,264,78593,1,0,0:0:0:0:
313,210,78692,5,8,0:0:0:0:
313,210,78792,1,0,0:0:0:0:
283,151,78892,5,8,0:0:0:0:
283,151,78992,1,8,0:0:0:0:
364,168,79091,5,8,0:0:0:0:
364,168,79191,1,0,0:0:0:0:
456,162,79290,5,8,0:0:0:0:
456,162,79390,1,0,0:0:0:0:
447,264,79489,5,8,0:0:0:0:
447,264,79589,1,0,0:0:0:0:
351,314,79688,5,8,0:0:0:0:
351,314,79788,1,0,0:0:0:0:
310,201,79887,6,10,P|225:208|164:261,1,150
129,306,80286,1,8,0:0:0:0:
129,306,80684,5,0,0:0:0:0:
61,118,80883,1,8,0:0:0:0:
245,198,81083,2,2,B|189:299|189:299|170:335|227:357|248:317|194:294,1,225.000008583069
132,256,81481,6,0,L|72:219,1,50
149,228,81680,6,0,L|89:191,1,50
166,202,81879,6,0,L|106:165,1,50
183,178,82079,6,8,L|125:116,1,75.0000028610231
202,153,82278,6,8,L|155:81,1,75.0000028610231
223,128,82477,6,8,L|189:49,1,75.0000028610231
223,128,82676,6,8,L|189:49,1,75.0000028610231
223,128,82875,6,8,L|189:49,1,75.0000028610231
223,128,83075,6,2,P|281:211|380:241,1,194.999991073609,6|6,0:0|0:0,0:0:0:0:
415,247,83473,2,2,P|415:143|438:90,1,150
487,79,83871,2,2,B|463:41|373:38|373:38|336:38|257:55,1,225.000008583069
200,69,84270,1,8,0:0:0:0:
487,79,84469,6,2,B|435:23|329:44,1,150.000005722046
130,95,84867,1,0,0:0:0:0:
338,178,85066,1,8,0:0:0:0:
169,27,85266,1,0,0:0:0:0:
240,240,85465,6,2,B|288:348|468:353,1,262.500010013581
461,352,85863,5,8,0:0:0:0:
345,159,86062,1,0,0:0:0:0:
121,127,86262,5,8,0:0:0:0:
353,139,86461,1,0,0:0:0:0:
461,352,86660,5,8,0:0:0:0:
364,118,86859,1,0,0:0:0:0:
121,127,87058,5,8,0:0:0:0:
375,98,87258,1,0,0:0:0:0:
461,352,87457,5,8,0:0:0:0:
386,78,87656,1,0,0:0:0:0:
121,127,87855,6,8,L|66:182,1,75.0000028610231
140,200,88054,2,8,L|140:277,1,75.0000028610231
207,242,88253,1,8,0:0:0:0:
233,268,88353,1,8,0:0:0:0:
258,295,88453,1,8,0:0:0:0:
283,321,88552,1,8,0:0:0:0:
327,312,88652,6,2,B|244:172|244:172|298:134|332:156|335:196|270:224,2,314.999990386963
399,332,89449,6,2,P|413:249|368:113,1,225.000008583069
326,64,89847,2,2,B|275:37|217:50|207:68|221:115,1,150
236,156,90245,2,2,B|303:308|303:308|211:247,1,269.999991760254
179,168,90644,1,8,0:0:0:0:
326,64,90843,6,2,P|257:45|144:69,1,179.999994506836
152,245,91241,6,2,B|203:321|238:346|301:341,1,179.999994506836
421,214,91640,1,8,0:0:0:0:
326,64,91839,6,2,B|237:22|126:39|88:161,1,269.999991760254
97,136,92237,1,4,0:0:0:0:
326,64,92636,5,8,0:0:0:0:
382,221,92835,1,0,0:0:0:0:
222,274,93034,1,8,0:0:0:0:
164,114,93233,1,0,0:0:0:0:
308,200,93433,5,8,0:0:0:0:
302,367,93631,1,0,0:0:0:0:
133,356,93831,1,8,0:0:0:0:
139,185,94029,1,0,0:0:0:0:
267,295,94229,5,8,0:0:0:0:
311,285,94328,1,8,0:0:0:0:
356,276,94428,1,8,0:0:0:0:
400,266,94527,1,8,0:0:0:0:
445,257,94627,1,8,0:0:0:0:
463,252,94726,1,8,0:0:0:0:
445,243,94827,1,8,0:0:0:0:
435,259,94926,1,8,0:0:0:0:
448,273,95026,6,2,B|377:139|377:139|424:144|424:144|371:165,1,225.000008583069
425,224,95424,2,2,B|504:164|459:54|345:89,1,225.000008583069
288,89,95823,5,8,0:0:0:0:
271,138,95922,1,8,0:0:0:0:
254,187,96022,1,8,0:0:0:0:
237,236,96121,1,8,0:0:0:0:
219,285,96221,2,2,P|170:285|112:302,2,97.4999955368044
269,296,96619,5,8,0:0:0:0:
318,312,96719,1,8,0:0:0:0:
366,331,96819,1,8,0:0:0:0:
417,324,96918,1,8,0:0:0:0:
449,282,97018,2,2,L|469:217,1,64.9999970245363
417,232,97217,2,2,L|411:164,1,64.9999970245363
368,197,97416,5,8,0:0:0:0:
319,178,97515,1,8,0:0:0:0:
267,176,97615,1,8,0:0:0:0:
216,183,97715,1,8,0:0:0:0:
168,205,97815,2,2,L|143:275,1,64.9999970245363,0|0,0:0|0:0,0:0:0:0:
87,251,98014,2,2,B|56:89|56:89|132:69|175:103|141:149|78:154,2,337.500012874604
102,324,99010,5,8,0:0:0:0:
292,285,99209,1,0,0:0:0:0:
219,339,99408,1,8,0:0:0:0:
416,170,99607,1,0,0:0:0:0:
219,339,99806,5,8,0:0:0:0:
307,360,100006,1,0,0:0:0:0:
124,123,100205,1,8,0:0:0:0:
214,117,100404,1,0,0:0:0:0:
468,167,100603,6,8,L|422:119,1,64.9999970245363
421,185,100802,6,8,L|363:151,1,64.9999970245363
369,204,101002,1,8,0:0:0:0:
320,221,101101,1,8,0:0:0:0:
278,252,101201,1,8,0:0:0:0:
252,296,101300,1,8,0:0:0:0:
248,348,101400,6,2,B|203:314|137:236|118:214|168:176|205:217|154:258,1,225.000008583069
90,243,101798,2,0,B|51:205|21:241|-11:281|26:314|71:351|104:313|133:279|90:242,1,225.000008583069
108,171,102197,5,8,0:0:0:0:
109,118,102296,1,8,0:0:0:0:
109,66,102396,1,8,0:0:0:0:
161,66,102495,1,8,0:0:0:0:
213,65,102595,2,2,L|324:64,2,97.4999955368044
210,163,102994,5,8,0:0:0:0:
261,163,103093,1,8,0:0:0:0:
313,163,103193,1,8,0:0:0:0:
365,164,103292,1,8,0:0:0:0:
417,161,103392,2,2,B|416:98|416:98|389:68,2,97.4999955368044
476,238,103790,5,8,0:0:0:0:
476,290,103889,1,8,0:0:0:0:
476,342,103989,1,8,0:0:0:0:
425,331,104088,1,8,0:0:0:0:
374,320,104189,2,8,L|305:305,1,64.9999970245363
305,358,104388,2,2,P|201:310|70:303,1,225.000008583069
167,306,104786,2,2,B|198:237|212:175|153:149|82:161|81:233|94:307,1,300.000011444092
254,185,105384,6,8,L|302:128,1,64.9999970245363
310,198,105583,2,8,L|376:164,1,64.9999970245363
370,233,105782,1,8,0:0:0:0:
479,72,105981,1,8,0:0:0:0:
295,135,106181,6,8,L|222:159,1,64.9999970245363
256,94,106380,2,8,L|179:90,1,64.9999970245363
234,42,106579,1,8,0:0:0:0:
109,191,106778,1,8,0:0:0:0:
295,135,106977,5,8,0:0:0:0:
331,172,107077,1,8,0:0:0:0:
313,221,107177,1,8,0:0:0:0:
359,244,107276,1,8,0:0:0:0:
342,293,107376,2,10,L|256:320,1,64.9999970245363
342,293,107575,2,10,L|253:280,1,64.9999970245363
342,293,107774,6,2,B|336:148|228:48,1,269.999991760254
293,121,108172,2,2,B|335:51|335:51|233:54,1,179.999994506836
183,100,108471,1,0,0:0:0:0:
172,169,108571,2,2,P|101:181|17:163,1,150
23,116,108969,6,0,L|25:176,1,50
32,219,109168,1,0,0:0:0:0:
32,219,109368,2,2,P|47:271|129:338,1,150
140,251,109766,1,0,0:0:0:0:
155,51,109965,2,2,P|103:77|61:143,2,125
166,100,110563,2,0,B|248:136|295:138|329:106,1,150
342,80,110961,6,2,B|369:154|369:154|403:142|403:142|391:233,1,200
342,313,111559,1,0,0:0:0:0:
246,341,111758,2,2,P|161:334|98:280,1,150
200,252,112156,2,0,L|220:195,1,50
251,110,112355,2,0,L|234:157,1,50
199,43,112555,6,2,P|273:45|334:87,1,150
244,130,112953,2,0,L|227:177,1,50
194,272,113152,2,2,B|211:225|211:225|241:256|261:264|308:242,1,150
345,223,113551,1,0,0:0:0:0:
345,223,113949,5,0,0:0:0:0:
164,253,114148,2,2,P|254:273|351:212,1,200
245,152,114746,1,0,0:0:0:0:
142,90,114945,2,2,P|226:40|322:59,1,200
245,152,115542,1,0,0:0:0:0:
164,253,115742,2,0,P|254:273|320:239,1,150
344,222,116140,2,2,B|292:275|246:285|206:279|163:253|163:253|114:220|99:156|158:130|206:161|198:212|113:218|96:155|156:128|206:162|198:211|113:219|97:157|156:133|208:160|198:210|113:220|97:156|156:130|206:160|198:209|115:220|160:181,1,375
330,74,117136,6,0,P|388:62|439:134,2,150
187,215,117933,5,0,0:0:0:0:
33,343,118132,2,2,B|35:257|54:218|99:208,1,150
187,215,118530,2,0,L|232:235,1,50
280,294,118730,2,0,L|327:280,1,50
396,311,118929,2,2,P|422:261|432:168,1,150
387,80,119327,2,2,B|278:66|276:113|261:151|225:186|225:186|181:226|116:225|100:162|145:123|194:142|179:226|114:227|102:163|145:124|193:142|180:226|116:227|101:161|145:124|192:142|181:227|115:227|104:163|145:122|191:141|182:225|155:171,1,400
101,261,120323,6,0,B|67:328|67:328|62:336|76:341|81:330|65:324|57:338|77:343|77:343|154:366,2,175
144,172,121120,5,0,0:0:0:0:
144,172,121319,2,2,B|170:123|215:127|227:119|260:73,1,150
295,24,121717,2,0,L|356:26,1,50
414,30,121917,1,0,0:0:0:0:
414,30,122116,2,2,B|414:65|414:65|424:86|424:86|409:102|409:102|417:124|417:124|418:175,1,150
417,170,122514,1,0,0:0:0:0:
177,104,122713,6,2,B|134:88|85:105|89:198,1,150
105,253,123112,2,0,L|67:294,1,50
105,253,123311,2,0,B|169:184|169:184|193:163|226:167,1,150
295,232,123709,2,2,B|306:130|306:130|344:116|350:67|309:55,1,200
183,131,124307,5,0,0:0:0:0:
295,232,124506,2,2,P|282:295|220:263,1,150
183,131,124904,1,0,0:0:0:0:
306,45,125104,2,0,L|360:40,1,50
412,90,125303,2,2,P|347:118|341:194,1,150
183,131,125701,1,0,0:0:0:0:
42,77,125900,6,2,L|195:135,1,150
219,55,126299,2,0,P|263:95|259:182,1,150
183,131,126697,2,0,L|118:105,1,50
149,209,126896,2,2,P|269:160|236:67,1,250
136,112,127494,6,0,L|183:131,1,50
219,55,127693,2,2,P|263:95|259:182,1,150
183,131,128091,2,0,L|136:112,1,50
65,84,128291,2,0,L|111:102,1,50
149,209,128490,2,2,P|215:216|271:140,1,150
238,68,128888,2,2,B|292:112|280:177|245:210|200:220|200:220|146:222|105:195|111:160|159:141|176:179|144:200|144:200|113:179|155:158,1,400
238,68,129884,2,0,P|331:77|389:22,2,175
276,162,130681,6,2,L|303:221,1,50
341,297,130880,1,0,0:0:0:0:
341,297,131278,2,0,L|309:236,1,50
276,162,131478,2,0,L|303:221,1,50
328,275,131677,2,2,B|314:243|314:243|309:220|309:220|293:209|293:209|289:192|289:192|276:162,1,125
154,32,132075,6,2,B|102:68|102:68|53:75|53:75|22:177,2,200
369,141,133071,5,0,0:0:0:0:
277,165,133270,2,0,P|326:166|368:140,1,100
369,141,133669,1,0,0:0:0:0:
74,85,134067,6,2,L|108:115,1,44.999998626709
273,221,134466,6,2,L|254:157,1,60
435,88,134864,6,2,P|415:140|393:189,1,100
55,225,135461,6,0,B|81:211|96:209|126:222|140:221|172:205,1,120
210,270,135860,2,0,P|174:211|161:133,1,134.999995880127
163,133,136258,1,0,0:0:0:0:
46,78,136457,2,2,B|86:72|93:76|126:118|132:121|178:123,1,134.999995880127
236,117,136856,5,8,0:0:0:0:
370,114,137055,1,0,0:0:0:0:
376,248,137254,1,8,0:0:0:0:
256,186,137453,1,0,0:0:0:0:
370,114,137653,5,8,0:0:0:0:
458,215,137852,1,0,0:0:0:0:
356,303,138051,1,8,0:0:0:0:
330,170,138250,1,0,0:0:0:0:
458,215,138449,1,8,0:0:0:0:
464,350,138649,1,0,0:0:0:0:
329,350,138848,6,8,L|354:306,1,44.999998626709
397,233,139047,2,8,L|421:278,1,44.999998626709
464,350,139246,2,8,L|435:299,1,44.999998626709
397,233,139445,2,8,L|370:284,1,44.999998626709
328,349,139644,6,2,B|309:282|255:223|255:223|250:228|250:228|276:207|276:207|289:198|315:209|320:234|291:263,2,262.500010013581
463,349,140441,6,2,B|465:273|465:273|456:184,1,150
438,102,140840,2,2,P|359:128|258:88,1,194.999991073609
271,200,141238,2,2,P|186:131|27:201,1,300.000011444092
438,126,141836,6,2,B|390:103|390:103|273:139|245:15,1,225.000008583069
139,42,142234,2,2,P|206:107|247:161,1,150.000005722046
35,243,142632,1,0,0:0:0:0:
139,42,142832,2,2,B|224:70|257:86|297:55|325:25|358:17|395:31|404:102,1,300.000011444092
382,338,143628,5,8,0:0:0:0:
172,256,143827,1,0,0:0:0:0:
161,345,144027,1,8,0:0:0:0:
367,257,144226,1,0,0:0:0:0:
384,168,144425,1,8,0:0:0:0:
172,256,144624,1,0,0:0:0:0:
189,167,144823,1,8,0:0:0:0:
398,79,145023,1,0,0:0:0:0:
384,168,145222,6,8,B|318:170|318:170|259:177|259:177|194:166,1,184.999999294281
384,168,145620,6,8,B|318:166|318:166|259:159|259:159|194:170,1,184.999999294281
384,168,146019,6,10,B|318:170|318:170|259:177|259:177|196:167|196:167|134:176|134:176|96:171,1,277.499998941422
222,169,146417,2,2,B|223:104|208:65|161:49|116:70|101:110|110:182,1,255.000004863739
108,172,146815,6,2,B|108:226|121:273|183:325,1,150.000005722046
310,340,147214,2,2,B|283:283|268:243|304:183,1,150.000005722046
388,78,147612,2,2,B|410:122|410:122|426:136|426:136|413:148|413:148|426:156|426:156|442:218,1,150.000005722046
385,341,148010,1,8,0:0:0:0:
160,365,148210,6,2,B|96:364|53:338|43:301|74:266,1,150.000005722046
136,73,148608,2,0,B|166:100|177:110|180:149|184:158|231:194,1,150.000005722046
433,276,149006,1,8,0:0:0:0:
472,54,149206,2,2,P|393:89|252:80,1,225.000008583069
183,62,149604,5,8,0:0:0:0:
74,258,149803,1,0,0:0:0:0:
102,35,150002,1,8,0:0:0:0:
166,251,150202,1,0,0:0:0:0:
379,181,150401,5,8,0:0:0:0:
213,332,150600,1,0,0:0:0:0:
322,135,150799,1,8,0:0:0:0:
308,359,150998,1,0,0:0:0:0:
120,234,151197,5,8,0:0:0:0:
322,135,151397,1,0,0:0:0:0:
120,234,151596,2,8,L|91:163,1,64.9999970245363
193,171,151795,2,8,L|189:86,1,64.9999970245363
275,153,151994,2,8,L|324:84,2,64.9999970245363
356,204,152293,1,8,0:0:0:0:
356,204,152393,2,2,B|316:290|241:350|241:350|187:297|233:252|283:303,2,314.999990386963
356,204,153189,6,2,B|266:183|249:183|208:208|198:211|129:191,1,225.000008583069
125,268,153588,2,2,P|56:210|135:115,1,225.000008583069
71,58,153986,2,2,B|121:35|147:38|210:72|240:93|296:85,1,225.000008583069
363,82,154385,1,8,0:0:0:0:
274,288,154584,6,2,B|224:331|168:350|136:334|121:317,1,150.000005722046
43,213,154982,2,2,B|15:151|52:104|136:116,1,150.000005722046
231,203,155380,1,8,0:0:0:0:
119,304,155580,2,2,P|119:188|233:135,1,225.000008583069
277,121,155978,1,8,0:0:0:0:
206,237,156376,5,8,0:0:0:0:
277,121,156576,1,0,0:0:0:0:
340,246,156775,1,8,0:0:0:0:
145,235,156974,1,0,0:0:0:0:
276,91,157173,1,8,0:0:0:0:
357,267,157372,1,0,0:0:0:0:
88,229,157572,1,8,0:0:0:0:
280,40,157771,1,0,0:0:0:0:
364,286,157970,5,8,0:0:0:0:
373,279,158070,1,8,0:0:0:0:
372,292,158169,1,8,0:0:0:0:
356,289,158269,1,8,0:0:0:0:
373,279,158368,1,8,0:0:0:0:
371,300,158468,1,8,0:0:0:0:
356,289,158568,1,8,0:0:0:0:
379,291,158667,1,8,0:0:0:0:
379,291,158767,6,2,B|310:199|292:167|294:127|316:122|316:122|341:122|357:137|348:172|335:182,1,269.999991760254
341,173,159165,2,2,B|411:196|446:132|418:63|379:37|271:35,1,269.999991760254
161,45,159563,5,8,0:0:0:0:
129,95,159662,1,8,0:0:0:0:
101,148,159762,1,8,0:0:0:0:
77,203,159861,1,8,0:0:0:0:
60,262,159962,2,2,P|61:304|109:353,2,112.500004291535
120,261,160360,5,8,0:0:0:0:
164,300,160459,1,8,0:0:0:0:
220,321,160559,1,8,0:0:0:0:
278,308,160658,1,8,0:0:0:0:
326,272,160759,2,2,P|353:237|371:192,1,75.0000028610231
310,184,160958,2,2,P|327:139|321:90,1,75.0000028610231
280,53,161157,5,8,0:0:0:0:
255,108,161257,1,8,0:0:0:0:
199,129,161356,1,8,0:0:0:0:
171,182,161456,1,8,0:0:0:0:
114,200,161555,2,2,L|66:262,1,75.0000028610231
120,289,161755,6,2,B|54:141|54:141|90:97|90:97|106:113,1,225.000008583069
20,84,162153,2,0,B|96:101|136:80|185:75|196:113|202:161|91:198,1,300.000011444092
339,310,162751,2,8,P|378:291|401:266,1,75.0000028610231
342,218,162950,2,8,P|357:177|357:143,1,75.0000028610231
292,109,163149,1,8,0:0:0:0:
145,79,163348,1,8,0:0:0:0:
126,227,163547,6,8,P|144:264|167:290,1,75.0000028610231
213,374,163746,2,8,P|202:338|182:306,1,75.0000028610231
205,210,163946,1,8,0:0:0:0:
380,295,164145,1,8,0:0:0:0:
460,59,164344,5,8,0:0:0:0:
404,77,164443,1,8,0:0:0:0:
360,117,164543,1,8,0:0:0:0:
326,167,164642,1,8,0:0:0:0:
293,217,164742,1,8,0:0:0:0:
254,263,164841,1,8,0:0:0:0:
205,297,164941,1,8,0:0:0:0:
146,309,165041,1,8,0:0:0:0:
88,292,165141,6,2,B|35:178|28:65,1,225.000008583069
41,152,165539,2,2,B|111:146|140:139|131:95|116:46|96:53|14:78,1,225.000008583069
180,59,165938,5,8,0:0:0:0:
239,56,166037,1,8,0:0:0:0:
299,57,166137,1,8,0:0:0:0:
358,70,166236,1,8,0:0:0:0:
406,105,166336,2,2,P|431:163|414:223,2,112.500004291535
271,130,166734,5,8,0:0:0:0:
264,193,166833,1,8,0:0:0:0:
245,254,166933,1,8,0:0:0:0:
205,303,167032,1,8,0:0:0:0:
148,331,167133,2,2,B|105:353|105:353|41:358,2,112.500004291535
55,232,167531,5,8,0:0:0:0:
128,220,167630,1,8,0:0:0:0:
202,212,167730,1,8,0:0:0:0:
276,202,167830,1,8,0:0:0:0:
350,193,167929,2,8,L|442:229,1,75.0000028610231
386,207,168129,6,6,B|382:131|339:54|339:54|333:58|333:58|366:43|366:43|381:36|406:54|405:82|365:107,2,300.000011444092
329,347,169125,5,8,0:0:0:0:
294,290,169224,1,8,0:0:0:0:
289,223,169324,1,8,0:0:0:0:
287,154,169423,1,8,0:0:0:0:
268,89,169523,2,6,P|236:50|187:40,1,75.0000028610231
206,108,169722,2,6,P|156:103|114:130,1,75.0000028610231
185,187,169921,5,8,0:0:0:0:
138,245,170020,1,8,0:0:0:0:
140,320,170120,1,8,0:0:0:0:
190,374,170219,1,8,0:0:0:0:
263,354,170320,2,6,P|298:342|323:315,1,75.0000028610231
359,249,170519,2,6,P|321:248|289:266,1,75.0000028610231
140,320,170718,6,4,P|108:294|87:263,1,75.0000028610231
93,168,170917,1,8,0:0:0:0:
179,122,171017,1,8,0:0:0:0:
270,152,171116,2,4,P|244:180|219:232,1,75.0000028610231
250,309,171316,1,8,0:0:0:0:
334,358,171415,1,8,0:0:0:0:
429,323,171515,6,6,B|408:180|301:91|301:91|343:35|423:26|486:104|392:150|392:150|486:105|423:28|342:34|301:92,1,750
308,78,172312,6,4,B|297:87|297:87|315:89|315:89|283:114,5,50
