osu file format v14

[General]
AudioFilename: audio.mp3
AudioLeadIn: 0
PreviewTime: 153853
Countdown: 0
SampleSet: Soft
StackLeniency: 0.7
Mode: 0
LetterboxInBreaks: 0
WidescreenStoryboard: 1

[Editor]
Bookmarks: 153968
DistanceSpacing: 1
BeatDivisor: 4
GridSize: 32
TimelineZoom: 2

[Metadata]
Title:Pretty Little Psycho
TitleUnicode:Pretty Little Psycho
Artist:Porcelain Black
ArtistUnicode:Porcelain Black
Creator:NeKroMan4ik
Version:Insane
Source:
Tags:english pop rock club electronic female vocals Mannequin Factory wanpachi cycopton reisevia roda totsuki
BeatmapID:3117410
BeatmapSetID:1523439

[Difficulty]
HPDrainRate:5
CircleSize:4.5
OverallDifficulty:7.8
ApproachRate:8
SliderMultiplier:1.4
SliderTickRate:1

[Events]
//Background and Video events
0,0,"asd.jpg",0,0
//Break Periods
2,7603,13820
2,154168,160546
//Storyboard Layer 0 (Background)
//Storyboard Layer 1 (Fail)
//Storyboard Layer 2 (Pass)
//Storyboard Layer 3 (Foreground)
//Storyboard Layer 4 (Overlay)
//Storyboard Sound Samples

[TimingPoints]
75,458.015267175573,4,2,1,45,1,0
75,-111.111111111111,4,2,1,45,0,0
5571,-80,4,2,1,45,0,0
5685,-80,4,2,1,5,0,0
5800,-80,4,2,1,45,0,0
5914,-80,4,2,1,5,0,0
6029,-80,4,2,1,45,0,0
6143,-80,4,2,1,5,0,0
6258,-80,4,2,1,45,0,0
6372,-80,4,2,1,5,0,0
6487,-333.333333333333,4,2,1,45,0,0
14731,-125,4,2,1,50,0,0
16563,-117.647058823529,4,2,1,55,0,0
18395,-111.111111111111,4,2,1,60,0,0
20227,-83.3333333333333,4,2,1,70,0,0
22059,-90.9090909090909,4,2,1,60,0,0
24807,-76.9230769230769,4,2,1,60,0,0
25265,-83.3333333333333,4,2,1,60,0,0
25723,-90.9090909090909,4,2,1,60,0,0
29387,-71.4285714285714,4,2,1,60,0,0
29845,-90.9090909090909,4,2,1,60,0,0
30304,-71.4285714285714,4,2,1,60,0,0
30762,-83.3333333333333,4,2,1,60,0,0
32136,-71.4285714285714,4,2,1,60,0,0
32594,-83.3333333333333,4,2,1,60,0,0
33052,-90.9090909090909,4,2,1,60,0,0
36258,-66.6666666666667,4,2,1,60,0,0
36601,-66.6666666666667,4,2,1,5,0,0
36716,-250,4,2,2,50,0,0
37174,-250,4,2,1,50,0,0
38548,-80,4,2,2,50,0,0
39464,-80,4,2,1,50,0,0
40380,-250,4,2,2,50,0,0
40838,-153.846153846153,4,2,2,50,0,0
41296,-86.9565217391301,4,2,1,50,0,0
43128,-86.9565217391301,4,2,2,50,0,0
43586,-86.9565217391301,4,2,2,60,0,0
44044,-86.9565217391304,4,2,1,70,0,1
49540,-62.5,4,2,1,75,0,1
49655,-62.5,4,2,1,5,0,1
49769,-62.5,4,2,1,75,0,1
49884,-62.5,4,2,1,5,0,1
49998,-62.5,4,2,1,75,0,1
50113,-62.5,4,2,1,5,0,1
50227,-62.5,4,2,1,75,0,1
50342,-62.5,4,2,1,5,0,1
50456,-86.9565217391304,4,2,1,70,0,1
51716,-86.9565217391304,4,2,1,5,0,1
51830,-86.9565217391304,4,2,1,70,0,1
56868,-55.5555555555556,4,2,1,80,0,0
56983,-55.5555555555556,4,2,1,5,0,0
57097,-55.5555555555556,4,2,1,80,0,0
57212,-55.5555555555556,4,2,1,5,0,0
57326,-55.5555555555556,4,2,1,80,0,0
57441,-55.5555555555556,4,2,1,5,0,0
57555,-55.5555555555556,4,2,1,80,0,0
57670,-55.5555555555556,4,2,1,5,0,0
57784,-55.5555555555556,4,2,1,80,0,0
57899,-55.5555555555556,4,2,1,5,0,0
58013,-55.5555555555556,4,2,1,80,0,0
58128,-55.5555555555556,4,2,1,5,0,0
58242,-45.4545454545455,4,2,1,80,0,0
58586,-45.4545454545455,4,2,1,5,0,0
58700,-86.9565217391304,4,2,1,70,0,1
60876,-86.9565217391304,4,2,1,5,0,1
60991,-86.9565217391304,4,2,1,70,0,1
64197,-62.5,4,2,1,75,0,1
64312,-62.5,4,2,1,5,0,1
64426,-62.5,4,2,1,75,0,1
64541,-62.5,4,2,1,5,0,1
64655,-62.5,4,2,1,75,0,1
64770,-62.5,4,2,1,5,0,1
64884,-62.5,4,2,1,75,0,1
64999,-62.5,4,2,1,5,0,1
65113,-86.9565217391304,4,2,1,70,0,1
68204,-86.9565217391304,4,2,1,5,0,1
68319,-86.9565217391304,4,2,1,70,0,1
71525,-55.5555555555556,4,2,1,80,0,0
71639,-55.5555555555556,4,2,1,5,0,0
71754,-55.5555555555556,4,2,1,80,0,0
71868,-55.5555555555556,4,2,1,5,0,0
71983,-55.5555555555556,4,2,1,80,0,0
72097,-55.5555555555556,4,2,1,5,0,0
72212,-55.5555555555556,4,2,1,80,0,0
72326,-55.5555555555556,4,2,1,5,0,0
72441,-50,4,2,1,80,0,0
72555,-50,4,2,1,5,0,0
72670,-50,4,2,1,80,0,0
72784,-50,4,2,1,5,0,0
72899,-43.4782608695652,4,2,1,80,0,0
73242,-43.4782608695652,4,2,1,5,0,0
73357,-90.9090909090909,4,2,1,60,0,0
76105,-76.9230769230769,4,2,1,60,0,0
76563,-83.3333333333333,4,2,1,60,0,0
77021,-90.9090909090909,4,2,1,60,0,0
80685,-71.4285714285714,4,2,1,60,0,0
81143,-90.9090909090909,4,2,1,60,0,0
81602,-71.4285714285714,4,2,1,60,0,0
82059,-83.3333333333333,4,2,1,60,0,0
83433,-71.4285714285714,4,2,1,60,0,0
83891,-83.3333333333333,4,2,1,60,0,0
84350,-90.9090909090909,4,2,1,60,0,0
87097,-62.5,4,2,1,65,0,0
87212,-62.5,4,2,1,5,0,0
87326,-62.5,4,2,1,65,0,0
87441,-62.5,4,2,1,5,0,0
87555,-62.5,4,2,1,65,0,0
87899,-62.5,4,2,1,5,0,0
88013,-200,4,2,2,50,0,0
88929,-200,4,2,1,50,0,0
89845,-76.9230769230769,4,2,2,50,0,0
90762,-76.9230769230769,4,2,1,50,0,0
91678,-200,4,2,2,50,0,0
92594,-200,4,2,1,50,0,0
94426,-86.9565217391301,4,2,2,50,0,0
94884,-86.9565217391301,4,2,2,60,0,0
95342,-86.9565217391304,4,2,1,70,0,1
100838,-62.5,4,2,1,75,0,1
100952,-62.5,4,2,1,5,0,1
101067,-62.5,4,2,1,75,0,1
101181,-62.5,4,2,1,5,0,1
101296,-62.5,4,2,1,75,0,1
101410,-62.5,4,2,1,5,0,1
101525,-62.5,4,2,1,75,0,1
101639,-62.5,4,2,1,5,0,1
101754,-86.9565217391304,4,2,1,70,0,1
103014,-86.9565217391304,4,2,1,5,0,1
103128,-86.9565217391304,4,2,1,70,0,1
108166,-55.5555555555556,4,2,1,80,0,0
108281,-55.5555555555556,4,2,1,5,0,0
108395,-55.5555555555556,4,2,1,80,0,0
108510,-55.5555555555556,4,2,1,5,0,0
108624,-55.5555555555556,4,2,1,80,0,0
108739,-55.5555555555556,4,2,1,5,0,0
108853,-55.5555555555556,4,2,1,80,0,0
108968,-55.5555555555556,4,2,1,5,0,0
109082,-55.5555555555556,4,2,1,80,0,0
109197,-55.5555555555556,4,2,1,5,0,0
109311,-55.5555555555556,4,2,1,80,0,0
109426,-55.5555555555556,4,2,1,5,0,0
109540,-45.4545454545455,4,2,1,80,0,0
109884,-45.4545454545455,4,2,1,5,0,0
109998,-86.9565217391304,4,2,1,70,0,1
112174,-86.9565217391304,4,2,1,5,0,1
112289,-86.9565217391304,4,2,1,70,0,1
115494,-62.5,4,2,1,75,0,1
115609,-62.5,4,2,1,5,0,1
115723,-62.5,4,2,1,75,0,1
115838,-62.5,4,2,1,5,0,1
115952,-62.5,4,2,1,75,0,1
116067,-62.5,4,2,1,5,0,1
116181,-62.5,4,2,1,75,0,1
116296,-62.5,4,2,1,5,0,1
116411,-86.9565217391304,4,2,1,70,0,1
119502,-86.9565217391304,4,2,1,5,0,1
119617,-86.9565217391304,4,2,1,70,0,1
122823,-55.5555555555556,4,2,1,70,0,0
122937,-55.5555555555556,4,2,1,5,0,0
123052,-55.5555555555556,4,2,1,70,0,0
123166,-55.5555555555556,4,2,1,5,0,0
123281,-55.5555555555556,4,2,1,70,0,0
123395,-55.5555555555556,4,2,1,5,0,0
123510,-55.5555555555556,4,2,1,70,0,0
123624,-55.5555555555556,4,2,1,5,0,0
123739,-50,4,2,1,70,0,0
123853,-50,4,2,1,5,0,0
123968,-50,4,2,1,70,0,0
124082,-50,4,2,1,5,0,0
124197,-43.4782608695652,4,2,1,70,0,0
124540,-43.4782608695652,4,2,1,5,0,0
124655,-100,4,2,2,65,0,0
138853,-71.4285714285714,4,2,2,65,0,0
139197,-71.4285714285714,4,2,2,5,0,0
139311,-100,4,2,2,65,0,0
142403,-100,4,2,2,5,0,0
142517,-100,4,2,2,65,0,0
151678,-90.9090909090909,4,2,2,65,0,0
152021,-90.9090909090909,4,2,2,5,0,0
152136,-100,4,2,2,65,0,0
153968,-100,4,2,1,50,0,0
168166,-250,4,2,1,60,0,0
168510,-250,4,2,1,5,0,0
168624,-86.9565217391304,4,2,1,70,0,1
174120,-62.5,4,2,1,75,0,1
174235,-62.5,4,2,1,5,0,1
174349,-62.5,4,2,1,75,0,1
174464,-62.5,4,2,1,5,0,1
174578,-62.5,4,2,1,75,0,1
174693,-62.5,4,2,1,5,0,1
174807,-62.5,4,2,1,75,0,1
174922,-62.5,4,2,1,5,0,1
175036,-86.9565217391304,4,2,1,70,0,1
176296,-86.9565217391304,4,2,1,5,0,1
176410,-86.9565217391304,4,2,1,70,0,1
181449,-55.5555555555556,4,2,1,80,0,0
181563,-55.5555555555556,4,2,1,5,0,0
181677,-55.5555555555556,4,2,1,80,0,0
181792,-55.5555555555556,4,2,1,5,0,0
181906,-55.5555555555556,4,2,1,80,0,0
182021,-55.5555555555556,4,2,1,5,0,0
182135,-55.5555555555556,4,2,1,80,0,0
182250,-55.5555555555556,4,2,1,5,0,0
182364,-55.5555555555556,4,2,1,80,0,0
182479,-55.5555555555556,4,2,1,5,0,0
182593,-55.5555555555556,4,2,1,80,0,0
182708,-55.5555555555556,4,2,1,5,0,0
182822,-45.4545454545455,4,2,1,80,0,0
183166,-45.4545454545455,4,2,1,5,0,0
183281,-86.9565217391304,4,2,1,70,0,1
185456,-86.9565217391304,4,2,1,5,0,1
185571,-86.9565217391304,4,2,1,70,0,1
188777,-62.5,4,2,1,75,0,1
188891,-62.5,4,2,1,5,0,1
189006,-62.5,4,2,1,75,0,1
189120,-62.5,4,2,1,5,0,1
189235,-62.5,4,2,1,75,0,1
189349,-62.5,4,2,1,5,0,1
189464,-62.5,4,2,1,75,0,1
189578,-62.5,4,2,1,5,0,1
189693,-86.9565217391304,4,2,1,70,0,1
192784,-86.9565217391304,4,2,1,5,0,1
192899,-86.9565217391304,4,2,1,70,0,1
196105,-55.5555555555556,4,2,1,70,0,0
196219,-55.5555555555556,4,2,1,5,0,0
196334,-55.5555555555556,4,2,1,70,0,0
196448,-55.5555555555556,4,2,1,5,0,0
196563,-55.5555555555556,4,2,1,70,0,0
196677,-55.5555555555556,4,2,1,5,0,0
196792,-55.5555555555556,4,2,1,70,0,0
196906,-55.5555555555556,4,2,1,5,0,0
197021,-50,4,2,1,70,0,0
197135,-50,4,2,1,5,0,0
197250,-50,4,2,1,70,0,0
197364,-50,4,2,1,5,0,0
197479,-43.4782608695652,4,2,1,80,0,0

[Colours]
Combo1 : 255,176,216
Combo2 : 210,236,240
Combo3 : 255,64,64
Combo4 : 109,164,224

[HitObjects]
35,177,75,6,0,P|70:169|118:167,1,62.9999980773926,6|0,0:0|0:0,0:0:0:0:
203,47,533,2,0,P|167:54|119:56,1,62.9999980773926,2|0,0:0|0:0,0:0:0:0:
292,136,991,2,0,P|345:132|375:65,1,125.999996154785,2|0,0:0|0:0,0:0:0:0:
204,149,1678,6,0,L|214:221,1,62.9999980773926,2|0,0:0|0:0,0:0:0:0:
338,334,2136,2,0,P|331:302|327:261,1,62.9999980773926,2|0,0:0|0:0,0:0:0:0:
245,320,2594,1,2,0:0:0:0:
416,286,2823,2,0,P|481:295|512:367,1,125.999996154785,2|2,0:0|0:0,0:0:0:0:
511,341,3510,1,2,0:0:0:0:
459,187,3739,5,2,0:0:0:0:
434,113,3968,1,2,0:0:0:0:
489,32,4197,5,2,0:0:0:0:
363,173,4426,1,2,0:0:0:0:
199,48,4655,5,2,0:0:0:0:
271,27,4884,1,2,0:0:0:0:
292,101,5113,1,2,0:0:0:0:
218,121,5342,1,2,0:0:0:0:
271,27,5571,6,0,P|293:20|321:16,1,43.75,2|0,0:0|0:0,0:0:0:0:
145,100,5800,6,0,P|123:95|102:89,1,43.75,2|0,0:0|0:0,0:0:0:0:
295,217,6029,6,0,P|309:200|324:185,1,43.75,2|0,0:0|0:0,0:0:0:0:
157,236,6258,6,0,P|164:256|169:277,1,43.75,2|0,0:0|0:0,0:0:0:0:
296,370,6487,6,0,P|301:348|308:328,2,41.9999987182618,2|2|0,0:0|0:0|0:0,0:0:0:0:
411,117,14731,6,0,P|410:56|431:-3,1,112,4|4,0:3|0:3,0:0:0:0:
506,19,15647,2,0,P|506:79|485:139,1,112,4|4,0:3|0:3,0:0:0:0:
343,194,16563,6,0,P|297:157|225:168,1,119.000002269745,4|4,0:3|0:3,0:0:0:0:
43,307,17479,2,0,P|102:304|134:258,1,119.000002269745,4|4,0:3|0:3,0:0:0:0:
19,82,18395,6,0,P|31:133|40:217,1,125.999996154785,4|4,0:3|0:3,0:0:0:0:
256,384,19311,2,0,P|244:333|235:249,1,125.999996154785,4|4,0:3|0:3,0:0:0:0:
316,114,20227,6,0,B|373:133|413:57|413:57|398:77|367:83,3,167.999994873047,4|4|4|4,0:3|0:3|0:3|0:3,0:0:0:0:
405,273,22059,6,0,P|429:277|452:298,1,38.5000011749268,4|0,0:3|0:0,0:0:0:0:
512,343,22288,1,2,0:0:0:0:
506,350,22403,1,2,0:0:0:0:
500,357,22517,2,0,P|461:367|425:386,1,77.0000023498536,4|2,1:3|0:0,0:0:0:0:
207,312,22975,2,0,P|239:290|287:300,1,77.0000023498536,4|2,0:3|0:0,0:0:0:0:
286,297,23319,1,2,0:0:0:0:
297,301,23433,2,0,L|282:211,1,77.0000023498536,4|0,1:3|0:0,0:0:0:0:
147,89,23891,5,4,0:3:0:0:
313,36,24120,1,2,0:0:0:0:
147,89,24349,1,4,1:3:0:0:
313,36,24578,1,2,0:0:0:0:
225,167,24807,6,0,L|232:119,1,45.4999979171754,4|0,0:3|0:0,0:0:0:0:
82,0,25036,2,0,L|73:44,1,45.4999979171754,2|0,0:0|0:0,0:0:0:0:
91,187,25265,2,0,L|0:203,1,83.9999974365235,4|0,1:3|0:0,0:0:0:0:
137,361,25723,6,0,P|176:352|227:349,1,77.0000023498536,4|0,0:3|0:0,0:0:0:0:
421,189,26181,2,0,P|382:198|331:201,1,77.0000023498536,4|0,1:3|0:0,0:0:0:0:
328,352,26639,2,0,L|321:310,1,38.5000011749268,4|0,0:3|0:0,0:0:0:0:
243,242,26868,1,2,0:0:0:0:
235,237,26983,1,2,0:0:0:0:
229,232,27097,2,0,L|245:138,1,77.0000023498536,4|2,1:3|0:0,0:0:0:0:
372,16,27555,5,4,0:3:0:0:
414,183,27784,1,2,0:0:0:0:
372,16,28013,1,4,1:3:0:0:
414,183,28242,1,2,0:0:0:0:
277,61,28471,5,4,0:3:0:0:
512,159,28700,1,8,0:3:0:0:
243,242,28929,1,0,1:0:0:0:
390,100,29158,1,8,0:3:0:0:
400,344,29387,5,4,0:3:0:0:
394,338,29502,2,0,P|385:311|382:270,1,48.9999985046387,2|0,0:0|0:0,0:0:0:0:
324,241,29731,1,2,0:0:0:0:
318,233,29845,2,0,P|324:185|341:145,1,77.0000023498536,4|2,1:3|0:0,0:0:0:0:
198,10,30304,5,4,0:3:0:0:
204,16,30418,2,0,P|213:43|216:84,1,48.9999985046387,2|0,0:0|0:0,0:0:0:0:
165,129,30647,1,2,0:0:0:0:
159,136,30762,2,0,P|96:124|76:36,1,125.999996154785,4|2,1:3|0:0,0:0:0:0:
48,61,31220,5,4,0:3:0:0:
112,245,31449,1,2,0:0:0:0:
47,346,31678,5,4,1:3:0:0:
159,136,31907,1,2,0:0:0:0:
159,136,32021,1,2,0:0:0:0:
172,150,32136,6,0,P|178:179|192:219,1,48.9999985046387,4|0,0:3|0:3,0:0:0:0:
273,296,32365,2,0,P|279:272|284:248,1,48.9999985046387,2|2,0:0|0:0,0:0:0:0:
222,378,32594,2,0,P|254:345|333:352,1,125.999996154785,4|2,1:3|0:0,0:0:0:0:
351,373,33052,5,4,0:3:0:0:
512,326,33281,1,2,0:0:0:0:
465,164,33510,1,4,1:3:0:0:
304,210,33739,1,2,0:0:0:0:
408,269,33968,5,4,0:3:0:0:
361,107,34197,2,0,P|366:82|372:54,1,38.5000011749268,2|2,0:0|0:0,0:0:0:0:
425,18,34426,2,0,P|463:30|516:40,1,77.0000023498536,4|2,1:3|0:0,0:0:0:0:
277,128,34884,5,4,0:3:0:0:
277,128,35113,1,2,0:0:0:0:
197,153,35342,5,4,1:3:0:0:
215,78,35571,1,2,0:0:0:0:
166,0,35800,5,4,0:3:0:0:
260,212,36029,1,2,0:0:0:0:
85,381,36258,6,0,P|118:305|81:228,1,157.500006008148,4|0,1:3|0:0,0:0:0:0:
90,224,36716,6,0,P|65:239|34:242,1,56,8|2,0:3|0:0,0:0:0:0:
304,373,37632,1,2,1:2:0:0:
304,373,37861,1,2,0:0:0:0:
304,373,38090,1,2,0:0:0:0:
304,373,38319,1,2,0:0:0:0:
370,320,38548,6,0,B|402:289|460:297|493:338|493:338|473:325|439:328,3,175,8|4|0|2,0:3|0:3|1:0|0:0,0:0:0:0:
199,161,40380,6,0,L|209:97,1,56,8|2,0:3|0:0,0:0:0:0:
162,0,41296,5,2,1:2:0:0:
162,0,41525,1,2,0:0:0:0:
280,60,41754,1,2,0:0:0:0:
122,124,41983,1,2,0:0:0:0:
16,346,43128,6,0,L|21:382,14,20.1250003838539,0|0|0|0|0|0|0|0|0|0|0|0|0|0|0,3:0|3:0|3:0|3:0|3:0|3:0|3:0|3:0|1:0|3:0|3:0|3:0|3:0|3:0|3:0,0:0:0:0:
20,267,44044,6,0,P|60:273|120:284,1,80.5000015354157,4|0,3:2|0:0,0:0:0:0:
299,162,44502,2,0,L|199:145,1,80.5000015354157,4|0,1:3|0:0,0:0:0:0:
375,308,44960,2,0,P|455:303|479:227,1,161.000003070831,4|4,0:3|1:3,0:0:0:0:
481,236,45647,5,2,0:0:0:0:
306,379,45876,1,4,0:3:0:0:
369,301,46105,5,2,0:0:0:0:
333,233,46334,1,4,1:3:0:0:
470,60,46563,1,2,0:0:0:0:
408,114,46792,6,0,L|310:99,1,80.5000015354157,4|0,0:3|0:0,0:0:0:0:
130,196,47250,5,4,1:3:0:0:
245,43,47479,1,2,0:0:0:0:
257,290,47708,6,0,P|247:250|240:211,1,80.5000015354157,4|2,0:3|0:0,0:0:0:0:
29,53,48166,2,0,P|38:92|45:131,1,80.5000015354157,4|2,1:3|0:0,0:0:0:0:
333,233,48624,5,4,0:3:0:0:
158,137,48853,1,2,0:0:0:0:
353,64,49082,1,4,1:3:0:0:
240,211,49311,1,2,0:0:0:0:
257,0,49540,6,0,L|266:55,1,56,6|0,0:3|0:0,0:0:0:0:
135,264,49769,6,0,L|144:208,1,56,2|0,0:1|0:0,0:0:0:0:
448,106,49998,6,0,L|457:161,1,56,6|0,1:3|0:0,0:0:0:0:
326,370,50227,6,0,L|335:314,1,56,2|0,0:1|0:0,0:0:0:0:
240,211,50456,5,4,0:3:0:0:
218,141,50685,1,8,0:3:0:0:
257,18,50914,5,4,1:3:0:0:
197,324,51143,1,8,0:3:0:0:
379,177,51372,6,0,L|505:161,1,120.750002303124,4|0,0:3|0:0,0:0:0:0:
512,91,51830,2,0,P|476:74|423:90,1,80.5000015354157,4|0,1:3|0:0,0:0:0:0:
299,286,52288,2,0,B|224:269|223:329|129:313,1,161.000003070831,4|4,0:3|1:3,0:0:0:0:
39,384,52975,5,2,0:0:0:0:
154,221,53204,1,4,0:3:0:0:
0,131,53433,5,2,0:0:0:0:
59,295,53662,1,4,1:3:0:0:
0,131,53891,1,2,0:0:0:0:
156,1,54120,6,0,L|144:88,1,80.5000015354157,4|0,0:3|0:0,0:0:0:0:
289,216,54578,2,0,P|327:203|378:215,1,80.5000015354157,4|0,1:3|0:0,0:0:0:0:
213,155,55036,5,4,0:3:0:0:
330,295,55265,1,2,0:0:0:0:
139,345,55494,1,4,1:3:0:0:
289,216,55723,1,2,0:0:0:0:
85,139,55952,5,4,0:3:0:0:
274,58,56181,1,2,0:0:0:0:
85,139,56410,1,4,1:3:0:0:
274,58,56639,1,2,0:0:0:0:
152,0,56868,6,0,P|158:33|164:78,1,62.9999980773926,2|0,1:0|0:0,0:0:0:0:
377,216,57097,6,0,P|371:183|365:138,1,62.9999980773926,2|0,1:0|0:0,0:0:0:0:
306,296,57326,6,0,P|280:313|249:317,1,62.9999980773926,2|0,1:0|0:0,0:0:0:0:
469,147,57555,6,0,P|501:151|530:169,1,62.9999980773926,2|0,1:0|0:0,0:0:0:0:
277,89,57784,6,0,L|289:11,1,62.9999980773926,2|0,1:0|0:0,0:0:0:0:
270,95,58013,2,0,L|282:17,1,62.9999980773926,2|0,1:0|0:0,0:0:0:0:
139,196,58242,6,0,B|79:133|34:119|-25:151|-15:220|52:229,1,231.000007049561,2|0,1:0|0:0,1:0:0:0:
7,316,58700,6,0,P|46:310|92:305,1,80.5000015354157,4|0,3:2|0:0,0:0:0:0:
274,374,59158,2,0,P|233:389|187:365,1,80.5000015354157,4|0,1:3|0:0,0:0:0:0:
378,198,59616,6,0,P|372:237|367:283,1,80.5000015354157,4|0,0:3|0:0,0:0:0:0:
198,139,60075,2,0,P|204:100|209:54,1,80.5000015354157,4|0,1:3|0:0,0:0:0:0:
359,0,60533,6,0,P|416:31|489:3,1,120.750002303124,4|0,0:3|0:0,0:0:0:0:
483,7,60991,1,4,1:3:0:0:
378,198,61220,2,0,P|365:157|384:113,1,80.5000015354157,2|4,0:0|0:3,0:0:0:0:
193,5,61678,2,0,L|203:98,1,80.5000015354157,2|4,0:0|1:3,0:0:0:0:
152,241,62136,1,0,0:0:0:0:
0,169,62365,6,0,P|37:157|82:168,1,80.5000015354157,4|0,0:3|0:0,0:0:0:0:
291,354,62823,2,0,P|252:345|219:313,1,80.5000015354157,4|0,1:3|0:0,0:0:0:0:
295,96,63281,6,0,L|383:86,1,80.5000015354157,4|0,0:3|0:0,0:0:0:0:
502,262,63739,2,0,L|422:252,1,80.5000015354157,4|0,1:3|0:0,0:0:0:0:
232,374,64197,6,0,P|227:341|223:319,1,56,6|0,0:3|0:0,0:0:0:0:
354,110,64426,6,0,P|349:137|344:165,1,56,2|0,0:1|0:0,0:0:0:0:
32,270,64655,6,0,P|27:237|23:215,1,56,6|0,1:3|0:0,0:0:0:0:
154,6,64884,6,0,P|149:33|144:61,1,56,2|0,0:1|0:0,0:0:0:0:
83,139,65113,5,4,0:3:0:0:
253,87,65342,1,8,0:3:0:0:
16,37,65571,5,4,1:3:0:0:
265,233,65800,1,8,0:3:0:0:
106,384,66029,6,0,L|95:304,1,80.5000015354157,4|0,0:3|0:0,0:0:0:0:
277,154,66487,2,0,P|269:193|266:233,1,80.5000015354157,4|0,1:3|0:0,0:0:0:0:
389,203,66945,6,0,P|425:211|468:216,1,80.5000015354157,4|0,0:3|0:0,0:0:0:0:
211,64,67403,2,0,P|175:72|132:77,1,80.5000015354157,4|0,1:3|0:0,0:0:0:0:
363,0,67861,6,0,P|405:40|482:22,1,120.750002303124,4|0,0:3|0:0,0:0:0:0:
489,8,68319,1,4,1:3:0:0:
305,204,68548,2,0,P|298:151|291:120,1,80.5000015354157,2|4,0:0|0:3,0:0:0:0:
486,285,69006,2,0,P|493:232|500:201,1,80.5000015354157,2|4,0:0|1:3,0:0:0:0:
233,300,69464,1,0,0:0:0:0:
390,348,69693,6,0,L|304:364,1,80.5000015354157,4|0,0:3|0:0,0:0:0:0:
87,177,70151,2,0,P|126:185|166:191,1,80.5000015354157,4|0,1:3|0:0,0:0:0:0:
143,384,70609,2,0,P|130:338|139:305,1,80.5000015354157,4|0,0:3|0:0,0:0:0:0:
281,175,71067,5,4,1:3:0:0:
115,54,71296,1,2,0:0:0:0:
340,0,71525,6,0,L|330:76,1,62.9999980773926,2|0,1:0|0:0,0:0:0:0:
330,13,71754,2,0,L|320:89,1,62.9999980773926,2|0,1:0|0:0,0:0:0:0:
478,173,71983,6,0,L|488:249,1,62.9999980773926,2|0,1:0|0:0,0:0:0:0:
488,186,72212,2,0,L|498:262,1,62.9999980773926,2|0,1:0|0:0,0:0:0:0:
280,384,72441,6,0,P|256:361|243:313,1,70,2|0,1:0|0:0,0:0:0:0:
135,256,72670,6,0,P|125:224|139:175,1,70,2|0,1:0|0:0,0:0:0:0:
197,7,72899,6,0,B|178:81|97:107|54:55|54:55|84:77|118:65,1,241.500004606247,4|0,1:0|0:0,1:0:0:0:
0,139,73357,6,0,L|14:225,1,77.0000023498536,4|2,0:3|0:0,0:0:0:0:
143,359,73815,2,0,P|155:315|143:278,1,77.0000023498536,4|2,1:3|0:0,0:0:0:0:
202,201,74273,2,0,L|292:218,1,77.0000023498536,4|2,0:3|0:0,0:0:0:0:
289,222,74616,1,2,0:0:0:0:
301,226,74731,2,0,L|286:135,1,77.0000023498536,4|0,1:3|0:0,0:0:0:0:
198,29,75189,5,4,0:3:0:0:
382,91,75418,1,2,0:0:0:0:
198,29,75647,1,4,1:3:0:0:
382,91,75876,1,2,0:0:0:0:
288,150,76105,6,0,L|281:102,1,45.4999979171754,4|2,0:3|0:0,0:0:0:0:
460,0,76334,2,0,L|469:44,1,45.4999979171754,2|2,0:0|0:0,0:0:0:0:
424,180,76563,2,0,P|441:222|429:268,1,83.9999974365235,4|0,1:3|0:0,0:0:0:0:
279,384,77021,6,0,L|287:333,1,38.5000011749268,4|0,0:3|0:0,0:0:0:0:
236,282,77250,1,2,0:0:0:0:
228,276,77365,1,2,0:0:0:0:
219,270,77479,2,0,L|116:286,1,77.0000023498536,4|2,1:3|0:0,0:0:0:0:
5,71,77937,6,0,L|-3:122,1,38.5000011749268,4|0,0:3|0:0,0:0:0:0:
52,173,78166,1,2,0:0:0:0:
60,179,78281,1,2,0:0:0:0:
69,185,78395,2,0,P|103:169|155:178,1,77.0000023498536,4|2,1:3|0:0,0:0:0:0:
307,331,78853,6,0,P|340:346|375:345,2,57.7500017623902,4|2|2,0:3|0:0|0:0,0:0:0:0:
297,340,79311,1,4,1:3:0:0:
289,350,79426,1,2,0:0:0:0:
280,359,79540,1,2,0:0:0:0:
141,171,79769,5,4,0:3:0:0:
129,165,79998,1,8,0:3:0:0:
339,239,80227,1,0,1:0:0:0:
169,361,80456,1,8,0:3:0:0:
306,150,80685,5,4,0:3:0:0:
300,144,80800,2,0,P|291:117|288:76,1,48.9999985046387,2|0,0:0|0:0,0:0:0:0:
398,16,81029,1,2,0:0:0:0:
389,21,81143,2,0,P|376:57|373:95,1,77.0000023498536,4|2,1:3|0:0,0:0:0:0:
495,326,81601,5,4,0:3:0:0:
501,320,81716,2,0,P|510:293|513:252,1,48.9999985046387,2|0,0:0|0:0,0:0:0:0:
461,208,81945,1,2,0:0:0:0:
453,205,82059,2,0,L|317:230,1,125.999996154785,4|2,1:3|0:0,0:0:0:0:
313,245,82517,5,4,0:3:0:0:
291,122,82746,1,2,0:0:0:0:
270,0,82975,1,4,1:3:0:0:
182,145,83204,5,2,0:0:0:0:
182,145,83319,1,2,0:0:0:0:
182,145,83433,2,0,L|130:136,1,48.9999985046387,4|2,0:3|0:0,0:0:0:0:
64,203,83662,2,0,L|15:211,1,48.9999985046387,2|2,0:0|0:0,0:0:0:0:
1,321,83891,6,0,P|59:331|114:290,1,125.999996154785,4|2,1:3|0:0,0:0:0:0:
128,275,84349,5,4,0:3:0:0:
228,337,84578,1,2,0:0:0:0:
373,197,84807,1,4,1:3:0:0:
244,228,85036,1,2,0:0:0:0:
425,350,85265,5,4,0:3:0:0:
373,197,85494,2,0,P|378:172|384:144,1,38.5000011749268,2|2,0:0|0:0,0:0:0:0:
330,87,85723,2,0,L|416:73,1,77.0000023498536,4|2,1:3|0:0,0:0:0:0:
354,0,86181,5,4,0:3:0:0:
354,0,86410,1,2,0:0:0:0:
380,159,86639,5,4,1:3:0:0:
362,234,86868,1,2,0:0:0:0:
287,319,87097,6,0,P|296:343|299:375,1,56,6|0,0:3|0:0,0:0:0:0:
469,233,87326,6,0,P|482:190|480:163,1,56,2|0,0:1|0:0,0:0:0:0:
305,72,87555,6,0,P|237:130|146:82,1,168,4|0,1:3|0:0,0:0:0:0:
154,99,88013,6,0,P|160:61|164:23,1,70,8|2,0:3|0:0,0:0:0:0:
320,262,88929,1,2,1:2:0:0:
320,262,89158,1,2,0:0:0:0:
320,262,89387,1,2,0:0:0:0:
320,262,89616,1,2,0:0:0:0:
380,325,89845,6,0,B|444:272|499:296|499:296|467:296|442:332,3,181.999991668702,8|4|0|2,0:3|0:3|1:0|0:0,0:0:0:0:
126,384,91678,6,0,P|114:354|128:310,1,70,8|2,0:3|0:0,0:0:0:0:
207,166,92594,5,2,1:2:0:0:
133,146,92823,1,2,0:0:0:0:
113,220,93052,1,2,0:0:0:0:
188,240,93281,1,2,0:0:0:0:
500,43,94426,6,0,L|506:9,14,20.1250003838539,0|0|0|0|0|0|0|0|0|0|0|0|0|0|0,3:0|3:0|3:0|3:0|3:0|3:0|3:0|3:0|1:0|3:0|3:0|3:0|3:0|3:0|3:0,0:0:0:0:
442,101,95342,6,0,L|459:201,1,80.5000015354157,4|0,3:2|0:0,0:0:0:0:
295,291,95800,2,0,P|290:251|278:191,1,80.5000015354157,4|0,1:3|0:0,0:0:0:0:
353,368,96258,2,0,P|309:326|207:348,1,161.000003070831,4|4,0:3|1:3,0:0:0:0:
216,339,96945,5,2,0:0:0:0:
295,176,97174,1,4,0:3:0:0:
165,136,97403,5,2,0:0:0:0:
189,209,97632,1,4,1:3:0:0:
0,358,97861,1,2,0:0:0:0:
83,384,98090,6,0,L|70:304,1,80.5000015354157,4|0,0:3|0:0,0:0:0:0:
113,195,98548,5,4,1:3:0:0:
312,97,98777,1,2,0:0:0:0:
181,7,99006,6,0,L|193:92,1,80.5000015354157,4|2,0:3|0:0,0:0:0:0:
359,200,99464,2,0,P|398:187|441:207,1,80.5000015354157,4|2,1:3|0:0,0:0:0:0:
207,286,99922,5,4,0:3:0:0:
312,97,100151,1,2,0:0:0:0:
181,7,100380,1,4,1:3:0:0:
359,200,100609,1,2,0:0:0:0:
428,114,100838,6,0,L|437:59,1,56,6|0,0:3|0:0,0:0:0:0:
315,303,101067,6,0,L|324:359,1,56,2|0,0:1|0:0,0:0:0:0:
259,89,101296,6,0,L|268:34,1,56,6|0,1:3|0:0,0:0:0:0:
146,278,101525,6,0,L|155:334,1,56,2|0,0:1|0:0,0:0:0:0:
56,180,101754,5,4,0:3:0:0:
79,110,101983,1,8,0:3:0:0:
17,14,102212,5,4,1:3:0:0:
146,278,102441,1,8,0:3:0:0:
234,176,102670,6,0,L|358:163,1,120.750002303124,4|0,0:3|0:0,0:0:0:0:
414,108,103128,2,0,P|384:88|325:95,1,80.5000015354157,4|0,1:3|0:0,0:0:0:0:
146,278,103586,2,0,P|71:317|-21:274,1,161.000003070831,4|4,0:3|1:3,0:0:0:0:
2,296,104273,5,2,0:0:0:0:
108,127,104502,1,4,0:3:0:0:
2,39,104731,5,2,0:0:0:0:
67,231,104960,1,4,1:3:0:0:
2,39,105189,1,2,0:0:0:0:
67,231,105418,6,0,L|147:243,1,80.5000015354157,4|0,0:3|0:0,0:0:0:0:
406,147,105876,2,0,P|370:157|318:141,1,80.5000015354157,4|0,1:3|0:0,0:0:0:0:
378,347,106334,5,4,0:3:0:0:
387,354,106563,1,2,0:0:0:0:
243,230,106792,1,4,1:3:0:0:
417,132,107021,1,2,0:0:0:0:
313,25,107250,5,4,0:3:0:0:
369,239,107479,1,2,0:0:0:0:
313,25,107708,1,4,1:3:0:0:
380,241,107937,1,2,0:0:0:0:
152,0,108166,6,0,L|164:78,1,62.9999980773926,2|0,1:0|0:0,0:0:0:0:
21,251,108395,6,0,L|9:173,1,62.9999980773926,2|0,1:0|0:0,0:0:0:0:
170,351,108624,6,0,P|144:368|113:372,1,62.9999980773926,2|0,1:0|0:0,0:0:0:0:
382,244,108853,6,0,P|414:248|443:266,1,62.9999980773926,2|0,1:0|0:0,0:0:0:0:
246,251,109082,6,0,L|234:173,1,62.9999980773926,2|0,1:0|0:0,0:0:0:0:
253,257,109311,2,0,L|241:179,1,62.9999980773926,2|0,1:0|0:0,0:0:0:0:
372,37,109540,6,0,B|407:21|442:3|442:3|410:175,1,231.000007049561,2|0,1:0|0:0,1:0:0:0:
382,244,109998,6,0,P|421:240|465:236,1,80.5000015354157,4|0,3:2|0:0,0:0:0:0:
211,384,110456,2,0,P|165:384|140:361,1,80.5000015354157,4|0,1:3|0:0,0:0:0:0:
264,197,110914,6,0,L|275:282,1,80.5000015354157,4|0,0:3|0:0,0:0:0:0:
0,384,111372,2,0,P|5:343|14:297,1,80.5000015354157,4|0,1:3|0:0,0:0:0:0:
126,67,111830,6,0,P|68:105|-4:78,1,120.750002303124,4|0,0:3|0:0,0:0:0:0:
3,85,112288,1,4,1:3:0:0:
139,287,112517,2,0,P|150:244|140:208,1,80.5000015354157,2|4,0:0|0:3,0:0:0:0:
329,24,112975,2,0,L|319:117,1,80.5000015354157,2|4,0:0|1:3,0:0:0:0:
224,51,113433,1,0,0:0:0:0:
414,195,113662,6,0,P|455:183|500:198,1,80.5000015354157,4|0,0:3|0:0,0:0:0:0:
282,354,114120,2,0,L|183:365,1,80.5000015354157,4|0,1:3|0:0,0:0:0:0:
423,384,114578,6,0,L|435:296,1,80.5000015354157,4|0,0:3|0:0,0:0:0:0:
253,149,115036,2,0,P|263:191|269:238,1,80.5000015354157,4|0,1:3|0:0,0:0:0:0:
388,8,115494,6,0,P|380:34|374:62,1,56,6|0,0:3|0:0,0:0:0:0:
145,70,115723,6,0,P|152:96|158:124,1,56,2|0,0:1|0:0,0:0:0:0:
365,235,115952,6,0,P|391:221|419:218,1,56,6|0,1:3|0:0,0:0:0:0:
202,365,116181,6,0,L|138:355,1,56,2|0,0:1|0:0,0:0:0:0:
57,262,116410,5,4,0:3:0:0:
72,191,116639,1,8,0:3:0:0:
263,59,116868,5,4,1:3:0:0:
310,326,117097,1,8,0:3:0:0:
501,99,117326,6,0,L|420:88,1,80.5000015354157,4|0,0:3|0:0,0:0:0:0:
198,249,117784,2,0,P|235:237|282:250,1,80.5000015354157,4|0,1:3|0:0,0:0:0:0:
444,345,118242,6,0,P|450:303|458:259,1,80.5000015354157,4|0,0:3|0:0,0:0:0:0:
263,59,118700,2,0,P|257:101|249:145,1,80.5000015354157,4|0,1:3|0:0,0:0:0:0:
126,333,119158,6,0,P|81:297|3:312,1,120.750002303124,4|0,0:3|0:0,0:0:0:0:
11,323,119616,1,4,1:3:0:0:
79,191,119845,2,0,L|69:110,1,80.5000015354157,2|4,0:0|0:3,0:0:0:0:
274,0,120304,2,0,P|265:39|261:85,1,80.5000015354157,2|4,0:0|1:3,0:0:0:0:
161,27,120762,1,0,0:0:0:0:
386,52,120991,6,0,L|472:36,1,80.5000015354157,4|0,0:3|0:0,0:0:0:0:
280,217,121449,2,0,P|241:209|201:203,1,80.5000015354157,4|0,1:3|0:0,0:0:0:0:
398,356,121907,2,0,L|484:340,1,80.5000015354157,4|0,0:3|0:0,0:0:0:0:
414,242,122365,5,4,1:3:0:0:
407,232,122594,1,2,0:0:0:0:
175,384,122823,6,0,L|184:320,1,62.9999980773926,2|0,1:0|0:0,0:0:0:0:
186,374,123052,2,0,L|195:310,1,62.9999980773926,2|0,1:0|0:0,0:0:0:0:
0,173,123281,6,0,P|6:201|8:236,1,62.9999980773926,2|0,1:0|0:0,0:0:0:0:
11,180,123510,2,0,P|17:208|19:243,1,62.9999980773926,2|0,1:0|0:0,0:0:0:0:
195,128,123739,6,0,P|211:109|192:127,1,70,2|0,1:0|0:0,0:0:0:0:
74,74,123968,6,0,P|62:40|78:5,1,70,2|0,1:0|0:0,0:0:0:0:
276,213,124197,6,0,B|371:184|371:184|414:235|414:235|505:222,1,241.500004606247,6|0,1:0|0:0,1:0:0:0:
468,315,124655,6,0,P|413:356|333:341,1,140,4|4,0:3|1:3,0:0:0:0:
152,300,125342,1,2,0:0:0:0:
252,198,125571,2,0,P|243:236|238:291,1,70,4|0,0:3|0:0,0:0:0:0:
74,384,126029,2,0,L|61:291,1,70,4|2,1:3|0:0,0:0:0:0:
0,155,126487,6,0,P|78:150|135:199,1,140,4|4,0:3|1:3,0:0:0:0:
326,65,127403,2,0,P|324:27|302:-9,2,70,4|2|4,0:3|0:0|1:3,0:0:0:0:
278,129,128090,1,2,0:0:0:0:
329,203,128319,6,0,P|366:206|396:223,1,70,4|0,0:3|0:0,0:0:0:0:
484,163,128777,2,0,P|489:122|497:78,1,70,4|2,1:3|0:0,0:0:0:0:
320,210,129235,2,0,P|313:262|303:313,1,105,4|2,0:3|0:0,0:0:0:0:
366,366,129693,2,0,P|401:351|447:357,1,70,4|2,1:3|0:0,0:0:0:0:
139,234,130151,6,0,P|104:240|69:244,1,70,8|0,0:3|0:0,0:0:0:0:
350,60,130609,2,0,P|384:53|419:49,1,70,8|0,1:3|0:0,0:0:0:0:
230,0,131067,5,4,0:3:0:0:
214,71,131296,1,2,0:0:0:0:
260,131,131525,2,0,L|248:211,1,70,4|2,1:3|0:0,0:0:0:0:
152,307,131983,6,0,P|100:264|24:269,1,140,8|4,0:3|1:3,0:0:0:0:
69,349,132670,1,2,0:0:0:0:
225,217,132899,2,0,P|298:228|370:247,1,140,4|4,0:3|1:3,0:0:0:0:
494,384,133815,6,0,P|521:320|512:251,1,140,8|4,0:3|1:3,0:0:0:0:
318,54,134731,2,0,B|345:34|347:-3|347:-3|361:31|404:42,1,140,8|4,0:3|1:3,0:0:0:0:
373,113,135418,1,2,0:0:0:0:
285,204,135647,6,0,P|250:200|210:191,1,70,8|0,0:3|0:0,0:0:0:0:
102,326,136105,2,0,L|170:314,1,70,4|2,1:3|0:0,0:0:0:0:
15,237,136563,2,0,P|6:181|31:115,1,105,4|2,0:3|0:0,0:0:0:0:
68,70,137021,2,0,L|-8:57,1,70,4|0,1:3|0:0,0:0:0:0:
216,192,137479,6,0,P|282:180|368:170,1,140,8|4,0:3|1:3,0:0:0:0:
298,263,138166,1,2,0:0:0:0:
269,100,138395,1,4,0:3:0:0:
298,263,138624,1,2,0:0:0:0:
269,100,138853,6,0,P|341:93|392:25,1,146.999995513916,8|0,1:0|0:0,0:0:0:0:
474,12,139311,6,0,P|467:46|462:86,1,70,4|0,0:1|0:0,0:0:0:0:
367,253,139769,2,0,L|355:183,1,70,4|0,1:3|0:0,0:0:0:0:
481,371,140227,2,0,P|439:338|346:371,1,140,4|4,0:3|1:3,0:0:0:0:
258,367,140914,1,2,0:0:0:0:
186,297,141143,6,0,P|177:262|172:228,1,70,8|2,0:3|0:0,0:0:0:0:
2,39,141601,2,0,P|10:73|15:107,1,70,8|0,1:3|0:0,0:0:0:0:
86,158,142059,2,0,P|126:127|196:135,1,105,4|0,0:3|0:0,0:0:0:0:
194,141,142517,1,4,1:3:0:0:
172,228,142746,5,2,0:0:0:0:
311,138,142975,2,0,P|319:62|332:-7,1,140,8|4,0:3|1:3,0:0:0:0:
224,62,143662,1,2,0:0:0:0:
407,83,143891,2,0,P|443:78|479:71,1,70,4|2,0:3|0:0,0:0:0:0:
326,219,144349,2,0,L|241:206,1,70,4|2,1:3|0:0,0:0:0:0:
397,355,144807,6,0,P|406:318|396:269,1,70,8|2,0:3|0:0,0:0:0:0:
165,75,145265,2,0,P|175:107|181:145,1,70,8|2,1:3|0:0,0:0:0:0:
108,224,145723,2,0,P|54:181|-17:193,1,140,4|4,0:3|1:3,0:0:0:0:
216,384,146639,6,0,P|286:368|362:359,1,140,8|4,0:3|1:3,0:0:0:0:
485,326,147326,1,2,0:0:0:0:
433,193,147555,2,0,L|420:280,1,70,4|0,0:3|0:0,0:0:0:0:
286,145,148013,2,0,P|321:138|355:130,1,70,4|0,1:3|0:0,0:0:0:0:
512,0,148471,6,0,P|497:63|506:152,1,140,8|4,0:3|1:3,0:0:0:0:
331,236,149158,1,2,0:0:0:0:
377,299,149387,1,4,0:3:0:0:
346,366,149616,1,2,0:0:0:0:
226,245,149845,2,0,P|191:257|148:263,1,70,4|0,1:3|0:0,0:0:0:0:
0,371,150304,6,0,P|43:375|73:387,1,70,8|0,0:3|0:0,0:0:0:0:
21,191,150762,2,0,P|48:224|61:253,1,70,4|2,1:3|0:0,0:0:0:0:
163,78,151220,2,0,P|158:120|146:150,1,70,4|0,0:3|0:0,0:0:0:0:
231,219,151678,2,0,P|281:201|352:206,1,115.50000352478,4|0,1:3|0:0,0:0:0:0:
399,250,152136,6,0,B|387:273|387:273|376:327|406:396,1,140,8|4,0:3|1:3,0:0:0:0:
512,151,153052,2,0,B|524:128|524:128|535:74|505:5,1,140,4|4,0:3|1:3,0:0:0:0:
264,104,153968,5,6,0:0:0:0:
256,192,161296,12,0,166792,0:0:0:0:
52,8,168166,6,0,L|46:53,1,42,0|0,1:0|0:0,0:0:0:0:
18,140,168624,6,0,P|58:123|109:137,1,80.5000015354157,4|0,3:2|0:0,0:0:0:0:
298,243,169082,2,0,L|198:260,1,80.5000015354157,4|0,1:3|0:0,0:0:0:0:
369,83,169540,2,0,P|449:88|473:164,1,161.000003070831,4|4,0:3|1:3,0:0:0:0:
475,155,170227,5,2,0:0:0:0:
306,5,170456,1,4,0:3:0:0:
369,83,170685,5,2,0:0:0:0:
333,151,170914,1,4,1:3:0:0:
474,319,171143,1,2,0:0:0:0:
381,384,171372,6,0,P|373:341|400:292,1,80.5000015354157,4|0,0:3|0:0,0:0:0:0:
481,148,171830,5,4,1:3:0:0:
270,202,172059,1,2,0:0:0:0:
357,3,172288,6,0,L|369:89,1,80.5000015354157,4|2,0:3|0:0,0:0:0:0:
137,365,172746,2,0,L|148:285,1,80.5000015354157,4|2,1:3|0:0,0:0:0:0:
270,202,173204,5,4,0:3:0:0:
109,41,173433,1,2,0:0:0:0:
254,116,173662,1,4,1:3:0:0:
108,209,173891,1,2,0:0:0:0:
252,372,174120,6,0,L|243:317,1,56,6|0,0:3|0:0,0:0:0:0:
363,233,174349,6,0,L|372:177,1,56,2|0,0:1|0:0,0:0:0:0:
251,89,174578,6,0,P|221:93|196:98,1,56,6|0,1:3|0:0,0:0:0:0:
446,0,174807,6,0,P|474:3|502:9,1,56,2|0,0:1|0:0,0:0:0:0:
363,75,175036,5,4,0:3:0:0:
467,167,175265,1,8,0:3:0:0:
274,215,175494,5,4,1:3:0:0:
501,8,175723,1,8,0:3:0:0:
414,341,175952,6,0,L|399:213,1,120.750002303124,4|0,0:3|0:0,0:0:0:0:
467,167,176410,2,0,P|487:201|475:255,1,80.5000015354157,4|0,1:3|0:0,0:0:0:0:
285,115,176868,2,0,P|213:158|121:134,1,161.000003070831,4|4,0:3|1:3,0:0:0:0:
196,66,177555,5,2,0:0:0:0:
229,260,177784,1,4,0:3:0:0:
27,350,178013,5,2,0:0:0:0:
57,125,178242,1,4,1:3:0:0:
27,350,178471,1,2,0:0:0:0:
149,270,178700,6,0,L|228:260,1,80.5000015354157,4|0,0:3|0:0,0:0:0:0:
443,128,179158,2,0,P|406:144|367:139,1,80.5000015354157,4|0,1:3|0:0,0:0:0:0:
373,296,179616,5,4,0:3:0:0:
377,304,179845,1,2,0:0:0:0:
259,49,180075,1,4,1:3:0:0:
443,128,180304,1,2,0:0:0:0:
282,249,180533,5,4,0:3:0:0:
163,229,180762,1,2,0:0:0:0:
43,208,180991,1,4,1:3:0:0:
32,197,181220,1,2,0:0:0:0:
128,384,181449,6,0,P|122:351|116:306,1,62.9999980773926,2|0,1:0|0:0,0:0:0:0:
278,101,181678,6,0,P|272:134|266:179,1,62.9999980773926,2|0,1:0|0:0,0:0:0:0:
189,23,181907,6,0,P|163:6|132:2,1,62.9999980773926,2|0,1:0|0:0,0:0:0:0:
360,237,182136,6,0,P|392:233|421:215,1,62.9999980773926,2|0,1:0|0:0,0:0:0:0:
250,322,182365,6,0,L|262:400,1,62.9999980773926,2|0,1:0|0:0,0:0:0:0:
243,316,182594,2,0,L|255:394,1,62.9999980773926,2|0,1:0|0:0,0:0:0:0:
132,169,182823,6,0,B|-22:144|-22:144|7:162|31:196,1,231.000007049561,2|0,1:0|0:0,1:0:0:0:
0,293,183281,6,0,P|39:286|85:282,1,80.5000015354157,4|0,3:2|0:0,0:0:0:0:
227,206,183739,2,0,P|267:209|306:216,1,80.5000015354157,4|0,1:3|0:0,0:0:0:0:
413,159,184197,6,0,P|418:118|400:75,1,80.5000015354157,4|0,0:3|0:0,0:0:0:0:
180,301,184655,2,0,P|185:341|191:386,1,80.5000015354157,4|0,1:3|0:0,0:0:0:0:
359,384,185113,6,0,P|416:353|489:381,1,120.750002303124,4|0,0:3|0:0,0:0:0:0:
483,377,185571,1,4,1:3:0:0:
398,164,185800,2,0,L|388:259,1,80.5000015354157,2|4,0:0|0:3,0:0:0:0:
190,380,186258,2,0,P|181:340|195:303,1,80.5000015354157,2|4,0:0|1:3,0:0:0:0:
154,131,186716,1,0,0:0:0:0:
0,218,186945,6,0,P|39:212|80:208,1,80.5000015354157,4|0,0:3|0:0,0:0:0:0:
305,59,187403,2,0,P|264:55|225:49,1,80.5000015354157,4|0,1:3|0:0,0:0:0:0:
319,257,187861,6,0,L|304:176,1,80.5000015354157,4|0,0:3|0:0,0:0:0:0:
506,19,188319,2,0,L|493:102,1,80.5000015354157,4|0,1:3|0:0,0:0:0:0:
330,268,188777,6,0,P|304:258|272:257,1,56,6|0,0:3|0:0,0:0:0:0:
95,356,189006,6,0,P|69:366|37:367,1,56,2|0,0:1|0:0,0:0:0:0:
159,170,189235,6,0,L|151:227,1,56,6|0,1:3|0:0,0:0:0:0:
10,72,189464,6,0,L|0:17,1,56,2|0,0:1|0:0,0:0:0:0:
45,185,189693,5,4,0:3:0:0:
253,87,189922,1,8,0:3:0:0:
0,16,190151,5,4,1:3:0:0:
244,209,190380,1,8,0:3:0:0:
79,384,190609,6,0,L|68:304,1,80.5000015354157,4|0,0:3|0:0,0:0:0:0:
255,129,191067,2,0,P|247:168|244:208,1,80.5000015354157,4|0,1:3|0:0,0:0:0:0:
323,309,191525,6,0,P|361:296|402:302,1,80.5000015354157,4|0,0:3|0:0,0:0:0:0:
124,171,191983,2,0,P|88:179|45:184,1,80.5000015354157,4|0,1:3|0:0,0:0:0:0:
313,62,192441,6,0,P|369:62|406:6,1,120.750002303124,4|0,0:3|0:0,0:0:0:0:
396,0,192899,1,4,1:3:0:0:
496,208,193128,2,0,L|507:118,1,80.5000015354157,2|4,0:0|0:3,0:0:0:0:
342,283,193586,2,0,L|331:193,1,80.5000015354157,2|4,0:0|1:3,0:0:0:0:
425,340,194044,1,0,0:0:0:0:
246,255,194273,6,0,P|204:262|166:293,1,80.5000015354157,4|0,0:3|0:0,0:0:0:0:
0,163,194731,2,0,L|83:175,1,80.5000015354157,4|0,1:3|0:0,0:0:0:0:
48,384,195189,2,0,P|42:338|29:300,1,80.5000015354157,4|0,0:3|0:0,0:0:0:0:
184,160,195647,5,4,1:3:0:0:
205,0,195876,1,2,0:0:0:0:
82,70,196105,6,0,L|6:80,1,62.9999980773926,2|0,1:0|0:0,0:0:0:0:
69,80,196334,2,0,L|-7:90,1,62.9999980773926,2|0,1:0|0:0,0:0:0:0:
246,255,196563,6,0,L|322:265,1,62.9999980773926,2|0,1:0|0:0,0:0:0:0:
259,265,196792,2,0,L|335:275,1,62.9999980773926,2|0,1:0|0:0,0:0:0:0:
160,384,197021,6,0,P|159:348|149:311,1,70,2|0,1:0|0:0,0:0:0:0:
341,168,197250,6,0,P|341:133|351:100,1,70,2|0,1:0|0:0,0:0:0:0:
229,0,197479,6,0,B|185:91|28:116|5:37|24:21|110:38|121:108,1,322.000006141663,4|2,1:0|0:0,1:0:0:0:
