osu file format v14

[General]
AudioFilename: audio.mp3
AudioLeadIn: 0
PreviewTime: 95227
Countdown: 0
SampleSet: Soft
StackLeniency: 1
Mode: 2
LetterboxInBreaks: 0
WidescreenStoryboard: 1

[Editor]
Bookmarks: 7403,22059,36716,44044,58700,73357,88013,95342,109998,124655,153968,168624,183281,197937
DistanceSpacing: 1.3
BeatDivisor: 4
GridSize: 16
TimelineZoom: 3.499998

[Metadata]
Title:Pretty Little Psycho
TitleUnicode:Pretty Little Psycho
Artist:Porcelain Black
ArtistUnicode:Porcelain Black
Creator:M0RU
Version:Rain
Source:
Tags:moru juansy- nelly kimitakari english pop rock club electronic female vocals mannequin factory reze レゼ
BeatmapID:3877827
BeatmapSetID:1858686

[Difficulty]
HPDrainRate:4.5
CircleSize:4.4
OverallDifficulty:8.1
ApproachRate:8.1
SliderMultiplier:2.16
SliderTickRate:2

[Events]
//Background and Video events
0,0,"furoagarinotomo.jpg",0,0
//Break Periods
2,154168,166058
//Storyboard Layer 0 (Background)
//Storyboard Layer 1 (Fail)
//Storyboard Layer 2 (Pass)
//Storyboard Layer 3 (Foreground)
//Storyboard Layer 4 (Overlay)
//Storyboard Sound Samples

[TimingPoints]
75,458.015267175573,4,2,0,40,1,0
75,-76.9230769230769,4,2,0,40,0,0
991,-76.9230769230769,4,2,0,30,0,0
1449,-100,4,2,0,40,0,0
3739,-100,4,2,1,40,0,0
4426,-100,4,2,0,40,0,0
4655,-76.9230769230769,4,2,0,40,0,0
5342,-100,4,2,0,40,0,0
5571,-76.9230769230769,4,2,0,40,0,0
6258,-100,4,2,0,40,0,0
6487,-76.9230769230769,4,2,0,40,0,0
7174,-100,4,2,0,40,0,0
7403,-100,4,2,0,50,0,0
7632,-100,4,3,0,30,0,0
8090,-100,4,2,1,30,0,0
8118,-133.333333333333,4,2,1,30,0,0
8319,-133.333333333333,4,2,1,30,0,0
9235,-100,4,3,0,30,0,0
9263,-100,4,3,0,30,0,0
9464,-100,4,3,0,30,0,0
9922,-100,4,2,1,30,0,0
9950,-133.333333333333,4,2,1,30,0,0
10151,-133.333333333333,4,2,1,30,0,0
11067,-100,4,3,0,30,0,0
11095,-100,4,3,0,30,0,0
11296,-100,4,3,0,30,0,0
11754,-100,4,2,1,30,0,0
11783,-133.333333333333,4,2,1,30,0,0
11983,-133.333333333333,4,2,1,30,0,0
12899,-100,4,3,0,30,0,0
12928,-100,4,3,0,30,0,0
13128,-100,4,3,0,30,0,0
13586,-100,4,2,1,30,0,0
13615,-133.333333333333,4,2,1,30,0,0
13815,-133.333333333333,4,2,1,30,0,0
14502,-100,4,2,1,30,0,0
14731,-100,4,2,0,45,0,0
14960,-100,4,2,1,45,0,0
15189,-100,4,3,0,45,0,0
15418,-100,4,2,1,45,0,0
15647,-100,4,3,0,45,0,0
15876,-100,4,2,1,45,0,0
16105,-100,4,3,0,45,0,0
16334,-100,4,2,1,45,0,0
16563,-100,4,1,0,55,0,0
16792,-100,4,2,1,55,0,0
17021,-100,4,3,0,55,0,0
17250,-100,4,2,1,55,0,0
17479,-100,4,3,0,55,0,0
17708,-100,4,2,1,55,0,0
17937,-100,4,3,0,55,0,0
18166,-100,4,2,1,55,0,0
18395,-100,4,1,0,55,0,0
18624,-100,4,2,1,55,0,0
18853,-100,4,3,0,55,0,0
19082,-100,4,2,1,55,0,0
19311,-100,4,3,0,55,0,0
19540,-100,4,2,1,55,0,0
19769,-100,4,3,0,55,0,0
19998,-100,4,2,1,55,0,0
20227,-100,4,1,0,55,0,0
20456,-100,4,2,1,55,0,0
20685,-100,4,3,0,55,0,0
20914,-100,4,2,1,55,0,0
21143,-100,4,3,0,55,0,0
21372,-100,4,2,1,55,0,0
21601,-100,4,1,2,55,0,0
21830,-100,4,2,0,55,0,0
22059,-100,4,2,0,65,0,0
25323,-100,4,2,0,35,0,0
25494,-100,4,2,0,65,0,0
27555,-66.6666666666667,4,2,0,65,0,0
27899,-100,4,2,0,65,0,0
28700,-100,4,2,2,55,0,0
28929,-35.7142857142857,4,2,2,55,0,0
29158,-100,4,2,0,65,0,0
32594,-66.6666666666667,4,2,0,65,0,0
32823,-100,4,2,0,65,0,0
34426,-66.6666666666667,4,2,0,65,0,0
34769,-100,4,2,0,65,0,0
36258,-35.7142857142857,4,2,2,65,0,0
36487,-100,4,2,0,50,0,0
37632,-62.5,4,2,0,50,0,0
37861,-100,4,2,1,50,0,0
38319,-100,4,2,0,50,0,0
38777,-100,4,2,1,50,0,0
39006,-100,4,3,0,50,0,0
39235,-100,4,2,1,50,0,0
39464,-100,4,3,0,50,0,0
39492,-100,4,3,0,50,0,0
39693,-100,4,2,1,50,0,0
39922,-100,4,1,0,50,0,0
40151,-76.9230769230769,4,2,0,50,0,0
40265,-100,4,2,0,50,0,0
41525,-100,4,2,1,50,0,0
41983,-100,4,2,0,45,0,0
42212,-100,4,2,0,55,0,0
43586,-76.9230769230769,4,2,2,65,0,0
43815,-76.9230769230769,4,2,0,75,0,0
43929,-100,4,2,0,75,0,0
44044,-76.9230769230769,4,2,1,75,0,1
44502,-100,4,2,1,75,0,1
44960,-76.9230769230769,4,2,1,75,0,1
45418,-100,4,2,1,75,0,1
45647,-76.9230769230769,4,2,1,75,0,1
46105,-100,4,2,1,75,0,1
46334,-100,4,2,1,75,0,1
46792,-62.5,4,2,1,75,0,1
47021,-100,4,2,1,75,0,1
47250,-100,4,2,1,75,0,1
48166,-100,4,3,0,75,0,1
48395,-100,4,2,1,75,0,1
48624,-100,4,3,0,75,0,1
48853,-100,4,2,1,75,0,1
49082,-100,4,3,0,75,0,1
49311,-100,4,2,1,75,0,1
49540,-55.5555555555556,4,2,1,75,0,1
49769,-55.5555555555556,4,2,1,75,0,1
49998,-55.5555555555556,4,1,0,75,0,1
50227,-100,4,2,1,75,0,1
50456,-35.7142857142857,4,2,1,75,0,1
50914,-33.3333333333333,4,2,1,75,0,1
51143,-100,4,2,1,75,0,1
51372,-76.9230769230769,4,2,1,75,0,1
51830,-100,4,2,1,75,0,1
52288,-76.9230769230769,4,2,1,75,0,1
52746,-100,4,2,1,75,0,1
52975,-76.9230769230769,4,2,1,75,0,1
53433,-100,4,2,1,75,0,1
53662,-100,4,2,1,75,0,1
55494,-100,4,3,0,75,0,1
55723,-100,4,2,1,75,0,1
55952,-100,4,3,0,75,0,1
56181,-100,4,2,1,75,0,1
56410,-100,4,1,0,75,0,1
56639,-100,4,2,1,75,0,1
56868,-62.5,4,2,1,75,0,0
57097,-62.5,4,2,1,75,0,0
57326,-62.5,4,1,0,75,0,0
57555,-100,4,2,1,75,0,0
57784,-37.037037037037,4,2,1,75,0,0
58013,-100,4,2,1,75,0,0
58242,-29.8507462686567,4,2,1,75,0,0
58471,-100,4,2,1,75,0,0
58700,-76.9230769230769,4,2,1,75,0,1
59158,-76.9230769230769,4,2,1,75,0,1
59616,-76.9230769230769,4,2,1,75,0,1
60075,-76.9230769230769,4,2,1,75,0,1
60533,-76.9230769230769,4,2,1,75,0,1
60991,-76.9230769230769,4,2,1,75,0,1
61220,-76.9230769230769,4,1,0,75,0,1
61449,-76.9230769230769,4,2,1,75,0,1
61678,-76.9230769230769,4,1,0,75,0,1
61907,-76.9230769230769,4,2,1,75,0,1
62136,-100,4,2,1,75,0,1
62365,-76.9230769230769,4,2,1,75,0,1
62823,-76.9230769230769,4,2,1,75,0,1
63281,-76.9230769230769,4,2,1,75,0,1
63739,-76.9230769230769,4,2,1,75,0,1
64197,-62.5,4,2,1,75,0,1
64426,-76.9230769230769,4,1,0,75,0,1
64655,-62.5,4,2,1,75,0,1
65113,-35.7142857142857,4,2,1,75,0,1
65800,-100,4,2,1,75,0,1
66029,-76.9230769230769,4,2,1,75,0,1
66458,-76.9230769230769,4,2,1,15,0,1
66487,-76.9230769230769,4,2,1,75,0,1
66916,-76.9230769230769,4,2,1,15,0,1
66945,-76.9230769230769,4,2,1,75,0,1
67374,-76.9230769230769,4,2,1,15,0,1
67403,-76.9230769230769,4,2,1,75,0,1
67832,-76.9230769230769,4,2,1,15,0,1
67861,-76.9230769230769,4,2,1,75,0,1
68548,-76.9230769230769,4,2,1,75,0,1
69006,-76.9230769230769,4,1,0,75,0,1
69235,-76.9230769230769,4,2,1,75,0,1
69464,-76.9230769230769,4,2,1,75,0,1
70122,-76.9230769230769,4,2,1,15,0,1
70151,-76.9230769230769,4,2,1,75,0,1
70580,-76.9230769230769,4,2,1,15,0,1
70609,-76.9230769230769,4,2,1,75,0,1
71038,-76.9230769230769,4,2,1,15,0,1
71067,-76.9230769230769,4,2,1,75,0,1
71496,-76.9230769230769,4,2,1,15,0,1
71525,-62.5,4,2,1,75,0,1
72441,-37.037037037037,4,2,1,75,0,1
72899,-30.3030303030303,4,2,1,75,0,1
73128,-100,4,2,1,75,0,0
73357,-100,4,2,0,65,0,0
74731,-62.5,4,2,0,65,0,0
74960,-100,4,2,0,65,0,0
76563,-62.5,4,2,0,65,0,0
76792,-100,4,2,0,65,0,0
78395,-62.5,4,2,0,65,0,0
78624,-100,4,2,0,65,0,0
79998,-100,4,2,0,55,0,0
80227,-30.3030303030303,4,2,0,55,0,0
80456,-100,4,2,0,65,0,0
83891,-66.6666666666667,4,2,0,65,0,0
84120,-100,4,2,0,65,0,0
85723,-66.6666666666667,4,2,0,65,0,0
86066,-100,4,2,0,65,0,0
87555,-35.7142857142857,4,2,2,55,0,0
87784,-100,4,2,0,65,0,0
88013,-100,4,2,0,50,0,0
88929,-62.5,4,2,0,50,0,0
89158,-100,4,2,1,50,0,0
89616,-100,4,2,0,50,0,0
90075,-100,4,2,1,50,0,0
90303,-100,4,3,0,50,0,0
90532,-100,4,2,1,50,0,0
90761,-100,4,3,0,50,0,0
90762,-100,4,3,0,50,0,0
90790,-100,4,3,0,50,0,0
90990,-100,4,2,1,50,0,0
91219,-100,4,1,0,50,0,0
91448,-76.9230769230769,4,2,0,50,0,0
91562,-100,4,2,0,50,0,0
92823,-100,4,2,1,50,0,0
93281,-100,4,2,0,45,0,0
94884,-76.9230769230769,4,2,2,65,0,0
95113,-76.9230769230769,4,2,0,75,0,0
95227,-100,4,2,0,75,0,0
95342,-76.9230769230769,4,2,1,75,0,1
95800,-100,4,2,1,75,0,1
96258,-76.9230769230769,4,2,1,75,0,1
96715,-100,4,2,1,75,0,1
96944,-76.9230769230769,4,2,1,75,0,1
97403,-100,4,2,1,75,0,1
97632,-100,4,2,1,75,0,1
98089,-62.5,4,2,1,75,0,1
98318,-100,4,2,1,75,0,1
98548,-100,4,2,1,75,0,1
99464,-100,4,3,0,75,0,1
99693,-100,4,2,1,75,0,1
99922,-100,4,3,0,75,0,1
100151,-100,4,2,1,75,0,1
100380,-100,4,3,0,75,0,1
100609,-100,4,2,1,75,0,1
100837,-55.5555555555556,4,2,1,75,0,1
101067,-55.5555555555556,4,2,1,75,0,1
101296,-55.5555555555556,4,1,0,75,0,1
101524,-100,4,2,1,75,0,1
101525,-100,4,2,1,75,0,1
101753,-37.037037037037,4,2,1,75,0,1
102212,-34.4827586206897,4,2,1,75,0,1
102440,-100,4,2,1,75,0,1
102669,-76.9230769230769,4,2,1,75,0,1
103128,-100,4,2,1,75,0,1
103586,-62.5,4,2,1,75,0,1
104043,-100,4,2,1,75,0,1
104272,-76.9230769230769,4,2,1,75,0,1
104731,-100,4,2,1,75,0,1
104960,-100,4,2,1,75,0,1
106792,-100,4,3,0,75,0,1
107021,-100,4,2,1,75,0,1
107250,-100,4,3,0,75,0,1
107479,-100,4,2,1,75,0,1
107708,-100,4,1,0,75,0,1
107937,-100,4,2,1,75,0,1
108166,-62.5,4,2,1,75,0,0
108395,-62.5,4,2,1,75,0,0
108624,-62.5,4,1,0,75,0,0
108852,-100,4,2,1,75,0,0
108853,-100,4,2,1,75,0,0
109081,-37.037037037037,4,2,1,75,0,0
109310,-100,4,2,1,75,0,0
109539,-31.25,4,2,1,75,0,0
109768,-100,4,2,1,75,0,0
109998,-76.9230769230769,4,2,1,75,0,1
110428,-76.9230769230769,4,2,1,15,0,1
110456,-76.9230769230769,4,2,1,75,0,1
110886,-76.9230769230769,4,2,1,15,0,1
110914,-76.9230769230769,4,2,1,75,0,1
111344,-76.9230769230769,4,2,1,15,0,1
111373,-76.9230769230769,4,2,1,75,0,1
111802,-76.9230769230769,4,2,1,15,0,1
111831,-76.9230769230769,4,2,1,75,0,1
112260,-76.9230769230769,4,2,1,15,0,1
112289,-76.9230769230769,4,2,1,75,0,1
112518,-76.9230769230769,4,1,0,75,0,1
112747,-76.9230769230769,4,2,1,75,0,1
112975,-76.9230769230769,4,1,0,75,0,1
113204,-76.9230769230769,4,2,1,75,0,1
113433,-100,4,2,1,75,0,1
113662,-76.9230769230769,4,2,1,75,0,1
114092,-76.9230769230769,4,2,1,15,0,1
114121,-76.9230769230769,4,2,1,75,0,1
114550,-76.9230769230769,4,2,1,15,0,1
114579,-76.9230769230769,4,2,1,75,0,1
115008,-76.9230769230769,4,2,1,15,0,1
115037,-76.9230769230769,4,2,1,75,0,1
115466,-76.9230769230769,4,2,1,15,0,1
115494,-62.5,4,2,1,75,0,1
115724,-76.9230769230769,4,1,0,75,0,1
115952,-62.5,4,2,1,75,0,1
116410,-35.7142857142857,4,2,1,75,0,1
117097,-100,4,2,1,75,0,1
117326,-76.9230769230769,4,2,1,75,0,1
117756,-76.9230769230769,4,2,1,15,0,1
117785,-76.9230769230769,4,2,1,75,0,1
118214,-76.9230769230769,4,2,1,15,0,1
118243,-76.9230769230769,4,2,1,75,0,1
118672,-76.9230769230769,4,2,1,15,0,1
118701,-76.9230769230769,4,2,1,75,0,1
119130,-76.9230769230769,4,2,1,15,0,1
119159,-76.9230769230769,4,2,1,75,0,1
119845,-76.9230769230769,4,2,1,75,0,1
120304,-76.9230769230769,4,1,0,75,0,1
120533,-76.9230769230769,4,2,1,75,0,1
120761,-76.9230769230769,4,2,1,75,0,1
121420,-76.9230769230769,4,2,1,15,0,1
121449,-76.9230769230769,4,2,1,75,0,1
121878,-76.9230769230769,4,2,1,15,0,1
121907,-76.9230769230769,4,2,1,75,0,1
122336,-76.9230769230769,4,2,1,15,0,1
122365,-76.9230769230769,4,2,1,75,0,1
122794,-76.9230769230769,4,2,1,15,0,1
122822,-62.5,4,2,1,75,0,1
123738,-37.037037037037,4,2,1,75,0,1
124196,-30.3030303030303,4,2,1,75,0,1
124426,-100,4,2,1,75,0,0
124655,-100,4,2,0,50,0,0
126487,-100,4,3,0,50,0,0
126716,-100,4,2,0,50,0,0
130151,-100,4,3,0,50,0,0
130380,-100,4,2,0,50,0,0
139311,-76.9230769230769,4,2,0,60,0,0
139769,-100,4,2,0,60,0,0
140914,-76.9230769230769,4,2,0,60,0,0
141143,-76.9230769230769,4,3,0,60,0,0
141372,-100,4,2,0,60,0,0
142975,-76.9230769230769,4,2,0,60,0,0
143433,-100,4,2,0,60,0,0
144578,-76.9230769230769,4,2,0,60,0,0
144807,-76.9230769230769,4,3,0,60,0,0
145036,-100,4,2,0,60,0,0
153968,-100,4,2,1,40,0,0
166792,-100,4,2,1,45,0,0
167708,-100,4,2,1,50,0,0
168166,-100,4,2,1,55,0,0
168624,-76.9230769230769,4,2,1,75,0,1
169053,-76.9230769230769,4,2,1,15,0,1
169082,-100,4,2,1,75,0,1
169511,-100,4,2,1,15,0,1
169540,-76.9230769230769,4,2,1,75,0,1
169997,-100,4,2,1,75,0,1
170226,-76.9230769230769,4,2,1,75,0,1
170685,-100,4,2,1,75,0,1
170885,-100,4,2,1,15,0,1
170914,-100,4,2,1,75,0,1
171371,-62.5,4,2,1,75,0,1
171600,-100,4,2,1,75,0,1
171801,-100,4,2,1,15,0,1
171830,-100,4,2,1,75,0,1
172746,-100,4,3,0,75,0,1
172975,-100,4,2,1,75,0,1
173204,-100,4,3,0,75,0,1
173433,-100,4,2,1,75,0,1
173662,-100,4,3,0,75,0,1
173891,-100,4,2,1,75,0,1
174119,-55.5555555555556,4,2,1,75,0,1
174321,-55.5555555555556,4,2,1,75,0,1
174349,-55.5555555555556,4,2,1,75,0,1
174578,-55.5555555555556,4,1,0,75,0,1
174806,-100,4,2,1,75,0,1
174807,-100,4,2,1,75,0,1
175035,-37.037037037037,4,2,1,75,0,1
175493,-33.3333333333333,4,2,1,75,0,1
175722,-100,4,2,1,75,0,1
175951,-76.9230769230769,4,2,1,75,0,1
176382,-76.9230769230769,4,2,1,15,0,1
176410,-100,4,2,1,75,0,1
176868,-62.5,4,2,1,75,0,1
177325,-100,4,2,1,75,0,1
177554,-76.9230769230769,4,2,1,75,0,1
178013,-100,4,2,1,75,0,1
178242,-100,4,2,1,75,0,1
180074,-100,4,3,0,75,0,1
180303,-100,4,2,1,75,0,1
180532,-100,4,3,0,75,0,1
180761,-100,4,2,1,75,0,1
180990,-100,4,1,0,75,0,1
181219,-100,4,2,1,75,0,1
181449,-62.5,4,2,1,75,0,0
181677,-62.5,4,2,1,75,0,0
181906,-62.5,4,1,0,75,0,0
182134,-100,4,2,1,75,0,0
182135,-100,4,2,1,75,0,0
182363,-37.037037037037,4,2,1,75,0,0
182592,-100,4,2,1,75,0,0
182821,-31.25,4,2,1,75,0,0
183050,-100,4,2,1,75,0,0
183281,-76.9230769230769,4,2,1,75,0,1
183738,-76.9230769230769,4,2,1,75,0,1
184196,-76.9230769230769,4,2,1,75,0,1
184655,-76.9230769230769,4,2,1,75,0,1
185113,-76.9230769230769,4,2,1,75,0,1
185571,-76.9230769230769,4,2,1,75,0,1
185800,-76.9230769230769,4,1,0,75,0,1
186029,-76.9230769230769,4,2,1,75,0,1
186715,-100,4,2,1,75,0,1
186944,-76.9230769230769,4,2,1,75,0,1
187403,-76.9230769230769,4,2,1,75,0,1
187861,-76.9230769230769,4,2,1,75,0,1
188319,-76.9230769230769,4,2,1,75,0,1
188776,-62.5,4,2,1,75,0,1
189006,-76.9230769230769,4,1,0,75,0,1
189234,-62.5,4,2,1,75,0,1
189692,-35.7142857142857,4,2,1,75,0,1
190379,-100,4,2,1,75,0,1
190608,-76.9230769230769,4,2,1,75,0,1
191067,-76.9230769230769,4,2,1,75,0,1
191525,-76.9230769230769,4,2,1,75,0,1
191983,-76.9230769230769,4,2,1,75,0,1
192441,-76.9230769230769,4,2,1,75,0,1
193127,-76.9230769230769,4,2,1,75,0,1
194043,-76.9230769230769,4,2,1,75,0,1
194731,-76.9230769230769,4,2,1,75,0,1
195189,-76.9230769230769,4,2,1,75,0,1
195647,-76.9230769230769,4,2,1,75,0,1
196104,-62.5,4,2,1,75,0,1
197020,-37.037037037037,4,2,1,75,0,1
197478,-30.3030303030303,4,2,1,75,0,1
197708,-100,4,2,1,75,0,0
197880,-100,4,2,1,45,0,0
197966,-100,4,2,1,45,0,0

[Colours]
Combo1 : 35,59,196
Combo2 : 242,199,29
Combo3 : 243,135,158
Combo4 : 128,218,122
Combo5 : 135,195,219

[HitObjects]
109,361,75,6,0,P|86:296|197:292,1,210.599990359497,2|0,0:0|0:0,0:0:0:0:
133,254,533,2,0,P|110:189|221:185,1,210.599990359497,2|0,0:0|0:0,0:0:0:0:
315,176,991,2,0,P|336:150|195:68,1,280.799987145997,2|0,0:0|0:0,0:0:0:0:
383,242,1678,6,0,P|446:181|370:125,1,162,2|0,0:0|0:0,0:0:0:0:
305,129,2136,2,0,L|448:129,2,108
197,129,2823,2,0,L|437:128,1,216,2|0,0:0|0:0,0:0:0:0:
412,128,3510,1,0,0:0:0:0:
129,102,3739,6,0,L|128:240,1,108,0|0,3:0|0:0,0:0:0:0:
316,209,4197,2,0,L|316:101,1,108,0|0,3:0|0:0,0:0:0:0:
129,101,4655,2,0,B|270:101|270:101|129:106|129:106|129:249,1,421.199980718995
471,113,5571,6,0,L|320:113,1,140.399993572998,2|0,3:2|0:0,0:0:0:0:
143,113,6029,2,0,L|323:113,1,140.399993572998,2|0,3:2|0:0,0:0:0:0:
423,113,6487,2,0,B|283:113|283:113|425:113|425:113|425:288,1,421.199980718995,2|0,0:0|0:0,0:0:0:0:
136,320,7403,6,0,P|56:238|196:224,1,324,0|0,3:0|0:0,0:0:0:0:
195,173,8118,2,0,P|294:276|133:261,1,394.875015063286
133,266,9263,2,0,P|81:192|227:182,1,310.5
226,181,9950,2,0,P|314:55|164:87,1,394.875015063286
163,87,11095,2,0,P|115:198|235:160,1,310.5
234,160,11783,2,0,P|339:227|174:265,1,394.875015063286
174,267,12928,2,0,P|60:239|176:197,1,310.5
168,187,13615,2,0,P|282:146|167:81,1,313.875011973382
455,70,14731,6,0,B|483:126|494:199|475:273|460:279|460:279|247:280|247:280|208:203|213:127|251:64,1,648,0|0,1:0|0:0,0:0:0:0:
57,70,16563,2,0,B|29:126|18:199|37:273|52:279|52:279|265:280|265:280|304:203|299:127|261:64,1,648
456,82,18395,2,0,B|241:82|241:82|457:79|457:79|239:76,1,648
45,76,20227,2,0,B|260:76|260:76|44:73|44:73|262:70,1,648,0|8,0:0|0:2,0:0:0:0:
88,70,21830,1,0,0:0:0:0:
372,73,22059,5,2,3:2:0:0:
426,124,22174,1,0,0:0:0:0:
372,176,22288,1,0,0:0:0:0:
199,176,22517,1,8,0:0:0:0:
371,176,22746,1,0,0:0:0:0:
198,176,22975,2,0,L|332:176,1,108,2|0,3:2|0:0,0:0:0:0:
478,176,23433,2,0,L|350:176,1,108,8|0,0:0|0:0,0:0:0:0:
84,274,23891,6,0,P|48:224|128:176,1,162,2|0,3:2|0:0,0:0:0:0:
199,170,24349,1,8,0:0:0:0:
145,170,24463,1,0,0:0:0:0:
91,170,24578,1,0,0:0:0:0:
282,153,24807,2,0,L|282:284,1,108,2|0,3:2|0:0,0:0:0:0:
109,261,25265,2,0,L|109:134,1,108,8|0,0:0|0:0,0:0:0:0:
400,273,25723,5,2,3:2:0:0:
446,251,25837,1,0,0:0:0:0:
399,218,25952,1,0,0:0:0:0:
281,185,26181,2,0,L|407:185,1,108,8|0,0:0|0:0,0:0:0:0:
216,185,26639,2,0,L|217:68,1,108,2|0,3:2|0:0,0:0:0:0:
389,77,27097,2,0,L|388:206,1,108,8|0,0:0|0:0,0:0:0:0:
100,283,27555,6,0,B|56:281|22:210|63:126|209:159,1,243.000009269715,2|0,3:2|0:0,0:0:0:0:
287,153,28013,1,8,0:0:0:0:
179,153,28242,1,0,0:0:0:0:
71,153,28471,1,0,3:0:0:0:
179,153,28700,1,8,0:3:0:0:
377,163,28929,2,0,L|37:162,1,302.399990771485,8|8,1:2|0:3,0:0:0:0:
383,281,29387,5,2,3:2:0:0:
418,249,29501,1,0,0:0:0:0:
383,217,29616,1,0,0:0:0:0:
275,217,29731,2,0,P|246:170|291:74,1,162,2|0,0:0|0:0,0:0:0:0:
392,78,30304,1,2,3:2:0:0:
338,78,30418,1,0,0:0:0:0:
283,78,30533,1,0,0:0:0:0:
175,78,30647,2,0,P|121:131|176:180,1,162,2|0,0:0|0:0,0:0:0:0:
457,171,31220,6,0,L|457:320,1,108,2|0,3:2|0:0,0:0:0:0:
284,279,31678,2,0,P|250:246|309:215,1,108,8|0,0:0|0:0,0:0:0:0:
336,207,32021,1,0,0:0:0:0:
390,207,32136,2,0,P|424:174|365:143,1,108,2|0,3:2|0:0,0:0:0:0:
229,135,32594,2,0,L|453:135,1,162.00000617981,10|0,0:0|0:0,0:0:0:0:
97,138,33052,5,2,3:2:0:0:
54,167,33166,1,0,0:0:0:0:
97,138,33281,1,0,0:0:0:0:
212,243,33510,2,0,L|350:241,1,108,8|0,0:0|0:0,0:0:0:0:
147,241,33968,1,2,3:2:0:0:
319,241,34197,1,0,0:0:0:0:
147,241,34426,2,0,P|100:195|205:88,1,243.000009269715,8|0,0:0|0:0,0:0:0:0:
410,58,34884,6,2,L|264:59,1,108,2|0,3:2|0:0,3:2:0:0:
129,58,35342,1,8,0:0:0:0:
301,58,35571,1,0,0:0:0:0:
128,58,35800,2,0,L|62:198,1,108,2|0,3:2|3:0,0:0:0:0:
128,165,36258,2,0,L|447:166,1,302.399990771485,8|0,0:2|0:0,0:0:0:0:
139,307,36716,6,0,P|91:269|176:231,1,162,2|0,3:2|0:0,0:0:0:0:
257,213,37174,2,0,P|305:187|249:125,1,162,2|0,0:1|0:0,0:0:0:0:
142,124,37632,2,0,L|382:124,2,172.8,2|0|0,3:2|0:0|0:0,0:0:0:0:
142,124,38319,1,0,0:0:0:0:
427,59,38548,6,0,B|427:278|427:278|208:279,1,432,0|0,3:0|0:0,0:0:0:0:
194,278,39492,1,0,0:0:0:0:
212,279,39922,2,0,L|387:279,1,162
202,224,40380,6,0,P|143:207|209:191,1,162,2|0,3:2|0:0,0:0:0:0:
309,177,40838,2,0,P|368:160|302:144,1,162,2|0,0:1|0:0,0:0:0:0:
201,130,41296,2,0,L|201:284,2,108,2|0|0,3:2|0:0|0:0,0:0:0:0:
373,130,41983,1,0,0:0:0:0:
85,274,42212,6,0,L|85:236,1,36,0|0,3:0|0:0,0:0:0:0:
139,238,42441,2,0,L|138:199,1,36,0|0,1:0|0:0,0:0:0:0:
192,202,42670,2,0,L|192:162,1,36,0|0,3:0|0:0,0:0:0:0:
286,193,42899,2,0,L|287:152,1,36,0|0,1:0|0:0,0:0:0:0:
340,157,43128,2,0,L|340:116,1,36,0|0,3:0|0:0,0:0:0:0:
285,121,43357,2,0,L|285:81,1,36,0|0,1:0|0:0,0:0:0:0:
154,121,43586,2,0,P|78:163|156:199,1,210.599990359497,8|0,1:2|0:0,0:0:0:0:
377,307,44044,6,0,B|377:166|377:166|235:165,1,280.799987145997,4|10,0:0|0:0,0:0:0:0:
345,165,44731,1,0,0:0:0:0:
173,286,44960,2,0,P|263:312|353:171,1,280.799987145997,2|8,0:0|0:0,0:0:0:0:
62,305,45647,6,0,B|62:165|62:165|234:165,1,280.799987145997,2|8,0:0|3:2,0:0:0:0:
67,165,46334,2,0,L|195:165,1,108,0|0,3:0|3:0,0:0:0:0:
347,165,46792,2,0,B|172:165|172:165|136:342,1,345.6,2|8,0:0|3:2,0:0:0:0:
137,332,47479,1,0,0:0:0:0:
423,325,47708,6,0,P|477:273|397:184,1,216,2|0,0:0|0:0,0:0:0:0:
293,185,48395,1,0,0:0:0:0:
185,185,48624,2,0,L|297:186,2,108
357,185,49311,1,0,0:0:0:0:
71,193,49540,6,0,L|292:193,1,194.399994067383,0|0,1:0|0:0,0:0:0:0:
192,193,49998,2,0,L|412:193,1,194.399994067383
386,193,50456,2,0,L|12:193,1,302.399990771485,0|0,1:0|3:0,0:0:0:0:
71,193,50914,2,0,L|468:194,1,324.00001235962,0|0,1:0|3:0,0:0:0:0:
108,315,51372,6,0,B|92:174|92:174|259:174,1,280.799987145997,4|8,0:0|0:0,0:0:0:0:
122,174,52059,1,0,0:0:0:0:
295,278,52288,2,0,P|183:305|153:141,1,280.799987145997,2|8,0:0|0:0,0:0:0:0:
461,280,52975,6,0,B|461:139|461:139|299:139,1,280.799987145997,2|8,0:0|3:2,0:0:0:0:
429,139,53662,2,0,L|303:140,1,108,0|0,3:0|3:0,0:0:0:0:
148,139,54120,2,0,L|394:139,1,216,2|8,0:0|0:0,0:0:0:0:
364,139,54807,1,0,0:0:0:0:
75,322,55036,6,0,P|36:267|103:148,1,216,2|0,0:0|0:0,0:0:0:0:
205,182,55723,1,0,0:0:0:0:
313,182,55952,2,0,L|201:183,2,108
141,182,56639,1,0,0:0:0:0:
437,178,56868,6,0,L|197:177,1,172.8,2|0,1:2|0:0,0:0:0:0:
329,177,57326,2,0,L|89:176,1,172.8
156,176,57784,2,0,L|520:176,1,291.600001112366,0|0,1:0|3:0,0:0:0:0:
447,176,58242,2,0,L|-4:176,1,361.800001380157,0|0,2:0|3:0,0:0:0:0:
376,254,58700,6,0,P|400:194|288:163,1,210.599990359497,2|0,1:2|0:0,0:0:0:0:
195,155,59158,2,0,P|100:142|123:55,1,210.599990359497,10|0,0:0|0:0,0:0:0:0:
215,54,59616,2,0,P|230:148|325:142,1,210.599990359497,2|0,3:2|0:0,0:0:0:0:
418,142,60075,2,0,P|421:236|326:237,1,210.599990359497,10|0,0:0|0:0,0:0:0:0:
255,236,60533,6,0,B|255:96|255:96|107:96,1,280.799987145997,2|8,3:2|1:2,0:0:0:0:
397,276,61220,2,0,B|478:252|486:143|475:24|393:55|250:54|250:54|453:54,1,561.599974291993
99,254,62365,6,0,P|97:188|219:151,1,210.599990359497,2|0,1:2|0:0,0:0:0:0:
309,157,62823,2,0,P|404:144|381:57,1,210.599990359497,10|0,3:2|0:0,0:0:0:0:
289,56,63281,2,0,P|274:150|179:144,1,210.599990359497,2|0,3:2|0:0,0:0:0:0:
86,144,63740,2,0,P|83:238|178:239,1,210.599990359497,10|0,0:0|0:0,0:0:0:0:
382,222,64197,6,0,L|188:222,1,172.8,2|0,1:2|0:0,0:0:0:0:
274,222,64655,2,0,L|71:223,1,172.8,8|0,1:2|3:0,0:0:0:0:
101,222,65113,2,0,L|422:223,1,302.399990771485,2|0,1:2|0:0,0:0:0:0:
403,222,65571,2,0,L|82:223,1,302.399990771485,8|0,1:2|0:0,0:0:0:0:
407,245,66029,6,0,P|418:172|310:178,1,210.599990359497,2|0,1:2|0:0,0:0:0:0:
219,175,66487,2,0,P|144:143|218:90,1,210.599990359497,10|0,0:0|0:0,0:0:0:0:
309,90,66945,2,0,P|383:154|304:199,1,210.599990359497,2|0,3:2|0:0,0:0:0:0:
222,201,67403,2,0,P|124:179|98:83,1,210.599990359497,8|0,0:0|0:0,0:0:0:0:
189,82,67861,6,0,B|190:224|190:224|367:221,1,280.799987145997,2|8,1:2|1:2,0:0:0:0:
403,298,68548,2,0,B|484:274|492:165|481:46|399:77|256:76|256:76|459:76,1,561.599974291993,2|0,0:0|0:0,0:0:0:0:
99,254,69693,6,0,P|97:188|219:151,1,210.599990359497,2|0,1:2|0:0,0:0:0:0:
309,157,70151,2,0,P|404:144|381:57,1,210.599990359497,10|0,0:0|0:0,0:0:0:0:
289,56,70609,2,0,P|274:150|179:144,1,210.599990359497,2|0,3:2|0:0,0:0:0:0:
270,142,71068,2,0,P|348:197|270:245,1,210.599990359497,10|0,0:0|0:0,0:0:0:0:
99,247,71525,6,0,L|293:247,1,172.8,2|0,1:2|0:0,0:0:0:0:
206,247,71983,2,0,L|405:247,1,172.8,8|0,1:2|3:0,0:0:0:0:
378,247,72441,2,0,L|62:247,1,291.600001112366,2|0,1:2|0:0,0:0:0:0:
86,247,72899,2,0,L|452:246,1,356.400003398895,8|0,1:2|0:0,0:0:0:0:
142,244,73357,5,2,3:2:0:0:
112,204,73471,1,0,0:0:0:0:
146,168,73586,1,0,0:0:0:0:
318,168,73815,2,0,L|179:170,1,108,8|0,0:0|0:0,0:0:0:0:
36,167,74273,2,0,L|186:166,1,108,2|0,3:2|0:0,0:0:0:0:
318,168,74731,2,0,L|105:168,1,172.8,8|0,0:0|0:0,0:0:0:0:
430,248,75189,5,2,3:2:0:0:
466,217,75303,1,0,0:0:0:0:
432,184,75418,1,0,0:0:0:0:
259,184,75647,2,0,L|411:184,1,108,8|0,0:0|0:0,0:0:0:0:
194,184,76105,2,0,L|36:185,1,108,2|0,3:2|0:0,0:0:0:0:
293,184,76563,2,0,L|479:184,1,172.8,8|0,0:0|0:0,0:0:0:0:
142,296,77021,5,2,3:2:0:0:
111,256,77135,1,0,0:0:0:0:
142,217,77250,1,0,0:0:0:0:
315,217,77479,2,0,L|315:87,1,108,8|0,0:0|0:0,0:0:0:0:
173,110,77937,2,0,L|54:110,1,108,2|0,3:2|0:0,0:0:0:0:
272,110,78395,2,0,L|458:110,1,172.8,8|0,0:0|0:0,0:0:0:0:
58,75,78853,6,0,L|58:199,1,108,2|0,3:2|0:0,0:0:0:0:
230,183,79311,2,0,L|282:78,1,108,8|0,3:2|0:0,0:0:0:0:
230,75,79769,1,0,3:0:0:0:
128,73,79998,1,8,0:3:0:0:
57,75,80227,2,0,L|448:75,1,356.400003398895,8|8,1:2|0:3,0:0:0:0:
129,281,80685,5,2,3:2:0:0:
94,249,80799,1,0,0:0:0:0:
129,217,80914,1,0,0:0:0:0:
237,217,81029,2,0,P|266:170|221:74,1,162,2|0,0:0|0:0,0:0:0:0:
120,78,81602,1,2,3:2:0:0:
174,78,81716,1,0,0:0:0:0:
229,78,81831,1,0,0:0:0:0:
337,78,81945,2,0,P|391:131|336:180,1,162,2|0,0:0|0:0,0:0:0:0:
55,171,82518,6,0,L|55:320,1,108,2|0,3:2|0:0,0:0:0:0:
228,279,82976,2,0,P|262:246|203:215,1,108,8|0,0:0|0:0,0:0:0:0:
176,207,83319,1,0,0:0:0:0:
122,207,83434,2,0,P|88:174|147:143,1,108,2|0,3:2|0:0,0:0:0:0:
283,135,83892,2,0,L|59:135,1,162.00000617981,8|0,0:0|0:0,0:0:0:0:
415,138,84350,5,2,3:2:0:0:
458,167,84464,1,0,0:0:0:0:
415,138,84579,1,0,0:0:0:0:
300,243,84808,2,0,L|162:241,1,108,8|0,0:0|0:0,0:0:0:0:
365,241,85266,1,2,3:2:0:0:
193,241,85495,1,0,0:0:0:0:
365,241,85723,2,0,P|412:195|307:88,1,243.000009269715,8|0,0:0|0:0,0:0:0:0:
102,58,86182,6,0,L|248:59,1,108,2|0,3:2|0:0,0:0:0:0:
383,58,86640,1,8,0:0:0:0:
211,58,86869,1,0,0:0:0:0:
384,58,87098,2,0,L|450:198,1,108,2|0,3:2|3:0,0:0:0:0:
384,165,87555,2,0,L|65:166,1,302.399990771485,8|0,0:2|0:0,0:0:0:0:
400,310,88013,6,0,P|448:272|363:234,1,162,2|0,3:2|0:0,0:0:0:0:
282,216,88471,2,0,P|234:190|290:128,1,162,2|0,0:1|0:0,0:0:0:0:
397,127,88929,2,0,L|157:127,2,172.8,2|0|0,3:2|0:0|0:0,0:0:0:0:
397,127,89616,1,0,0:0:0:0:
112,62,89845,6,0,B|112:281|112:281|331:282,1,432,0|0,3:0|0:0,0:0:0:0:
344,281,90789,1,0,0:0:0:0:
327,282,91219,2,0,L|147:281,1,162
337,227,91677,6,0,P|396:210|330:194,1,162,2|0,3:2|0:0,0:0:0:0:
230,180,92135,2,0,P|171:163|237:147,1,162,2|0,0:1|0:0,0:0:0:0:
338,133,92593,2,0,L|338:287,2,108,2|0|0,3:2|0:0|0:0,0:0:0:0:
166,133,93280,1,0,0:0:0:0:
461,280,93510,6,0,L|461:242,1,36,0|0,3:0|0:0,0:0:0:0:
407,244,93739,2,0,L|408:205,1,36,0|0,1:0|0:0,0:0:0:0:
354,208,93968,2,0,L|354:168,1,36,0|0,3:0|0:0,0:0:0:0:
260,199,94197,2,0,L|259:158,1,36,0|0,1:0|0:0,0:0:0:0:
206,163,94426,2,0,L|206:122,1,36,0|0,3:0|0:0,0:0:0:0:
261,127,94655,2,0,L|261:87,1,36,0|0,1:0|0:0,0:0:0:0:
392,125,94884,2,0,P|468:167|390:203,1,210.599990359497,8|0,1:2|0:0,0:0:0:0:
162,310,95342,6,0,B|162:169|162:169|304:168,1,280.799987145997,4|10,0:0|0:0,0:0:0:0:
194,168,96029,1,0,0:0:0:0:
366,289,96258,2,0,P|292:314|186:174,1,280.799987145997,2|8,0:0|0:0,0:0:0:0:
477,308,96945,6,0,B|477:168|477:168|305:168,1,280.799987145997,2|8,0:0|3:2,0:0:0:0:
472,168,97632,2,0,L|344:168,1,108,0|0,3:0|3:0,0:0:0:0:
192,168,98090,2,0,B|367:168|367:168|403:345,1,345.6,2|8,0:0|3:2,0:0:0:0:
402,335,98777,1,0,0:0:0:0:
116,328,99006,6,0,P|62:276|142:187,1,216,2|0,0:0|0:0,0:0:0:0:
246,188,99693,1,0,0:0:0:0:
354,188,99922,2,0,L|242:189,2,108
182,188,100608,1,0,0:0:0:0:
468,196,100837,6,0,L|247:196,1,194.399994067383,0|0,1:0|0:0,0:0:0:0:
347,196,101295,2,0,L|127:196,1,194.399994067383
152,196,101753,2,0,L|468:197,1,291.600001112366,0|0,1:0|3:0,0:0:0:0:
443,196,102212,2,0,L|45:197,1,313.200009558106,0|0,1:0|3:0,0:0:0:0:
431,318,102669,6,0,B|447:177|447:177|280:177,1,280.799987145997,4|8,0:0|0:0,0:0:0:0:
417,177,103356,1,0,0:0:0:0:
244,281,103586,2,0,P|320:324|386:144,1,345.6,2|8,0:0|0:0,0:0:0:0:
78,283,104272,6,0,B|78:142|78:142|240:142,1,280.799987145997,2|8,0:0|3:2,0:0:0:0:
110,142,104959,2,0,L|236:143,1,108,0|0,3:0|3:0,0:0:0:0:
391,142,105417,2,0,L|145:142,1,216,2|8,0:0|0:0,0:0:0:0:
175,142,106104,1,0,0:0:0:0:
464,325,106333,6,0,P|503:270|436:151,1,216,2|0,0:0|0:0,0:0:0:0:
334,185,107020,1,0,0:0:0:0:
226,185,107249,2,0,L|338:186,2,108
398,185,107936,1,0,0:0:0:0:
102,181,108166,6,0,L|342:180,1,172.8,2|0,1:2|0:0,0:0:0:0:
209,180,108623,2,0,L|449:179,1,172.8
382,179,109081,2,0,L|18:179,1,291.600001112366,0|0,1:0|3:0,0:0:0:0:
92,179,109539,2,0,L|468:180,1,345.6,0|0,2:0|3:0,0:0:0:0:
149,257,109998,6,0,P|132:196|246:166,1,210.599990359497,2|0,1:2|0:0,0:0:0:0:
344,158,110456,2,0,P|439:145|416:58,1,210.599990359497,10|0,0:0|0:0,0:0:0:0:
324,57,110913,2,0,P|309:151|214:145,1,210.599990359497,2|0,3:2|0:0,0:0:0:0:
121,145,111372,2,0,P|118:239|213:240,1,210.599990359497,10|0,0:0|0:0,0:0:0:0:
284,239,111830,6,0,B|284:99|284:99|432:99,1,280.799987145997,2|8,3:2|1:2,0:0:0:0:
142,279,112517,2,0,B|61:255|53:146|64:27|146:58|289:57|289:57|86:57,1,561.599974291993
440,257,113662,6,0,P|442:191|320:154,1,210.599990359497,2|0,1:2|0:0,0:0:0:0:
230,160,114120,2,0,P|135:147|158:60,1,210.599990359497,10|0,3:2|0:0,0:0:0:0:
250,59,114578,2,0,P|265:153|360:147,1,210.599990359497,2|0,3:2|0:0,0:0:0:0:
453,147,115037,2,0,P|456:241|361:242,1,210.599990359497,10|0,0:0|0:0,0:0:0:0:
157,225,115494,6,0,L|355:225,1,172.8,2|0,1:2|0:0,0:0:0:0:
264,225,115952,2,0,L|475:225,1,172.8,8|0,1:2|3:0,0:0:0:0:
436,225,116410,2,0,L|115:226,1,302.399990771485,2|0,1:2|0:0,0:0:0:0:
133,225,116868,2,0,L|454:226,1,302.399990771485,8|0,1:2|0:0,0:0:0:0:
132,248,117326,6,0,P|121:175|229:181,1,210.599990359497,2|0,1:2|0:0,0:0:0:0:
320,178,117784,2,0,P|410:200|416:108,1,210.599990359497,10|0,0:0|0:0,0:0:0:0:
325,107,118242,2,0,P|342:189|205:179,1,210.599990359497,2|0,3:2|0:0,0:0:0:0:
149,223,118700,2,0,P|160:144|282:109,1,210.599990359497,8|0,0:0|0:0,0:0:0:0:
365,105,119158,6,0,B|364:247|364:247|187:244,1,280.799987145997,2|8,1:2|1:2,0:0:0:0:
136,301,119845,2,0,B|55:277|47:168|58:49|140:80|283:79|283:79|80:79,1,561.599974291993,2|0,0:0|0:0,0:0:0:0:
440,257,120990,6,0,P|442:191|320:154,1,210.599990359497,2|0,1:2|0:0,0:0:0:0:
230,160,121448,2,0,P|135:147|158:60,1,210.599990359497,10|0,0:0|0:0,0:0:0:0:
250,59,121906,2,0,P|265:153|360:147,1,210.599990359497,2|0,3:2|0:0,0:0:0:0:
269,145,122365,2,0,P|191:200|269:248,1,210.599990359497,10|0,0:0|0:0,0:0:0:0:
440,250,122822,6,0,L|245:251,1,172.8,2|0,1:2|0:0,0:0:0:0:
332,250,123280,2,0,L|131:250,1,172.8,8|0,1:2|3:0,0:0:0:0:
159,250,123738,2,0,L|475:250,1,291.600001112366,2|0,1:2|0:0,0:0:0:0:
450,250,124196,2,0,L|84:249,1,356.400003398895,8|0,1:2|0:0,0:0:0:0:
395,256,124655,6,0,P|451:197|365:93,1,216,6|0,3:2|3:0,0:0:0:0:
282,95,125342,1,0,0:0:0:0:
389,95,125571,2,0,L|389:320,1,216,2|8,3:2|0:2,0:0:0:0:
105,315,126258,2,0,P|55:215|160:143,1,216,2|0,0:0|0:0,0:0:0:0:
223,146,126945,2,0,L|382:147,1,108,8|0,0:2|0:0,0:0:0:0:
158,146,127403,2,0,L|418:146,1,216,2|8,3:2|0:2,0:0:0:0:
374,146,128090,1,0,0:0:0:0:
86,269,128319,6,0,P|36:209|110:94,1,216,2|0,3:2|3:0,0:0:0:0:
199,108,129006,1,0,0:0:0:0:
92,108,129235,2,0,L|92:333,1,216,2|8,3:2|0:2,0:0:0:0:
376,328,129922,2,0,P|426:228|321:156,1,216,2|0,0:0|0:0,0:0:0:0:
258,159,130609,2,0,L|99:160,1,108,8|0,0:2|0:0,0:0:0:0:
323,159,131067,2,0,L|63:159,1,216,2|8,3:2|0:2,0:0:0:0:
107,159,131754,1,0,0:0:0:0:
392,320,131983,6,0,P|440:233|354:118,1,216,2|8,3:2|0:0,0:0:0:0:
284,135,132670,1,0,0:0:0:0:
391,135,132899,2,0,L|143:134,2,216,2|8|2,3:2|0:2|3:2,0:0:0:0:
175,135,134273,6,0,L|290:135,1,108,8|0,0:2|0:0,0:0:0:0:
390,135,134731,1,0,3:0:0:0:
472,178,134960,1,0,0:0:0:0:
472,285,135189,1,8,0:0:0:0:
390,135,135418,1,0,0:0:0:0:
94,322,135647,6,0,P|46:235|132:120,1,216,2|8,3:2|0:2,0:0:0:0:
202,137,136334,1,0,0:0:0:0:
95,137,136563,2,0,L|343:136,2,216,2|8|2,3:2|0:0|3:2,0:0:0:0:
311,137,137937,6,0,L|207:83,1,108,8|0,0:2|0:0,0:0:0:0:
121,141,138395,1,0,3:0:0:0:
39,184,138624,1,0,0:0:0:0:
39,291,138853,1,8,0:0:0:0:
121,141,139082,1,0,0:0:0:0:
409,248,139311,6,0,B|409:108|409:108|234:108,1,280.799987145997,6|8,3:2|0:0,0:0:0:0:
408,108,139998,1,0,0:0:0:0:
268,108,140227,2,0,P|416:201|411:246,1,216,2|8,3:2|0:0,0:0:0:0:
125,275,140914,2,0,B|125:134|125:134|287:135,1,280.799987145997,2|0,0:0|0:0,0:0:0:0:
124,134,141601,1,8,0:0:0:0:
264,134,141830,1,0,0:0:0:0:
124,134,142059,2,0,L|364:133,1,216,2|8,3:2|0:0,0:0:0:0:
373,133,142746,1,0,0:0:0:0:
73,249,142975,6,0,B|73:109|73:109|248:109,1,280.799987145997,2|8,3:2|0:0,0:0:0:0:
73,109,143662,1,0,0:0:0:0:
214,109,143891,2,0,P|66:202|71:247,1,216,2|8,3:2|0:0,0:0:0:0:
357,276,144578,2,0,B|357:135|357:135|195:136,1,280.799987145997,2|0,0:0|0:0,0:0:0:0:
357,135,145265,1,8,0:0:0:0:
217,135,145494,1,0,0:0:0:0:
357,135,145723,2,0,L|117:134,1,216,2|8,3:2|0:0,0:0:0:0:
110,134,146410,1,0,0:0:0:0:
400,302,146639,6,0,P|462:219|363:150,1,216,2|0,0:0|3:0,0:0:0:0:
290,113,147326,1,0,0:0:0:0:
398,113,147555,2,0,P|475:178|391:216,2,216,2|8|2,3:2|0:0|3:2,0:0:0:0:
182,113,148929,5,8,0:0:0:0:
397,113,149387,1,0,3:0:0:0:
469,186,149616,1,0,0:0:0:0:
396,269,149845,1,8,0:0:0:0:
469,186,150074,1,0,0:0:0:0:
155,312,150304,6,0,P|111:217|172:113,1,216,2|8,3:2|0:0,0:0:0:0:
265,123,150991,1,0,0:0:0:0:
157,123,151220,2,0,P|80:188|164:226,2,216,2|8|2,3:2|0:0|3:2,0:0:0:0:
373,123,152594,5,8,0:0:0:0:
168,121,153052,1,0,3:0:0:0:
96,194,153281,1,0,0:0:0:0:
169,277,153510,1,8,0:0:0:0:
96,194,153739,1,0,0:0:0:0:
387,194,153968,5,4,0:2:0:0:
256,192,166792,12,0,168052,0:0:0:0:
256,192,168166,12,0,168195,0:0:0:0:
256,192,168281,12,0,168310,0:0:0:0:
384,320,168624,6,0,B|384:179|384:179|242:178,1,280.799987145997,4|10,0:0|0:0,0:0:0:0:
352,178,169311,1,0,0:0:0:0:
213,274,169540,2,0,P|270:298|393:159,1,280.799987145997,2|8,0:0|0:0,0:0:0:0:
69,318,170227,6,0,B|69:178|69:178|241:178,1,280.799987145997,2|8,0:0|3:2,0:0:0:0:
74,178,170914,2,0,L|202:178,1,108,0|0,3:0|3:0,0:0:0:0:
354,178,171372,2,0,B|179:178|179:178|143:355,1,345.6,2|8,0:0|3:2,0:0:0:0:
144,345,172059,1,0,0:0:0:0:
430,338,172288,6,0,P|484:286|404:197,1,216,2|0,0:0|0:0,0:0:0:0:
300,198,172975,1,0,0:0:0:0:
192,198,173204,2,0,L|304:199,2,108
364,198,173890,1,0,0:0:0:0:
78,206,174119,6,0,L|299:206,1,194.399994067383,0|0,1:0|0:0,0:0:0:0:
198,206,174577,2,0,L|418:206,1,194.399994067383
392,206,175035,2,0,L|27:207,1,291.600001112366,0|0,1:0|3:0,0:0:0:0:
100,206,175494,2,0,L|494:206,1,324.00001235962,0|0,1:0|3:0,0:0:0:0:
115,328,175951,6,0,B|99:187|99:187|266:187,1,280.799987145997,4|8,0:0|0:0,0:0:0:0:
129,187,176638,1,0,0:0:0:0:
302,291,176868,2,0,P|194:330|162:151,1,345.6,2|8,0:0|0:0,0:0:0:0:
468,293,177554,6,0,B|468:152|468:152|306:152,1,280.799987145997,2|8,0:0|3:2,0:0:0:0:
436,152,178241,2,0,L|310:153,1,108,0|0,3:0|3:0,0:0:0:0:
155,152,178699,2,0,L|401:152,1,216,2|8,0:0|0:0,0:0:0:0:
371,152,179386,1,0,0:0:0:0:
82,335,179615,6,0,P|43:280|110:161,1,216,2|0,0:0|0:0,0:0:0:0:
212,195,180304,1,0,0:0:0:0:
320,195,180533,2,0,L|208:196,2,108
148,195,181220,1,0,0:0:0:0:
444,191,181449,6,0,L|204:190,1,172.8,2|0,1:2|0:0,0:0:0:0:
336,190,181907,2,0,L|96:189,1,172.8
163,189,182365,2,0,L|527:189,1,291.600001112366,0|0,1:0|3:0,0:0:0:0:
454,189,182823,2,0,L|87:189,1,345.6,0|0,2:0|3:0,0:0:0:0:
396,269,183281,6,0,P|411:207|295:176,1,210.599990359497,2|0,1:2|0:0,0:0:0:0:
202,168,183738,2,0,P|107:155|130:68,1,210.599990359497,10|0,0:0|0:0,0:0:0:0:
222,67,184197,2,0,P|237:161|332:155,1,210.599990359497,2|0,3:2|0:0,0:0:0:0:
425,155,184654,2,0,P|428:249|333:250,1,210.599990359497,10|0,0:0|0:0,0:0:0:0:
262,249,185112,2,0,B|262:109|262:109|114:109,1,280.799987145997,2|8,3:2|1:2,0:0:0:0:
404,289,185799,2,0,B|485:265|493:156|482:37|400:68|257:67|257:67|460:67,1,561.599974291993
106,267,186944,6,0,P|104:201|226:164,1,210.599990359497,2|0,1:2|0:0,0:0:0:0:
316,170,187402,2,0,P|411:157|388:70,1,210.599990359497,10|0,3:2|0:0,0:0:0:0:
296,69,187860,2,0,P|281:163|186:157,1,210.599990359497,2|0,3:2|0:0,0:0:0:0:
93,157,188319,2,0,P|90:251|185:252,1,210.599990359497,10|0,0:0|0:0,0:0:0:0:
389,235,188777,6,0,L|167:235,1,172.8,2|0,1:2|0:0,0:0:0:0:
281,235,189234,2,0,L|81:234,1,172.8,8|0,1:2|3:0,0:0:0:0:
108,234,189692,2,0,L|429:235,1,302.399990771485,2|0,1:2|0:0,0:0:0:0:
410,234,190150,2,0,L|89:235,1,302.399990771485,8|0,1:2|0:0,0:0:0:0:
414,258,190608,6,0,P|425:185|317:191,1,210.599990359497,2|0,1:2|0:0,0:0:0:0:
226,188,191066,2,0,P|136:210|130:118,1,210.599990359497,10|0,0:0|0:0,0:0:0:0:
221,117,191524,2,0,P|204:199|341:189,1,210.599990359497,2|0,3:2|0:0,0:0:0:0:
397,233,191982,2,0,P|386:154|264:119,1,210.599990359497,8|0,0:0|0:0,0:0:0:0:
181,115,192440,6,0,B|182:257|182:257|359:254,1,280.799987145997,2|8,1:2|1:2,0:0:0:0:
410,311,193127,2,0,B|491:287|499:178|488:59|406:90|263:89|263:89|466:89,1,561.599974291993,2|0,0:0|0:0,0:0:0:0:
106,267,194272,6,0,P|104:201|226:164,1,210.599990359497,2|0,1:2|0:0,0:0:0:0:
316,170,194730,2,0,P|411:157|388:70,1,210.599990359497,10|0,0:0|0:0,0:0:0:0:
296,69,195188,2,0,P|281:163|186:157,1,210.599990359497,2|0,3:2|0:0,0:0:0:0:
277,155,195647,2,0,P|355:210|277:258,1,210.599990359497,10|0,0:0|0:0,0:0:0:0:
106,260,196105,6,0,L|288:260,1,172.8,2|0,1:2|0:0,0:0:0:0:
213,260,196562,2,0,L|440:260,1,172.8,8|0,0:0|3:0,0:0:0:0:
385,260,197020,2,0,L|69:260,1,291.600001112366,2|0,1:2|0:0,0:0:0:0:
93,260,197478,2,0,L|459:259,2,356.400003398895,8|0|8,1:2|0:0|0:1,0:0:0:0:
106,259,197966,1,0,0:0:0:0:
