osu file format v14

[General]
AudioFilename: audio.mp3
AudioLeadIn: 0
PreviewTime: 95227
Countdown: 0
SampleSet: Soft
StackLeniency: 1
Mode: 2
LetterboxInBreaks: 0
WidescreenStoryboard: 1

[Editor]
Bookmarks: 7403,22059,36716,44044,58700,73357,88013,95342,109998,124655,153968,168624,183281,197937
DistanceSpacing: 1.3
BeatDivisor: 4
GridSize: 16
TimelineZoom: 2.899999

[Metadata]
Title:Pretty Little Psycho
TitleUnicode:Pretty Little Psycho
Artist:Porcelain Black
ArtistUnicode:Porcelain Black
Creator:M0RU
Version:Kimitakari's Platter
Source:
Tags:moru juansy- nelly kimitakari english pop rock club electronic female vocals mannequin factory reze レゼ
BeatmapID:3954448
BeatmapSetID:1858686

[Difficulty]
HPDrainRate:4
CircleSize:4
OverallDifficulty:7.1
ApproachRate:7.1
SliderMultiplier:2.1
SliderTickRate:2

[Events]
//Background and Video events
0,0,"furoagarinotomo.jpg",0,0
//Break Periods
2,7145,13846
2,154168,165907
//Storyboard Layer 0 (Background)
//Storyboard Layer 1 (Fail)
//Storyboard Layer 2 (Pass)
//Storyboard Layer 3 (Foreground)
//Storyboard Layer 4 (Overlay)
//Storyboard Sound Samples

[TimingPoints]
75,458.015267175573,4,2,0,40,1,0
991,-100,4,2,0,30,0,0
1449,-100,4,2,0,40,0,0
3739,-100,4,2,1,40,0,0
4426,-100,4,2,0,40,0,0
6716,-100,4,2,1,40,0,0
7174,-100,4,2,0,40,0,0
7403,-100,4,2,0,50,0,0
7632,-100,4,3,0,30,0,0
8090,-100,4,2,1,30,0,0
9235,-100,4,3,0,30,0,0
9922,-100,4,2,1,30,0,0
11067,-100,4,3,0,30,0,0
11754,-100,4,2,1,30,0,0
12899,-100,4,3,0,30,0,0
13586,-100,4,2,1,30,0,0
14731,-100,4,2,0,45,0,0
14960,-100,4,2,1,45,0,0
15189,-100,4,3,0,45,0,0
15418,-100,4,2,1,45,0,0
15647,-100,4,3,0,45,0,0
15876,-100,4,2,1,45,0,0
16105,-100,4,3,0,45,0,0
16334,-100,4,2,1,45,0,0
16563,-100,4,1,0,55,0,0
16792,-100,4,2,1,55,0,0
17021,-100,4,3,0,55,0,0
17250,-100,4,2,1,55,0,0
17479,-100,4,3,0,55,0,0
17708,-100,4,2,1,55,0,0
17937,-100,4,3,0,55,0,0
18166,-100,4,2,1,55,0,0
18395,-100,4,1,0,55,0,0
18624,-100,4,2,1,55,0,0
18853,-100,4,3,0,55,0,0
19082,-100,4,2,1,55,0,0
19311,-100,4,3,0,55,0,0
19540,-100,4,2,1,55,0,0
19769,-100,4,3,0,55,0,0
19998,-100,4,2,1,55,0,0
20227,-100,4,1,0,55,0,0
20456,-100,4,2,1,55,0,0
20685,-100,4,3,0,55,0,0
20914,-100,4,2,1,55,0,0
21143,-100,4,3,0,55,0,0
21372,-100,4,2,1,55,0,0
21601,-100,4,1,2,55,0,0
21830,-100,4,2,0,55,0,0
22059,-100,4,2,0,65,0,0
25323,-100,4,2,0,35,0,0
25494,-100,4,2,0,65,0,0
28700,-100,4,2,2,55,0,0
29158,-100,4,2,0,65,0,0
36258,-100,4,2,2,65,0,0
36487,-100,4,2,0,50,0,0
37632,-100,4,2,0,50,0,0
37861,-100,4,2,1,50,0,0
38319,-100,4,2,0,50,0,0
38548,-100,4,2,0,50,0,0
38777,-100,4,2,1,50,0,0
39006,-100,4,3,0,50,0,0
39235,-100,4,2,1,50,0,0
39464,-100,4,3,0,50,0,0
39693,-100,4,2,1,50,0,0
39922,-100,4,1,0,50,0,0
40151,-100,4,2,0,50,0,0
41296,-100,4,2,0,50,0,0
41525,-100,4,2,1,50,0,0
41983,-100,4,2,0,45,0,0
42212,-100,4,2,0,55,0,0
43586,-100,4,2,2,65,0,0
43815,-100,4,2,0,75,0,0
44044,-100,4,2,1,75,0,1
44473,-100,4,2,1,15,0,1
44502,-100,4,2,1,75,0,1
44931,-100,4,2,1,15,0,1
44960,-100,4,2,1,75,0,1
46076,-100,4,2,1,15,0,1
46105,-100,4,2,1,75,0,1
46305,-100,4,2,1,15,0,1
46334,-100,4,2,1,75,0,1
47221,-100,4,2,1,15,0,1
47250,-100,4,2,1,75,0,1
48166,-100,4,2,0,75,0,1
48395,-100,4,2,1,75,0,1
48624,-100,4,3,0,75,0,1
48853,-100,4,2,1,75,0,1
49082,-100,4,3,0,75,0,1
49311,-100,4,2,1,75,0,1
49741,-100,4,2,1,15,0,1
49769,-100,4,2,1,75,0,1
49998,-100,4,1,0,75,0,1
50227,-100,4,2,1,75,0,1
51802,-100,4,2,1,15,0,1
51830,-100,4,2,1,75,0,1
52260,-100,4,2,1,15,0,1
52288,-100,4,2,1,75,0,1
53433,-100,4,2,1,75,0,1
53662,-100,4,2,1,75,0,1
55494,-100,4,3,0,75,0,1
55723,-100,4,2,1,75,0,1
55952,-100,4,3,0,75,0,1
56181,-100,4,2,1,75,0,1
56410,-100,4,1,0,75,0,1
56639,-100,4,2,1,75,0,0
57097,-100,4,2,1,75,0,0
57326,-100,4,1,0,75,0,0
57555,-100,4,2,1,75,0,0
58700,-100,4,2,1,75,0,1
59130,-100,4,2,1,15,0,1
59158,-100,4,2,1,75,0,1
59588,-100,4,2,1,15,0,1
59616,-100,4,2,1,75,0,1
60046,-100,4,2,1,15,0,1
60075,-100,4,2,1,75,0,1
60504,-100,4,2,1,15,0,1
60533,-100,4,2,1,75,0,1
60962,-100,4,2,1,15,0,1
60991,-100,4,2,1,75,0,1
61220,-100,4,1,0,75,0,1
61449,-100,4,2,1,75,0,1
62794,-100,4,2,1,15,0,1
62823,-100,4,2,1,75,0,1
63252,-100,4,2,1,15,0,1
63281,-100,4,2,1,75,0,1
63710,-100,4,2,1,15,0,1
63739,-100,4,2,1,75,0,1
64168,-100,4,2,1,15,0,1
64197,-100,4,2,1,75,0,1
64426,-100,4,1,0,75,0,1
64655,-100,4,2,1,75,0,1
65113,-100,4,2,1,75,0,1
65800,-100,4,2,1,75,0,1
66458,-100,4,2,1,15,0,1
66487,-100,4,2,1,75,0,1
66916,-100,4,2,1,15,0,1
66945,-100,4,2,1,75,0,1
67374,-100,4,2,1,15,0,1
67403,-100,4,2,1,75,0,1
67832,-100,4,2,1,15,0,1
67861,-100,4,2,1,75,0,1
70122,-100,4,2,1,15,0,1
70151,-100,4,2,1,75,0,1
70580,-100,4,2,1,15,0,1
70609,-100,4,2,1,75,0,1
71038,-100,4,2,1,15,0,1
71067,-100,4,2,1,75,0,1
71496,-100,4,2,1,15,0,1
71525,-100,4,2,1,75,0,1
72441,-100,4,2,1,75,0,1
73128,-100,4,2,1,75,0,1
73357,-100,4,2,0,65,0,0
74731,-100,4,2,0,65,0,0
74960,-100,4,2,0,65,0,0
76563,-100,4,2,0,65,0,0
76792,-100,4,2,0,65,0,0
78395,-100,4,2,0,65,0,0
78624,-100,4,2,0,65,0,0
78853,-100,4,2,0,65,0,0
79082,-100,4,2,0,65,0,0
79540,-100,4,2,0,65,0,0
79998,-100,4,2,0,55,0,0
80456,-100,4,2,0,65,0,0
82975,-100,4,2,0,65,0,0
83204,-100,4,2,0,65,0,0
83891,-100,4,2,0,65,0,0
84120,-100,4,2,0,65,0,0
84807,-100,4,2,0,65,0,0
85036,-100,4,2,0,65,0,0
85723,-100,4,2,0,65,0,0
85952,-100,4,2,0,65,0,0
86639,-100,4,2,0,65,0,0
86868,-100,4,2,0,65,0,0
87555,-100,4,2,2,55,0,0
87784,-100,4,2,0,65,0,0
88013,-100,4,2,0,50,0,0
88929,-100,4,2,0,50,0,0
89158,-100,4,2,1,50,0,0
89616,-100,4,2,0,50,0,0
89845,-100,4,2,0,50,0,0
90075,-100,4,2,1,50,0,0
90303,-100,4,3,0,50,0,0
90532,-100,4,2,1,50,0,0
90761,-100,4,3,0,50,0,0
90990,-100,4,2,1,50,0,0
91219,-100,4,1,0,50,0,0
91448,-100,4,2,0,50,0,0
91449,-100,4,2,0,50,0,0
92594,-100,4,2,0,50,0,0
92823,-100,4,2,1,50,0,0
93281,-100,4,2,0,45,0,0
94884,-100,4,2,2,65,0,0
95113,-100,4,2,0,75,0,0
95342,-100,4,2,1,75,0,1
95771,-100,4,2,1,15,0,1
95800,-100,4,2,1,75,0,1
96229,-100,4,2,1,15,0,1
96258,-100,4,2,1,75,0,1
96716,-100,4,2,1,75,0,1
96945,-100,4,2,1,75,0,1
97374,-100,4,2,1,15,0,1
97403,-100,4,2,1,75,0,1
97603,-100,4,2,1,15,0,1
97632,-100,4,2,1,75,0,1
98090,-100,4,2,1,75,0,1
98519,-100,4,2,1,15,0,1
98548,-100,4,2,1,75,0,1
98892,-100,4,2,1,75,0,1
99006,-100,4,2,1,75,0,1
99235,-100,4,2,1,75,0,1
99464,-100,4,3,0,75,0,1
99693,-100,4,2,1,75,0,1
99922,-100,4,3,0,75,0,1
100151,-100,4,2,1,75,0,1
100380,-100,4,3,0,75,0,1
100609,-100,4,2,1,75,0,1
100838,-100,4,2,1,75,0,1
101039,-100,4,2,1,15,0,1
101067,-100,4,2,1,75,0,1
101296,-100,4,1,0,75,0,1
101525,-100,4,2,1,75,0,1
101754,-100,4,2,1,75,0,1
102441,-100,4,2,1,75,0,1
102670,-100,4,2,1,75,0,1
103100,-100,4,2,1,15,0,1
103128,-100,4,2,1,75,0,1
103558,-100,4,2,1,15,0,1
103586,-100,4,2,1,75,0,1
104044,-100,4,2,1,75,0,1
104703,-100,4,2,1,15,0,1
104731,-100,4,2,1,75,0,1
104932,-100,4,2,1,15,0,1
104960,-100,4,2,1,75,0,1
105418,-100,4,2,1,75,0,1
105876,-100,4,2,1,75,0,1
106334,-100,4,2,1,75,0,1
106563,-100,4,2,1,75,0,1
106792,-100,4,3,0,75,0,1
107021,-100,4,2,1,75,0,1
107250,-100,4,3,0,75,0,1
107479,-100,4,2,1,75,0,1
107708,-100,4,1,0,75,0,1
107937,-100,4,2,1,75,0,1
108166,-100,4,2,1,75,0,0
108367,-100,4,2,1,15,0,0
108395,-100,4,2,1,75,0,0
108624,-100,4,1,0,75,0,0
108853,-100,4,2,1,75,0,0
109082,-100,4,2,1,75,0,0
109884,-100,4,2,1,75,0,0
109998,-100,4,2,1,75,0,1
110428,-100,4,2,1,15,0,1
110456,-100,4,2,1,75,0,1
110886,-100,4,2,1,15,0,1
110914,-100,4,2,1,75,0,1
111344,-100,4,2,1,15,0,1
111373,-100,4,2,1,75,0,1
111802,-100,4,2,1,15,0,1
111831,-100,4,2,1,75,0,1
112260,-100,4,2,1,15,0,1
112289,-100,4,2,1,75,0,1
112518,-100,4,1,0,75,0,1
112747,-100,4,2,1,75,0,1
114092,-100,4,2,1,15,0,1
114121,-100,4,2,1,75,0,1
114550,-100,4,2,1,15,0,1
114579,-100,4,2,1,75,0,1
115008,-100,4,2,1,15,0,1
115037,-100,4,2,1,75,0,1
115466,-100,4,2,1,15,0,1
115495,-100,4,2,1,75,0,1
115724,-100,4,1,0,75,0,1
115953,-100,4,2,1,75,0,1
116411,-100,4,2,1,75,0,1
117098,-100,4,2,1,75,0,1
117756,-100,4,2,1,15,0,1
117785,-100,4,2,1,75,0,1
118214,-100,4,2,1,15,0,1
118243,-100,4,2,1,75,0,1
118672,-100,4,2,1,15,0,1
118701,-100,4,2,1,75,0,1
119130,-100,4,2,1,15,0,1
119159,-100,4,2,1,75,0,1
121420,-100,4,2,1,15,0,1
121449,-100,4,2,1,75,0,1
121878,-100,4,2,1,15,0,1
121907,-100,4,2,1,75,0,1
122336,-100,4,2,1,15,0,1
122365,-100,4,2,1,75,0,1
122794,-100,4,2,1,15,0,1
122823,-100,4,2,1,75,0,1
123739,-100,4,2,1,75,0,1
124426,-100,4,2,1,75,0,1
124655,-100,4,2,0,50,0,0
126487,-100,4,3,0,50,0,0
126716,-100,4,2,0,50,0,0
130151,-100,4,3,0,50,0,0
130380,-100,4,2,0,50,0,0
139311,-100,4,2,0,60,0,0
141143,-100,4,3,0,60,0,0
141372,-100,4,2,0,60,0,0
144807,-100,4,3,0,60,0,0
145036,-100,4,2,0,60,0,0
153968,-100,4,2,1,40,0,0
166792,-100,4,2,1,45,0,0
167708,-100,4,2,1,50,0,0
168166,-100,4,2,1,55,0,0
168624,-100,4,2,1,75,0,1
169053,-100,4,2,1,15,0,1
169082,-100,4,2,1,75,0,1
169511,-100,4,2,1,15,0,1
169540,-100,4,2,1,75,0,1
170656,-100,4,2,1,15,0,1
170685,-100,4,2,1,75,0,1
170885,-100,4,2,1,15,0,1
170914,-100,4,2,1,75,0,1
171801,-100,4,2,1,15,0,1
171830,-100,4,2,1,75,0,1
172746,-100,4,3,0,75,0,1
172975,-100,4,2,1,75,0,1
173204,-100,4,3,0,75,0,1
173433,-100,4,2,1,75,0,1
173662,-100,4,3,0,75,0,1
173891,-100,4,2,1,75,0,1
174321,-100,4,2,1,75,0,1
174349,-100,4,2,1,75,0,1
174578,-100,4,1,0,75,0,1
174807,-100,4,2,1,75,0,1
176382,-100,4,2,1,15,0,1
176410,-100,4,2,1,75,0,1
176840,-100,4,2,1,15,0,1
176868,-100,4,2,1,75,0,1
177985,-100,4,2,1,15,0,1
178013,-100,4,2,1,75,0,1
178214,-100,4,2,1,15,0,1
178242,-100,4,2,1,75,0,1
180074,-100,4,3,0,75,0,1
180303,-100,4,2,1,75,0,1
180532,-100,4,3,0,75,0,1
180761,-100,4,2,1,75,0,1
180990,-100,4,1,0,75,0,1
181219,-100,4,2,1,75,0,1
181449,-100,4,2,1,75,0,0
181649,-100,4,2,1,75,0,0
181677,-100,4,2,1,75,0,0
181906,-100,4,1,0,75,0,0
182135,-100,4,2,1,75,0,0
183281,-100,4,2,1,75,0,1
183710,-100,4,2,1,15,0,1
183738,-100,4,2,1,75,0,1
184168,-100,4,2,1,15,0,1
184196,-100,4,2,1,75,0,1
184626,-100,4,2,1,15,0,1
184655,-100,4,2,1,75,0,1
185084,-100,4,2,1,15,0,1
185113,-100,4,2,1,75,0,1
185542,-100,4,2,1,15,0,1
185571,-100,4,2,1,75,0,1
185800,-100,4,1,0,75,0,1
186029,-100,4,2,1,75,0,1
187374,-100,4,2,1,15,0,1
187403,-100,4,2,1,75,0,1
187832,-100,4,2,1,15,0,1
187861,-100,4,2,1,75,0,1
188290,-100,4,2,1,15,0,1
188319,-100,4,2,1,75,0,1
188748,-100,4,2,1,15,0,1
188777,-100,4,2,1,75,0,1
189006,-100,4,1,0,75,0,1
189235,-100,4,2,1,75,0,1
191038,-100,4,2,1,15,0,1
191067,-100,4,2,1,75,0,1
191496,-100,4,2,1,15,0,1
191525,-100,4,2,1,75,0,1
191954,-100,4,2,1,15,0,1
191983,-100,4,2,1,75,0,1
192412,-100,4,2,1,15,0,1
192441,-100,4,2,1,75,0,1
194702,-100,4,2,1,15,0,1
194731,-100,4,2,1,75,0,1
195160,-100,4,2,1,15,0,1
195189,-100,4,2,1,75,0,1
195618,-100,4,2,1,15,0,1
195647,-100,4,2,1,75,0,1
196076,-100,4,2,1,15,0,1
196105,-100,4,2,1,75,0,1
197880,-100,4,2,1,45,0,1
197937,-100,4,2,1,45,0,0

[Colours]
Combo1 : 35,59,196
Combo2 : 242,199,29
Combo3 : 243,135,158
Combo4 : 128,218,122
Combo5 : 135,195,219

[HitObjects]
93,366,75,6,0,L|90:134,1,210,2|2,0:0|0:0,0:0:0:0:
259,296,991,2,0,L|262:64,1,210,2|0,0:0|0:0,0:0:0:0:
367,66,1678,2,0,L|369:288,1,210,2|0,0:0|0:0,0:0:0:0:
203,319,2594,1,0,0:0:0:0:
318,305,2823,2,0,L|321:81,1,210,2|0,0:0|0:0,0:0:0:0:
215,76,3510,1,0,0:0:0:0:
110,76,3739,6,0,L|109:190,1,105,0|0,3:0|0:0,0:0:0:0:
214,180,4197,2,0,L|215:294,1,105,0|0,3:0|0:0,0:0:0:0:
319,284,4655,1,0,0:0:0:0:
214,284,4884,2,0,L|196:170,2,105
319,284,5571,5,2,3:2:0:0:
214,284,5800,2,0,L|328:286,2,105,0|2|0,0:0|3:2|0:0,0:0:0:0:
402,284,6487,2,0,L|172:282,1,210,2|0,0:0|0:0,0:0:0:0:
429,48,14731,5,0,1:0:0:0:
432,124,15189,1,0,0:0:0:0:
434,201,15647,1,0,0:0:0:0:
436,277,16105,1,0,0:0:0:0:
268,277,16563,1,0,0:0:0:0:
266,201,17021,1,0,0:0:0:0:
433,201,17479,1,0,0:0:0:0:
435,125,17937,1,0,0:0:0:0:
266,335,18395,5,0,0:0:0:0:
264,259,18853,1,0,0:0:0:0:
262,182,19311,1,0,0:0:0:0:
259,106,19769,1,0,0:0:0:0:
91,106,20227,1,0,0:0:0:0:
88,182,20685,1,0,0:0:0:0:
255,182,21143,1,0,0:0:0:0:
257,257,21601,2,0,P|240:339|152:357,1,157.5,8|0,0:2|0:0,0:0:0:0:
71,363,22059,6,0,L|61:306,2,52.5,2|0|0,3:2|0:0|0:0,0:0:0:0:
259,363,22517,2,0,L|373:361,1,105,8|0,0:0|0:0,0:0:0:0:
259,363,22975,2,0,L|257:249,1,105,2|0,3:2|0:0,0:0:0:0:
68,258,23433,2,0,L|182:256,1,105,8|0,0:0|0:0,0:0:0:0:
277,256,23891,5,2,3:2:0:0:
172,256,24120,1,0,0:0:0:0:
360,256,24349,2,0,L|362:142,1,105,8|0,0:0|0:0,0:0:0:0:
256,151,24807,2,0,L|142:149,1,105,2|0,3:2|0:0,0:0:0:0:
340,149,25265,2,0,L|454:147,1,105,8|0,0:0|0:0,0:0:0:0:
340,149,25723,6,0,L|226:147,1,105,2|0,3:2|0:0,0:0:0:0:
214,204,26067,1,0,0:0:0:0:
225,146,26181,2,0,L|339:148,1,105,8|0,0:0|0:0,0:0:0:0:
224,147,26639,2,0,L|222:261,1,105,2|0,3:2|0:0,0:0:0:0:
411,251,27097,2,0,L|297:249,1,105,8|0,0:0|0:0,0:0:0:0:
201,249,27555,5,2,3:2:0:0:
210,133,27784,1,0,0:0:0:0:
21,133,28013,2,0,L|135:131,1,105,8|0,0:0|0:0,0:0:0:0:
230,131,28471,1,0,3:0:0:0:
125,131,28700,1,8,0:3:0:0:
314,134,28929,2,0,L|200:132,1,105,8|8,1:2|0:3,0:0:0:0:
398,336,29387,5,2,3:2:0:0:
450,336,29502,2,0,L|452:222,1,105,0|2,0:0|0:0,0:0:0:0:
326,231,29845,2,0,L|212:229,1,105
168,229,30189,1,0,0:0:0:0:
225,227,30303,1,2,3:2:0:0:
282,226,30418,2,0,L|284:340,1,105,0|2,0:0|0:0,0:0:0:0:
157,193,30762,2,0,L|155:307,1,105
260,297,31220,6,0,L|374:299,2,105,2|0|8,3:2|0:0|0:0,0:0:0:0:
155,297,31907,1,0,0:0:0:0:
212,295,32021,1,0,0:0:0:0:
269,294,32136,2,0,L|271:180,1,105,2|0,3:2|0:0,0:0:0:0:
459,189,32594,2,0,L|345:187,1,105,10|0,0:0|0:0,0:0:0:0:
250,123,33052,5,2,3:2:0:0:
354,123,33281,1,0,0:0:0:0:
164,196,33510,2,0,L|162:310,1,105,8|0,0:0|0:0,0:0:0:0:
267,300,33968,2,0,L|268:195,1,105,2|0,3:2|0:0,0:0:0:0:
80,305,34426,2,0,L|78:191,1,105,8|0,0:0|0:0,0:0:0:0:
183,200,34884,5,2,3:2:0:0:
68,197,35113,1,0,0:0:0:0:
256,197,35342,1,8,0:0:0:0:
360,197,35571,1,0,0:0:0:0:
256,197,35800,1,2,3:2:0:0:
360,197,36029,1,0,3:0:0:0:
171,197,36258,1,8,0:2:0:0:
286,194,36487,1,0,0:0:0:0:
475,23,36716,6,0,L|477:252,1,210,2|2,3:2|0:1,0:0:0:0:
308,232,37632,2,0,L|422:230,1,105,2|0,3:2|0:0,0:0:0:0:
309,274,38090,2,0,L|307:160,1,105
203,73,38548,5,0,3:0:0:0:
360,73,38891,2,0,L|361:129,1,52.5
255,125,39235,1,0,0:0:0:0:
66,24,39464,2,0,L|64:253,1,210
235,101,40380,6,0,L|237:330,1,210,2|2,3:2|0:1,0:0:0:0:
68,310,41296,2,0,L|182:308,1,105,2|0,3:2|0:0,0:0:0:0:
277,308,41754,2,0,L|163:306,1,105
280,360,42212,5,0,3:0:0:0:
375,325,42441,1,0,1:0:0:0:
434,242,42670,1,0,3:0:0:0:
429,138,42899,1,0,1:0:0:0:
363,56,43128,1,0,3:0:0:0:
271,23,43357,1,0,1:0:0:0:
82,23,43586,2,0,L|79:137,1,105,8|0,1:2|0:0,0:0:0:0:
369,273,44044,6,0,L|483:271,1,105,4|0,0:0|0:0,0:0:0:0:
369,273,44502,2,0,L|367:159,1,105,10|0,0:0|0:0,0:0:0:0:
178,168,44960,2,0,L|408:165,1,210,2|8,0:0|0:0,0:0:0:0:
282,165,45647,6,0,L|280:279,1,105,2|0,0:0|0:0,0:0:0:0:
385,269,46105,1,8,3:2:0:0:
196,269,46334,2,0,L|82:267,1,105,0|0,3:0|3:0,0:0:0:0:
279,268,46792,2,0,P|232:164|134:137,1,210,2|8,0:0|3:2,0:0:0:0:
146,135,47479,1,0,0:0:0:0:
334,135,47708,6,0,L|448:133,1,105,2|0,0:0|0:0,0:0:0:0:
334,135,48166,2,0,L|332:249,1,105,8|0,0:0|0:0,0:0:0:0:
227,239,48624,1,0,0:0:0:0:
332,239,48853,2,0,L|218:237,2,105,0|8|0,0:0|0:2|0:0,0:0:0:0:
139,246,49540,5,0,1:0:0:0:
243,246,49769,2,0,L|129:248,2,105
431,246,50456,1,0,1:0:0:0:
315,243,50685,1,0,3:0:0:0:
199,329,50914,1,0,1:0:0:0:
315,326,51143,1,0,3:0:0:0:
126,326,51372,6,0,L|127:221,1,105,4|0,0:0|0:0,0:0:0:0:
232,221,51830,2,0,L|234:107,1,105,8|0,0:0|0:0,0:0:0:0:
422,116,52288,2,0,L|192:113,1,210,2|8,0:0|0:0,0:0:0:0:
107,113,52975,2,0,L|221:111,2,105,2|0|8,0:0|0:0|3:2,0:0:0:0:
296,360,53662,2,0,L|298:246,1,105,0|0,3:0|3:0,0:0:0:0:
107,254,54120,2,0,P|42:181|125:117,1,210,2|8,0:0|0:0,0:0:0:0:
108,116,54807,1,0,0:0:0:0:
296,116,55036,6,0,L|182:114,1,105,2|0,0:0|0:0,0:0:0:0:
296,116,55494,2,0,L|298:230,1,105,8|0,0:2|2:0,0:0:0:0:
402,220,55952,2,0,L|404:106,1,105,0|0,3:0|0:2,0:0:0:0:
296,116,56410,2,0,L|294:230,1,105,8|0,2:2|0:2,0:0:0:0:
104,321,56868,5,2,1:2:0:0:
101,207,57097,1,0,0:0:0:0:
205,207,57326,1,0,0:0:0:0:
101,207,57555,1,0,0:0:0:0:
205,207,57784,1,0,1:0:0:0:
393,207,58013,1,0,3:0:0:0:
205,207,58242,2,0,L|91:204,1,105,10|0,1:2|3:0,0:0:0:0:
417,305,58700,6,0,L|419:191,1,105,2|0,1:2|0:0,0:0:0:0:
229,200,59158,2,0,L|115:198,1,105,10|0,0:0|0:0,0:0:0:0:
228,361,59616,2,0,L|230:247,1,105,2|0,3:2|0:0,0:0:0:0:
422,137,60075,2,0,L|308:135,1,105,10|0,0:0|0:0,0:0:0:0:
212,135,60533,6,0,P|260:139|310:293,1,210,2|8,3:2|1:2,0:0:0:0:
217,269,61220,2,0,L|331:267,1,105,0|0,0:0|3:0,0:0:0:0:
426,267,61678,1,2,0:0:0:0:
237,255,61907,2,0,L|235:141,1,105,0|0,3:0|0:0,0:0:0:0:
340,127,62365,6,0,L|226:125,1,105,2|0,1:2|0:0,0:0:0:0:
424,119,62823,2,0,L|426:233,1,105,10|0,3:2|0:0,0:0:0:0:
320,223,63281,2,0,L|318:337,1,105,2|0,3:2|0:0,0:0:0:0:
129,328,63739,2,0,L|127:214,1,105,10|0,0:0|0:0,0:0:0:0:
316,101,64197,5,2,1:2:0:0:
420,101,64426,1,0,0:0:0:0:
316,101,64655,1,8,1:2:0:0:
420,101,64884,1,0,3:0:0:0:
231,146,65113,1,2,1:2:0:0:
126,146,65342,1,0,0:0:0:0:
231,146,65571,1,8,1:2:0:0:
335,146,65800,1,0,0:0:0:0:
145,227,66029,6,0,L|143:341,1,105,2|0,1:2|0:0,0:0:0:0:
332,331,66487,2,0,L|446:329,1,105,10|0,0:0|0:0,0:0:0:0:
332,331,66945,2,0,L|330:217,1,105,2|0,3:2|0:0,0:0:0:0:
141,226,67403,2,0,L|255:224,1,105,8|0,0:0|0:0,0:0:0:0:
352,69,67861,6,0,P|304:73|254:227,1,210,2|8,1:2|1:2,0:0:0:0:
345,227,68548,2,0,L|343:341,1,105,2|0,0:0|3:0,0:0:0:0:
239,343,69006,1,2,0:0:0:0:
427,343,69235,2,0,L|429:229,1,105,0|0,3:0|0:0,0:0:0:0:
324,209,69693,6,0,L|438:207,1,105,2|0,1:2|0:0,0:0:0:0:
239,207,70151,2,0,L|125:205,1,105,10|0,0:0|0:0,0:0:0:0:
239,207,70609,2,0,L|241:321,1,105,2|0,3:2|0:0,0:0:0:0:
427,312,71067,2,0,L|429:198,1,105,10|0,0:0|0:0,0:0:0:0:
239,207,71525,5,2,1:2:0:0:
343,207,71754,1,0,0:0:0:0:
239,207,71983,1,8,1:2:0:0:
343,207,72212,1,0,3:0:0:0:
154,156,72441,1,2,1:2:0:0:
154,260,72670,1,0,0:0:0:0:
463,286,72899,1,8,1:2:0:0:
293,225,73357,6,0,L|407:223,1,105,2|0,3:2|0:0,0:0:0:0:
208,223,73815,2,0,L|206:109,1,105,8|0,0:0|0:0,0:0:0:0:
311,118,74273,2,0,L|197:116,1,105,2|0,3:2|0:0,0:0:0:0:
395,116,74731,2,0,L|397:229,1,105,8|0,0:0|0:0,0:0:0:0:
291,220,75189,6,0,L|177:218,1,105,2|0,3:2|0:0,0:0:0:0:
291,218,75647,2,0,L|300:105,1,105,8|0,0:0|0:0,0:0:0:0:
195,218,76105,2,0,L|205:113,1,105,2|0,3:2|0:0,0:0:0:0:
16,115,76563,2,0,L|130:113,1,105,8|0,0:0|0:0,0:0:0:0:
225,198,77021,6,0,L|111:196,1,105,2|0,3:2|0:0,0:0:0:0:
110,255,77365,1,0,0:0:0:0:
121,197,77479,2,0,L|235:199,1,105,8|0,0:0|0:0,0:0:0:0:
329,196,77937,2,0,L|215:198,1,105,2|0,3:2|0:0,0:0:0:0:
413,297,78395,2,0,L|415:182,1,105,8|0,0:0|0:0,0:0:0:0:
309,192,78853,6,0,L|423:190,2,105,2|0|8,3:2|0:0|3:2,0:0:0:0:
260,190,79426,2,0,L|258:247,1,52.5
153,242,79769,1,0,3:0:0:0:
259,243,79998,1,8,0:3:0:0:
69,324,80227,2,0,L|67:209,1,105,8|8,1:2|0:3,0:0:0:0:
256,181,80685,5,2,3:2:0:0:
314,169,80800,2,0,L|316:55,1,105,0|2,0:0|0:0,0:0:0:0:
190,64,81143,2,0,L|188:178,1,105
240,168,81487,1,0,0:0:0:0:
183,166,81601,1,2,3:2:0:0:
130,166,81716,2,0,L|128:280,1,105,0|2,0:0|0:0,0:0:0:0:
253,270,82059,2,0,L|367:272,1,105
253,270,82517,6,0,L|251:155,1,105,2|0,3:2|0:0,0:0:0:0:
440,165,82975,1,8,0:0:0:0:
335,165,83204,2,0,L|326:222,2,52.5,0|0|2,0:0|0:0|3:2,0:0:0:0:
440,165,83662,1,0,0:0:0:0:
251,165,83891,2,0,L|137:163,1,105,8|0,0:0|0:0,0:0:0:0:
125,220,84235,2,0,L|136:164,1,52.5,0|2,0:0|3:2,0:0:0:0:
240,168,84578,5,0,0:0:0:0:
51,167,84807,2,0,L|49:282,1,105,8|0,0:0|0:0,0:0:0:0:
154,271,85265,1,2,3:2:0:0:
49,271,85494,1,0,0:0:0:0:
238,262,85723,2,0,L|236:157,1,105,8|0,0:0|0:0,0:0:0:0:
131,157,86181,5,2,3:2:0:0:
236,157,86410,1,0,0:0:0:0:
424,157,86639,2,0,L|426:42,1,105,8|0,0:0|0:0,0:0:0:0:
320,224,87097,2,0,L|318:109,1,105,2|0,3:2|3:0,0:0:0:0:
129,119,87555,1,8,0:2:0:0:
243,117,87784,1,0,0:0:0:0:
54,33,88013,6,0,L|52:262,1,210,2|2,3:2|0:1,0:0:0:0:
221,333,88929,2,0,L|107:331,1,105,2|0,3:2|0:0,0:0:0:0:
221,255,89387,2,0,L|223:141,1,105
327,150,89845,5,0,3:0:0:0:
200,69,90188,2,0,L|144:68,1,52.5
252,68,90532,1,0,0:0:0:0:
440,68,90761,2,0,L|442:297,1,210
273,98,91677,6,0,L|271:327,1,210,2|2,3:2|0:1,0:0:0:0:
439,307,92593,2,0,L|325:305,1,105,2|0,3:2|0:0,0:0:0:0:
229,273,93051,2,0,L|343:271,1,105
229,359,93509,5,0,3:0:0:0:
134,324,93738,1,0,1:0:0:0:
75,241,93967,1,0,3:0:0:0:
74,139,94196,1,0,1:0:0:0:
145,56,94425,1,0,3:0:0:0:
246,22,94654,1,0,1:0:0:0:
434,22,94883,2,0,L|443:130,1,105,8|0,1:2|0:0,0:0:0:0:
149,161,95342,6,0,L|35:162,1,105,4|0,0:0|0:0,0:0:0:0:
148,242,95800,2,0,L|150:355,1,105,10|0,0:0|0:0,0:0:0:0:
338,346,96258,2,0,P|411:271|338:196,1,210,2|8,0:0|0:0,0:0:0:0:
254,199,96945,6,0,L|140:200,2,105,2|0|8,0:0|3:0|3:2,0:0:0:0:
442,199,97632,2,0,L|444:85,1,105,0|0,3:0|3:0,0:0:0:0:
255,44,98090,2,0,P|164:105|196:200,1,210,2|8,0:0|3:2,0:0:0:0:
288,203,98777,1,0,0:0:0:0:
99,203,99006,6,0,L|97:316,1,105,2|0,0:0|0:0,0:0:0:0:
202,307,99464,1,8,2:0:0:0:
97,307,99693,1,0,0:0:0:0:
202,307,99922,1,0,0:0:0:0:
306,307,100151,1,0,0:0:0:0:
202,307,100380,2,0,L|199:192,1,105,8|0,2:0|2:0,2:0:0:0:
389,204,100838,5,0,1:0:0:0:
284,204,101067,2,0,L|398:201,2,105
95,133,101754,1,0,1:0:0:0:
92,248,101983,1,0,3:0:0:0:
207,194,102212,1,0,1:0:0:0:
210,309,102441,1,0,3:0:0:0:
399,332,102670,6,0,L|399:203,1,105,4|0,0:0|0:0,0:0:0:0:
294,227,103128,2,0,L|291:112,1,105,8|0,0:0|0:0,0:0:0:0:
101,102,103586,2,0,P|98:187|217:227,1,210,2|8,0:0|0:0,0:0:0:0:
305,233,104273,6,0,L|308:348,1,105,2|0,0:0|0:0,0:0:0:0:
202,337,104731,1,8,3:2:0:0:
390,337,104960,2,0,L|393:222,1,105,0|0,3:0|3:0,0:0:0:0:
205,111,105418,2,0,P|253:115|303:269,1,210,2|8,0:0|0:0,0:0:0:0:
210,245,106105,1,0,0:0:0:0:
399,342,106334,6,0,L|284:339,1,105,2|0,0:0|0:0,0:0:0:0:
399,339,106792,2,0,L|402:224,1,105,8|0,2:0|0:0,0:0:0:0:
296,234,107250,1,0,0:0:0:0:
293,349,107479,1,0,0:0:0:0:
104,349,107708,2,0,L|101:234,1,105,8|0,2:0|2:0,2:0:0:0:
290,85,108166,5,2,1:2:0:0:
185,85,108395,1,0,0:0:0:0:
290,85,108624,1,0,0:0:0:0:
394,85,108853,1,0,0:0:0:0:
290,85,109082,1,0,1:0:0:0:
101,78,109311,1,0,3:0:0:0:
289,78,109540,2,0,L|404:75,1,105,10|0,1:2|3:0,0:0:0:0:
78,185,109998,6,0,L|75:300,1,105,2|0,1:2|0:0,0:0:0:0:
264,289,110456,2,0,L|149:286,1,105,10|0,0:0|0:0,0:0:0:0:
264,286,110914,2,0,L|267:171,1,105,2|0,3:2|0:0,0:0:0:0:
455,181,111372,2,0,L|340:178,1,105,10|0,0:0|0:0,0:0:0:0:
244,48,111830,6,0,P|315:123|242:197,1,210,2|8,3:2|1:2,0:0:0:0:
155,194,112517,2,0,L|269:192,1,105,0|0,0:0|3:0,0:0:0:0:
364,192,112975,1,2,0:0:0:0:
175,215,113204,2,0,L|173:101,1,105,0|0,3:0|0:0,0:0:0:0:
279,163,113662,6,0,L|281:49,1,105,2|0,1:2|0:0,0:0:0:0:
469,58,114120,2,0,L|355:56,1,105,10|0,3:2|0:0,0:0:0:0:
260,97,114578,2,0,L|374:95,1,105,2|0,3:2|0:0,0:0:0:0:
175,95,115036,2,0,L|173:209,1,105,10|0,0:0|0:0,0:0:0:0:
362,325,115494,5,2,1:2:0:0:
267,281,115723,1,0,0:0:0:0:
227,183,115952,1,8,1:2:0:0:
265,86,116181,1,0,3:0:0:0:
361,43,116410,1,2,1:2:0:0:
245,39,116639,1,0,0:0:0:0:
453,238,116868,1,8,1:2:0:0:
467,124,117097,1,0,0:0:0:0:
278,124,117326,6,0,L|164:122,1,105,2|0,1:2|0:0,0:0:0:0:
362,320,117784,2,0,L|364:206,1,105,10|0,0:0|0:0,0:0:0:0:
258,215,118242,1,2,3:2:0:0:
363,215,118471,1,0,0:0:0:0:
174,144,118700,2,0,L|172:258,1,105,8|0,0:0|0:0,0:0:0:0:
277,293,119158,6,0,P|204:219|274:143,1,210,2|8,1:2|1:2,0:0:0:0:
360,146,119845,1,2,0:0:0:0:
255,146,120075,2,0,L|253:32,1,105,0|2,3:0|0:0,0:0:0:0:
442,41,120533,2,0,L|444:155,1,105,0|0,3:0|0:0,0:0:0:0:
338,145,120991,6,0,L|336:259,1,105,2|0,1:2|0:0,0:0:0:0:
147,249,121449,2,0,L|261:247,1,105,10|0,0:0|0:0,0:0:0:0:
146,247,121907,2,0,L|144:133,1,105,2|0,3:2|0:0,0:0:0:0:
333,142,122365,2,0,L|335:28,1,105,10|0,0:0|0:0,0:0:0:0:
145,37,122823,5,2,1:2:0:0:
249,37,123052,1,0,0:0:0:0:
145,37,123281,1,8,1:2:0:0:
249,37,123510,1,0,3:0:0:0:
437,37,123739,1,2,1:2:0:0:
332,37,123968,1,0,0:0:0:0:
42,134,124197,1,8,1:2:0:0:
229,130,124655,6,0,P|199:237|97:280,1,210,6|0,3:2|3:0,0:0:0:0:
116,279,125342,1,0,0:0:0:0:
304,350,125571,2,0,L|307:118,1,210,2|8,3:2|0:2,0:0:0:0:
201,190,126258,6,0,P|128:116|198:40,1,210,2|0,0:0|0:0,0:0:0:0:
369,38,126945,2,0,L|371:152,1,105,8|0,0:2|0:0,0:0:0:0:
265,142,127403,6,0,P|318:247|408:281,1,210,2|8,3:2|0:2,0:0:0:0:
399,280,128090,1,0,0:0:0:0:
207,350,128319,6,0,L|204:118,1,210,2|0,3:2|3:0,0:0:0:0:
309,140,129006,1,0,0:0:0:0:
121,52,129235,2,0,P|49:127|122:202,1,210,2|8,3:2|0:2,0:0:0:0:
206,118,129922,6,0,L|208:347,1,210,2|0,0:0|0:0,0:0:0:0:
397,314,130609,2,0,L|283:312,1,105,8|0,0:2|0:0,0:0:0:0:
187,312,131067,2,0,L|416:309,1,210,2|8,3:2|0:2,0:0:0:0:
396,309,131754,1,0,0:0:0:0:
205,219,131983,6,0,P|132:144|204:69,1,210,2|8,3:2|0:0,0:0:0:0:
288,72,132670,1,0,0:0:0:0:
99,72,132899,2,0,L|328:69,1,210,2|8,3:2|0:2,0:0:0:0:
139,245,133815,5,2,3:2:0:0:
348,245,134273,1,8,0:2:0:0:
243,245,134502,2,0,L|357:247,2,105,0|0|0,0:0|3:0|0:0,0:0:0:0:
54,168,135189,2,0,L|52:282,1,105,8|0,0:0|0:0,0:0:0:0:
241,336,135647,6,0,P|338:276|320:174,1,210,2|8,3:2|0:2,0:0:0:0:
227,191,136334,1,0,0:0:0:0:
417,86,136563,2,0,L|188:83,1,210,2|8,3:2|0:0,0:0:0:0:
418,174,137479,5,2,3:2:0:0:
207,166,137937,1,8,0:2:0:0:
311,166,138166,2,0,L|313:280,1,105,0|0,0:0|3:0,0:0:0:0:
207,270,138624,1,0,0:0:0:0:
396,345,138853,2,0,L|398:231,1,105,8|0,0:0|0:0,0:0:0:0:
209,147,139311,6,0,L|438:144,1,210,6|8,3:2|0:0,0:0:0:0:
418,144,139998,1,0,0:0:0:0:
229,92,140227,2,0,P|157:167|230:241,1,210,2|8,3:2|0:0,0:0:0:0:
315,132,140914,6,0,L|331:355,1,210,2|0,0:0|0:0,0:0:0:0:
140,366,141601,2,0,L|26:364,1,105,8|0,0:0|0:0,0:0:0:0:
140,289,142059,6,0,P|237:229|219:127,1,210,2|8,3:2|0:0,0:0:0:0:
126,134,142746,1,0,0:0:0:0:
316,76,142975,6,0,L|319:305,1,210,2|8,3:2|0:0,0:0:0:0:
213,285,143662,1,0,0:0:0:0:
402,340,143891,2,0,P|449:277|376:177,1,210,2|8,3:2|0:0,0:0:0:0:
280,277,144578,6,0,L|277:48,1,210,2|0,0:0|0:0,0:0:0:0:
467,62,145265,2,0,L|353:60,1,105,8|0,0:0|0:0,0:0:0:0:
257,60,145723,2,0,P|301:164|395:192,1,210,2|8,3:2|0:0,0:0:0:0:
386,192,146410,1,0,0:0:0:0:
196,127,146639,6,0,L|193:356,1,210,2|8,0:0|3:2,0:0:0:0:
300,372,147326,1,0,0:0:0:0:
111,271,147555,2,0,L|340:268,1,210,2|8,3:2|0:0,0:0:0:0:
111,256,148471,5,2,3:2:0:0:
322,169,148929,1,8,0:0:0:0:
217,80,149158,2,0,L|331:82,2,105,0|0|0,0:0|3:0|0:0,0:0:0:0:
406,109,149845,2,0,L|408:223,1,105,8|0,0:0|0:0,0:0:0:0:
218,337,150304,6,0,P|121:277|139:175,1,210,2|8,3:2|0:0,0:0:0:0:
232,179,150991,1,0,0:0:0:0:
420,89,151220,2,0,L|191:86,1,210,2|8,3:2|0:0,0:0:0:0:
421,171,152136,5,2,3:2:0:0:
214,164,152594,1,8,0:0:0:0:
319,163,152823,1,0,0:0:0:0:
214,242,153052,2,0,L|100:240,1,105,0|0,3:0|0:0,0:0:0:0:
406,360,153510,6,0,P|473:286|407:210,1,210,8|4,0:0|0:2,0:0:0:0:
256,192,166792,12,0,168166,0:0:0:0:
417,56,168624,6,0,L|303:54,1,105,4|0,0:0|0:0,0:0:0:0:
207,54,169082,2,0,L|321:52,1,105,10|0,0:0|0:0,0:0:0:0:
123,360,169540,2,0,P|50:285|123:210,1,210,2|8,0:0|0:0,0:0:0:0:
210,209,170227,1,2,0:0:0:0:
105,202,170456,6,0,L|103:88,1,105,0|0,3:0|0:2,0:0:0:0:
292,38,170914,2,0,L|406:36,1,105,0|0,3:0|3:0,0:0:0:0:
208,101,171372,2,0,P|259:205|344:249,1,210,2|8,0:0|3:2,0:0:0:0:
339,252,172059,1,0,0:0:0:0:
151,265,172288,6,0,L|149:151,1,105,2|0,0:0|0:0,0:0:0:0:
254,196,172746,2,0,L|256:82,1,105
362,61,173204,1,0,0:0:0:0:
255,91,173433,2,0,L|253:205,1,105
359,219,173891,1,0,0:0:0:0:
170,276,174120,5,0,1:0:0:0:
274,276,174349,1,0,0:0:0:0:
170,276,174578,1,0,0:0:0:0:
274,276,174807,1,0,0:0:0:0:
84,353,175036,1,0,1:0:0:0:
189,353,175265,1,0,3:0:0:0:
293,353,175494,1,0,1:0:0:0:
189,353,175723,1,0,3:0:0:0:
378,294,175952,6,0,L|380:180,1,105,4|0,0:0|0:0,0:0:0:0:
274,189,176410,2,0,L|272:75,1,105,8|0,0:0|0:0,0:0:0:0:
83,66,176868,2,0,L|312:63,1,210,2|8,0:0|0:0,0:0:0:0:
398,150,177555,6,0,L|284:148,2,105,2|0|0,0:0|3:0|0:2,0:0:0:0:
209,195,178242,2,0,L|207:309,1,105,0|0,3:0|3:0,0:0:0:0:
400,326,178700,2,0,P|346:220|269:175,1,210,2|8,0:0|0:0,0:0:0:0:
269,175,179387,1,0,0:0:0:0:
457,82,179616,6,0,L|343:80,1,105,2|0,0:0|0:0,0:0:0:0:
248,176,180074,1,0,0:0:0:0:
352,176,180303,1,0,0:0:0:0:
248,215,180533,2,0,L|246:329,1,105
351,319,180991,1,0,0:0:0:0:
246,319,181220,1,0,0:0:0:0:
58,338,181449,5,2,1:2:0:0:
162,337,181678,1,0,0:0:0:0:
162,233,181907,1,0,0:0:0:0:
55,232,182136,1,0,0:0:0:0:
162,233,182365,1,0,1:0:0:0:
351,196,182594,1,0,3:0:0:0:
163,177,182823,2,0,L|49:175,1,105,10|0,1:2|3:0,0:0:0:0:
352,12,183281,6,0,L|354:126,1,105,2|0,1:2|0:0,0:0:0:0:
164,72,183739,2,0,L|162:186,1,105,10|0,0:0|0:0,0:0:0:0:
267,176,184197,2,0,L|381:174,1,105,2|0,3:2|0:0,0:0:0:0:
179,343,184655,2,0,L|177:229,1,105,10|0,0:0|0:0,0:0:0:0:
366,238,185113,6,0,L|137:235,1,210,2|8,3:2|1:2,0:0:0:0:
262,234,185800,2,0,L|264:348,1,105,0|0,0:0|3:0,0:0:0:0:
158,341,186258,1,2,0:0:0:0:
346,341,186487,2,0,L|348:227,1,105
243,289,186945,6,0,L|241:175,1,105,2|0,1:2|0:0,0:0:0:0:
430,93,187403,1,10,3:2:0:0:
325,93,187632,1,0,0:0:0:0:
430,170,187861,2,0,L|432:284,1,105,2|0,3:2|0:0,0:0:0:0:
242,274,188319,2,0,L|243:169,1,105,10|0,0:0|0:0,0:0:0:0:
430,170,188777,5,2,1:2:0:0:
325,170,189006,1,0,0:0:0:0:
220,170,189235,1,8,1:2:0:0:
325,170,189464,1,0,3:0:0:0:
134,221,189693,5,2,1:2:0:0:
120,116,189922,1,0,0:0:0:0:
308,116,190151,1,8,1:2:0:0:
412,116,190380,1,0,0:0:0:0:
223,134,190609,6,0,L|221:248,1,105,2|0,1:2|0:0,0:0:0:0:
411,327,191067,2,0,L|297:325,1,105,10|0,0:0|0:0,0:0:0:0:
201,322,191525,2,0,L|199:208,1,105,2|0,3:2|0:0,0:0:0:0:
388,153,191983,2,0,L|274:151,1,105,8|0,0:0|0:0,0:0:0:0:
94,92,192441,6,0,L|323:89,1,210,2|8,1:2|1:2,0:0:0:0:
199,141,193128,2,0,L|85:139,2,105,2|0|2,0:0|3:0|0:0,0:0:0:0:
388,144,193815,2,0,L|390:258,1,105,0|0,0:0|0:0,0:0:0:0:
284,293,194273,6,0,L|282:179,1,105,2|0,1:2|0:0,0:0:0:0:
94,116,194731,1,10,0:0:0:0:
198,116,194960,1,0,0:0:0:0:
94,193,195189,2,0,L|92:307,1,105,2|0,3:2|0:0,0:0:0:0:
281,332,195647,1,10,0:0:0:0:
176,332,195876,1,0,0:0:0:0:
365,318,196105,5,2,1:2:0:0:
400,224,196334,1,0,0:0:0:0:
365,318,196563,1,8,0:0:0:0:
400,224,196792,1,0,3:0:0:0:
260,213,197021,1,2,1:2:0:0:
365,217,197250,1,0,0:0:0:0:
78,246,197479,6,0,P|107:138|209:94,1,210,8|8,1:2|0:1,0:0:0:0:
