osu file format v14

[General]
AudioFilename: audio.mp3
AudioLeadIn: 0
PreviewTime: 95227
Countdown: 0
SampleSet: Soft
StackLeniency: 1
Mode: 2
LetterboxInBreaks: 0
WidescreenStoryboard: 1

[Editor]
Bookmarks: 7403,22059,36716,44044,58700,73357,88013,95342,109998,124655,153968,168624,183281,197937
DistanceSpacing: 1
BeatDivisor: 4
GridSize: 16
TimelineZoom: 2.1

[Metadata]
Title:Pretty Little Psycho
TitleUnicode:Pretty Little Psycho
Artist:Porcelain Black
ArtistUnicode:Porcelain Black
Creator:M0RU
Version:Juansy's Salad
Source:
Tags:moru juansy- nelly kimitakari english pop rock club electronic female vocals mannequin factory reze レゼ
BeatmapID:3820781
BeatmapSetID:1858686

[Difficulty]
HPDrainRate:3
CircleSize:3.5
OverallDifficulty:6.1
ApproachRate:6.1
SliderMultiplier:1.9
SliderTickRate:0.5

[Events]
//Background and Video events
0,0,"furoagarinotomo.jpg",0,0
//Break Periods
2,7603,13696
2,154168,165757
//Storyboard Layer 0 (Background)
//Storyboard Layer 1 (Fail)
//Storyboard Layer 2 (Pass)
//Storyboard Layer 3 (Foreground)
//Storyboard Layer 4 (Overlay)
//Storyboard Sound Samples

[TimingPoints]
75,458.015267175573,4,2,0,40,1,0
75,-100,4,2,0,40,0,0
991,-100,4,2,0,30,0,0
1449,-100,4,2,0,40,0,0
1678,-100,4,2,0,40,0,0
2021,-100,4,2,0,40,0,0
2594,-100,4,2,0,40,0,0
3281,-100,4,2,0,40,0,0
3739,-100,4,2,1,40,0,0
4426,-100,4,2,0,40,0,0
6487,-100,4,2,0,40,0,0
6716,-100,4,2,1,40,0,0
7174,-100,4,2,0,40,0,0
7403,-100,4,2,0,50,0,0
7632,-100,4,3,0,30,0,0
8090,-100,4,2,1,30,0,0
9235,-100,4,3,0,30,0,0
9922,-100,4,2,1,30,0,0
11067,-100,4,3,0,30,0,0
11754,-100,4,2,1,30,0,0
12899,-100,4,3,0,30,0,0
13586,-100,4,2,1,30,0,0
14731,-100,4,2,0,45,0,0
14960,-100,4,2,1,45,0,0
15189,-100,4,3,0,45,0,0
15418,-100,4,2,1,45,0,0
15647,-100,4,3,0,45,0,0
15876,-100,4,2,1,45,0,0
16105,-100,4,3,0,45,0,0
16334,-100,4,2,1,45,0,0
16563,-100,4,1,0,55,0,0
16792,-100,4,2,1,55,0,0
17021,-100,4,3,0,55,0,0
17250,-100,4,2,1,55,0,0
17479,-100,4,3,0,55,0,0
17708,-100,4,2,1,55,0,0
17937,-100,4,3,0,55,0,0
18166,-100,4,2,1,55,0,0
18395,-100,4,1,0,55,0,0
18624,-100,4,2,1,55,0,0
18853,-100,4,3,0,55,0,0
19082,-100,4,2,1,55,0,0
19311,-100,4,3,0,55,0,0
19540,-100,4,2,1,55,0,0
19769,-100,4,3,0,55,0,0
19998,-100,4,2,1,55,0,0
20227,-100,4,1,0,55,0,0
20456,-100,4,2,1,55,0,0
20685,-100,4,3,0,55,0,0
20914,-100,4,2,1,55,0,0
21143,-100,4,3,0,55,0,0
21372,-100,4,2,1,55,0,0
21601,-100,4,1,2,55,0,0
21830,-100,4,2,0,55,0,0
22059,-100,4,2,0,65,0,0
25323,-100,4,2,0,35,0,0
25494,-100,4,2,0,65,0,0
28700,-100,4,2,2,55,0,0
29158,-100,4,2,0,65,0,0
36258,-100,4,2,2,65,0,0
36487,-100,4,2,0,50,0,0
37632,-100,4,2,0,50,0,0
37861,-100,4,2,1,50,0,0
38319,-100,4,2,0,50,0,0
38548,-100,4,2,0,50,0,0
38777,-100,4,2,1,50,0,0
39006,-100,4,3,0,50,0,0
39235,-100,4,2,1,50,0,0
39464,-100,4,3,0,50,0,0
39693,-100,4,2,1,50,0,0
39922,-100,4,1,0,50,0,0
40151,-100,4,2,0,50,0,0
41296,-100,4,2,0,50,0,0
41525,-100,4,2,1,50,0,0
41983,-100,4,2,0,45,0,0
42212,-100,4,2,0,55,0,0
43586,-100,4,2,2,65,0,0
43815,-100,4,2,0,75,0,0
44044,-100,4,2,1,75,0,1
44473,-100,4,2,1,15,0,1
44502,-100,4,2,1,75,0,1
44931,-100,4,2,1,15,0,1
44960,-100,4,2,1,75,0,1
45418,-100,4,2,1,75,0,1
45647,-100,4,2,1,75,0,1
46076,-100,4,2,1,15,0,1
46105,-100,4,2,1,75,0,1
46305,-100,4,2,1,15,0,1
46334,-100,4,2,1,75,0,1
46792,-100,4,2,1,75,0,1
47221,-100,4,2,1,15,0,1
47250,-100,4,2,1,75,0,1
47594,-100,4,2,1,75,0,1
47708,-100,4,2,1,75,0,1
47937,-100,4,2,1,75,0,1
48166,-100,4,2,0,75,0,1
48395,-100,4,2,1,75,0,1
48624,-100,4,3,0,75,0,1
48853,-100,4,2,1,75,0,1
49082,-100,4,3,0,75,0,1
49311,-100,4,2,1,75,0,1
49540,-100,4,2,1,75,0,1
49741,-100,4,2,1,15,0,1
49769,-100,4,2,1,75,0,1
49998,-100,4,1,0,75,0,1
50227,-100,4,2,1,75,0,1
50456,-100,4,2,1,75,0,1
51143,-100,4,2,1,75,0,1
51372,-100,4,2,1,75,0,1
51802,-100,4,2,1,15,0,1
51830,-100,4,2,1,75,0,1
52260,-100,4,2,1,15,0,1
52288,-100,4,2,1,75,0,1
52746,-100,4,2,1,75,0,1
53405,-100,4,2,1,15,0,1
53433,-100,4,2,1,75,0,1
53634,-100,4,2,1,15,0,1
53662,-100,4,2,1,75,0,1
54120,-100,4,2,1,75,0,1
54578,-100,4,2,1,75,0,1
55036,-100,4,2,1,75,0,1
55265,-100,4,2,1,75,0,1
55494,-100,4,3,0,75,0,1
55723,-100,4,2,1,75,0,1
55952,-100,4,3,0,75,0,1
56181,-100,4,2,1,75,0,1
56410,-100,4,1,0,75,0,1
56639,-100,4,2,1,75,0,1
56868,-100,4,2,1,75,0,0
57069,-100,4,2,1,75,0,0
57097,-100,4,2,1,75,0,0
57326,-100,4,1,0,75,0,0
57555,-100,4,2,1,75,0,0
57784,-100,4,2,1,75,0,0
58586,-100,4,2,1,75,0,0
58700,-100,4,2,1,75,0,1
59130,-100,4,2,1,15,0,1
59158,-100,4,2,1,75,0,1
59588,-100,4,2,1,15,0,1
59616,-100,4,2,1,75,0,1
60046,-100,4,2,1,15,0,1
60075,-100,4,2,1,75,0,1
60504,-100,4,2,1,15,0,1
60533,-100,4,2,1,75,0,1
60962,-100,4,2,1,15,0,1
60991,-100,4,2,1,75,0,1
61220,-100,4,1,0,75,0,1
61449,-100,4,2,1,75,0,1
62794,-100,4,2,1,15,0,1
62823,-100,4,2,1,75,0,1
63252,-100,4,2,1,15,0,1
63281,-100,4,2,1,75,0,1
63710,-100,4,2,1,15,0,1
63739,-100,4,2,1,75,0,1
64168,-100,4,2,1,15,0,1
64197,-100,4,2,1,75,0,1
64426,-100,4,1,0,75,0,1
64655,-100,4,2,1,75,0,1
65113,-100,4,2,1,75,0,1
65800,-100,4,2,1,75,0,1
66458,-100,4,2,1,15,0,1
66487,-100,4,2,1,75,0,1
66916,-100,4,2,1,15,0,1
66945,-100,4,2,1,75,0,1
67374,-100,4,2,1,15,0,1
67403,-100,4,2,1,75,0,1
67832,-100,4,2,1,15,0,1
67861,-100,4,2,1,75,0,1
70122,-100,4,2,1,15,0,1
70151,-100,4,2,1,75,0,1
70580,-100,4,2,1,15,0,1
70609,-100,4,2,1,75,0,1
71038,-100,4,2,1,15,0,1
71067,-100,4,2,1,75,0,1
71496,-100,4,2,1,15,0,1
71525,-100,4,2,1,75,0,1
72441,-100,4,2,1,75,0,1
73128,-100,4,2,1,75,0,1
73357,-100,4,2,0,65,0,0
74731,-100,4,2,0,65,0,0
74960,-100,4,2,0,65,0,0
76563,-100,4,2,0,65,0,0
76792,-100,4,2,0,65,0,0
78395,-100,4,2,0,65,0,0
78624,-100,4,2,0,65,0,0
78853,-100,4,2,0,65,0,0
79082,-100,4,2,0,65,0,0
79540,-100,4,2,0,65,0,0
79998,-100,4,2,0,55,0,0
80456,-100,4,2,0,65,0,0
82975,-100,4,2,0,65,0,0
83204,-100,4,2,0,65,0,0
83891,-100,4,2,0,65,0,0
84120,-100,4,2,0,65,0,0
84807,-100,4,2,0,65,0,0
85036,-100,4,2,0,65,0,0
85723,-100,4,2,0,65,0,0
85952,-100,4,2,0,65,0,0
86639,-100,4,2,0,65,0,0
86868,-100,4,2,0,65,0,0
87555,-100,4,2,2,55,0,0
87784,-100,4,2,0,65,0,0
88013,-100,4,2,0,50,0,0
88929,-100,4,2,0,50,0,0
89158,-100,4,2,1,50,0,0
89616,-100,4,2,0,50,0,0
89845,-100,4,2,0,50,0,0
90075,-100,4,2,1,50,0,0
90303,-100,4,3,0,50,0,0
90532,-100,4,2,1,50,0,0
90761,-100,4,3,0,50,0,0
90990,-100,4,2,1,50,0,0
91219,-100,4,1,0,50,0,0
91448,-100,4,2,0,50,0,0
91449,-100,4,2,0,50,0,0
92594,-100,4,2,0,50,0,0
92823,-100,4,2,1,50,0,0
93281,-100,4,2,0,45,0,0
94884,-100,4,2,2,65,0,0
95113,-100,4,2,0,75,0,0
95342,-100,4,2,1,75,0,1
95771,-100,4,2,1,15,0,1
95800,-100,4,2,1,75,0,1
96229,-100,4,2,1,15,0,1
96258,-100,4,2,1,75,0,1
96716,-100,4,2,1,75,0,1
96945,-100,4,2,1,75,0,1
97374,-100,4,2,1,15,0,1
97403,-100,4,2,1,75,0,1
97603,-100,4,2,1,15,0,1
97632,-100,4,2,1,75,0,1
98090,-100,4,2,1,75,0,1
98519,-100,4,2,1,15,0,1
98548,-100,4,2,1,75,0,1
98892,-100,4,2,1,75,0,1
99006,-100,4,2,1,75,0,1
99235,-100,4,2,1,75,0,1
99464,-100,4,3,0,75,0,1
99693,-100,4,2,1,75,0,1
99922,-100,4,3,0,75,0,1
100151,-100,4,2,1,75,0,1
100380,-100,4,3,0,75,0,1
100609,-100,4,2,1,75,0,1
100838,-100,4,2,1,75,0,1
101039,-100,4,2,1,15,0,1
101067,-100,4,2,1,75,0,1
101296,-100,4,1,0,75,0,1
101525,-100,4,2,1,75,0,1
101754,-100,4,2,1,75,0,1
102441,-100,4,2,1,75,0,1
102670,-100,4,2,1,75,0,1
103100,-100,4,2,1,15,0,1
103128,-100,4,2,1,75,0,1
103558,-100,4,2,1,15,0,1
103586,-100,4,2,1,75,0,1
104044,-100,4,2,1,75,0,1
104703,-100,4,2,1,15,0,1
104731,-100,4,2,1,75,0,1
104932,-100,4,2,1,15,0,1
104960,-100,4,2,1,75,0,1
105418,-100,4,2,1,75,0,1
105876,-100,4,2,1,75,0,1
106334,-100,4,2,1,75,0,1
106563,-100,4,2,1,75,0,1
106792,-100,4,3,0,75,0,1
107021,-100,4,2,1,75,0,1
107250,-100,4,3,0,75,0,1
107479,-100,4,2,1,75,0,1
107708,-100,4,1,0,75,0,1
107937,-100,4,2,1,75,0,1
108166,-100,4,2,1,75,0,0
108367,-100,4,2,1,15,0,0
108395,-100,4,2,1,75,0,0
108624,-100,4,1,0,75,0,0
108853,-100,4,2,1,75,0,0
109082,-100,4,2,1,75,0,0
109884,-100,4,2,1,75,0,0
109998,-100,4,2,1,75,0,1
110428,-100,4,2,1,15,0,1
110456,-100,4,2,1,75,0,1
110886,-100,4,2,1,15,0,1
110914,-100,4,2,1,75,0,1
111344,-100,4,2,1,15,0,1
111373,-100,4,2,1,75,0,1
111802,-100,4,2,1,15,0,1
111831,-100,4,2,1,75,0,1
112260,-100,4,2,1,15,0,1
112289,-100,4,2,1,75,0,1
112518,-100,4,1,0,75,0,1
112747,-100,4,2,1,75,0,1
114092,-100,4,2,1,15,0,1
114121,-100,4,2,1,75,0,1
114550,-100,4,2,1,15,0,1
114579,-100,4,2,1,75,0,1
115008,-100,4,2,1,15,0,1
115037,-100,4,2,1,75,0,1
115466,-100,4,2,1,15,0,1
115495,-100,4,2,1,75,0,1
115724,-100,4,1,0,75,0,1
115953,-100,4,2,1,75,0,1
116411,-100,4,2,1,75,0,1
117098,-100,4,2,1,75,0,1
117756,-100,4,2,1,15,0,1
117785,-100,4,2,1,75,0,1
118214,-100,4,2,1,15,0,1
118243,-100,4,2,1,75,0,1
118672,-100,4,2,1,15,0,1
118701,-100,4,2,1,75,0,1
119130,-100,4,2,1,15,0,1
119159,-100,4,2,1,75,0,1
121420,-100,4,2,1,15,0,1
121449,-100,4,2,1,75,0,1
121878,-100,4,2,1,15,0,1
121907,-100,4,2,1,75,0,1
122336,-100,4,2,1,15,0,1
122365,-100,4,2,1,75,0,1
122794,-100,4,2,1,15,0,1
122823,-100,4,2,1,75,0,1
123739,-100,4,2,1,75,0,1
124426,-100,4,2,1,75,0,1
124655,-100,4,2,0,50,0,0
126487,-100,4,3,0,50,0,0
126716,-100,4,2,0,50,0,0
130151,-100,4,3,0,50,0,0
130380,-100,4,2,0,50,0,0
139311,-100,4,2,0,60,0,0
141143,-100,4,3,0,60,0,0
141372,-100,4,2,0,60,0,0
144807,-100,4,3,0,60,0,0
145036,-100,4,2,0,60,0,0
153968,-100,4,2,1,40,0,0
166792,-100,4,2,1,45,0,0
167708,-100,4,2,1,50,0,0
168166,-100,4,2,1,55,0,0
168624,-100,4,2,1,75,0,1
169053,-100,4,2,1,15,0,1
169082,-100,4,2,1,75,0,1
169511,-100,4,2,1,15,0,1
169540,-100,4,2,1,75,0,1
170656,-100,4,2,1,15,0,1
170685,-100,4,2,1,75,0,1
170885,-100,4,2,1,15,0,1
170914,-100,4,2,1,75,0,1
171801,-100,4,2,1,15,0,1
171830,-100,4,2,1,75,0,1
172746,-100,4,3,0,75,0,1
172975,-100,4,2,1,75,0,1
173204,-100,4,3,0,75,0,1
173433,-100,4,2,1,75,0,1
173662,-100,4,3,0,75,0,1
173891,-100,4,2,1,75,0,1
174321,-100,4,2,1,75,0,1
174349,-100,4,2,1,75,0,1
174578,-100,4,1,0,75,0,1
174807,-100,4,2,1,75,0,1
176382,-100,4,2,1,15,0,1
176410,-100,4,2,1,75,0,1
176840,-100,4,2,1,15,0,1
176868,-100,4,2,1,75,0,1
177985,-100,4,2,1,15,0,1
178013,-100,4,2,1,75,0,1
178214,-100,4,2,1,15,0,1
178242,-100,4,2,1,75,0,1
180074,-100,4,3,0,75,0,1
180303,-100,4,2,1,75,0,1
180532,-100,4,3,0,75,0,1
180761,-100,4,2,1,75,0,1
180990,-100,4,1,0,75,0,1
181219,-100,4,2,1,75,0,1
181449,-100,4,2,1,75,0,0
181649,-100,4,2,1,75,0,0
181677,-100,4,2,1,75,0,0
181906,-100,4,1,0,75,0,0
182135,-100,4,2,1,75,0,0
183281,-100,4,2,1,75,0,1
183710,-100,4,2,1,15,0,1
183738,-100,4,2,1,75,0,1
184168,-100,4,2,1,15,0,1
184196,-100,4,2,1,75,0,1
184626,-100,4,2,1,15,0,1
184655,-100,4,2,1,75,0,1
185084,-100,4,2,1,15,0,1
185113,-100,4,2,1,75,0,1
185542,-100,4,2,1,15,0,1
185571,-100,4,2,1,75,0,1
185800,-100,4,1,0,75,0,1
186029,-100,4,2,1,75,0,1
187374,-100,4,2,1,15,0,1
187403,-100,4,2,1,75,0,1
187832,-100,4,2,1,15,0,1
187861,-100,4,2,1,75,0,1
188290,-100,4,2,1,15,0,1
188319,-100,4,2,1,75,0,1
188748,-100,4,2,1,15,0,1
188777,-100,4,2,1,75,0,1
189006,-100,4,1,0,75,0,1
189235,-100,4,2,1,75,0,1
191038,-100,4,2,1,15,0,1
191067,-100,4,2,1,75,0,1
191496,-100,4,2,1,15,0,1
191525,-100,4,2,1,75,0,1
191954,-100,4,2,1,15,0,1
191983,-100,4,2,1,75,0,1
192412,-100,4,2,1,15,0,1
192441,-100,4,2,1,75,0,1
194702,-100,4,2,1,15,0,1
194731,-100,4,2,1,75,0,1
195160,-100,4,2,1,15,0,1
195189,-100,4,2,1,75,0,1
195618,-100,4,2,1,15,0,1
195647,-100,4,2,1,75,0,1
196076,-100,4,2,1,15,0,1
196105,-100,4,2,1,75,0,1
197365,-100,4,2,1,15,0,1
197479,-100,4,2,1,75,0,1
197880,-100,4,2,1,45,0,1
197937,-100,4,2,1,45,0,0

[Colours]
Combo1 : 35,59,196
Combo2 : 242,199,29
Combo3 : 243,135,158
Combo4 : 128,218,122
Combo5 : 135,195,219

[HitObjects]
87,177,75,6,0,L|296:179,2,190,2|2|2,0:0|0:0|0:0,0:0:0:0:
373,273,1678,6,0,L|370:68,1,190,2|0,0:0|0:0,0:0:0:0:
275,86,2365,1,0,0:0:0:0:
85,81,2823,1,2,0:0:0:0:
273,101,3281,2,0,L|388:111,1,95
273,101,3739,5,0,3:0:0:0:
83,98,4197,2,0,L|197:84,1,95,0|0,3:0|0:0,0:0:0:0:
271,78,4655,1,0,0:0:0:0:
457,292,5113,1,0,0:0:0:0:
267,277,5571,5,2,3:2:0:0:
212,199,5800,1,0,0:0:0:0:
267,277,6029,1,2,3:2:0:0:
361,275,6258,1,0,0:0:0:0:
266,272,6487,2,0,L|68:271,1,190,2|0,0:0|0:0,0:0:0:0:
384,191,7403,1,0,0:0:0:0:
162,108,14731,5,0,1:0:0:0:
162,108,15189,1,0,0:0:0:0:
256,106,15418,2,0,P|281:210|144:286,1,285
315,283,16563,5,0,0:0:0:0:
315,283,17021,1,0,0:0:0:0:
229,283,17250,2,0,P|219:197|377:112,1,285
201,102,18395,5,0,0:0:0:0:
201,102,18853,1,0,0:0:0:0:
275,90,19082,2,0,L|275:390,1,285
483,355,20227,5,0,0:0:0:0:
483,355,20685,1,0,0:0:0:0:
388,357,20914,2,0,L|387:71,1,285,0|8,0:0|0:2,0:0:0:0:
481,68,21830,1,0,0:0:0:0:
291,145,22059,6,0,L|243:179,2,47.5,2|0|0,3:2|0:0|0:0,0:0:0:0:
387,135,22517,2,0,P|430:176|349:237,1,190,8|2,0:0|3:2,0:0:0:0:
254,246,23204,1,0,0:0:0:0:
159,256,23433,2,0,L|373:239,1,190,8|2,0:0|3:2,0:0:0:0:
253,246,24120,5,0,0:0:0:0:
158,254,24349,1,8,0:0:0:0:
153,215,24807,2,0,L|368:187,1,190,2|8,3:2|0:0,0:0:0:0:
247,201,25494,1,0,0:0:0:0:
55,48,25723,6,0,P|35:103|74:150,1,95,2|0,3:2|0:0,0:0:0:0:
96,141,26067,1,0,0:0:0:0:
143,141,26181,1,8,0:0:0:0:
335,147,26639,2,0,P|340:75|310:51,1,95,2|0,3:2|0:0,0:0:0:0:
280,60,26983,1,0,0:0:0:0:
232,64,27097,1,8,0:0:0:0:
437,63,27555,1,2,3:2:0:0:
246,302,28013,5,8,0:0:0:0:
285,205,28242,1,0,0:0:0:0:
379,155,28471,1,0,3:0:0:0:
274,117,28700,1,8,0:3:0:0:
85,81,28929,2,0,L|190:66,1,95,8|8,1:2|0:3,0:0:0:0:
369,183,29387,5,2,3:2:0:0:
321,185,29502,1,0,0:0:0:0:
226,184,29731,1,2,0:0:0:0:
178,183,29845,2,0,L|391:173,1,190,0|2,0:0|3:2,0:0:0:0:
415,174,30418,1,0,0:0:0:0:
320,48,30647,1,2,0:0:0:0:
272,49,30762,2,0,P|215:75|286:142,1,190,0|2,0:0|3:2,0:0:0:0:
373,274,31449,5,0,0:0:0:0:
278,265,31678,1,8,0:0:0:0:
184,279,31907,1,0,0:0:0:0:
278,281,32136,2,0,L|323:188,2,95,2|0|10,3:2|0:0|0:0,0:0:0:0:
183,288,32823,1,0,0:0:0:0:
362,88,33052,6,0,L|463:75,1,95,2|0,3:2|0:0,0:0:0:0:
363,96,33510,2,0,L|261:103,1,95,8|0,0:0|0:0,0:0:0:0:
363,96,33968,2,0,P|423:129|355:202,1,190,2|8,3:2|0:0,0:0:0:0:
169,141,34884,6,0,L|168:252,1,95,2|0,3:2|0:0,0:0:0:0:
263,237,35342,2,0,L|162:245,1,95,8|0,0:0|0:0,0:0:0:0:
262,232,35800,2,0,L|484:213,1,190,2|8,3:2|0:2,0:0:0:0:
356,221,36487,1,0,0:0:0:0:
163,131,36716,5,2,3:2:0:0:
163,131,37174,1,2,0:1:0:0:
367,223,37632,2,0,L|370:106,1,95,2|0,3:2|0:0,0:0:0:0:
274,130,38090,2,0,L|160:128,1,95
283,129,38548,6,0,L|457:135,2,142.5,0|0|0,3:0|0:0|0:0,0:0:0:0:
188,131,39464,1,0,0:0:0:0:
377,135,39922,1,0,0:0:0:0:
185,63,40380,5,2,3:2:0:0:
185,63,40838,1,2,0:1:0:0:
381,213,41296,2,0,L|251:205,1,95,2|0,3:2|0:0,0:0:0:0:
191,105,41754,1,0,0:0:0:0:
285,112,41983,1,0,0:0:0:0:
379,118,42212,5,0,3:0:0:0:
291,154,42441,1,0,1:0:0:0:
248,238,42670,1,0,3:0:0:0:
291,154,42899,1,0,1:0:0:0:
385,160,43128,2,0,L|279:155,1,95,0|0,3:0|1:0,0:0:0:0:
185,156,43586,1,8,1:2:0:0:
472,139,44044,6,0,L|279:146,2,190,4|10|2,0:0|0:0|0:0,0:0:0:0:
263,152,45418,2,0,L|147:163,1,95,8|2,0:0|0:0,0:0:0:0:
358,58,45876,6,0,P|409:73|338:141,1,190,0|0,0:0|3:0,0:0:0:0:
256,158,46563,1,0,3:0:0:0:
162,176,46792,2,0,L|396:152,1,190,2|8,0:0|3:2,0:0:0:0:
445,154,47479,1,0,0:0:0:0:
261,80,47708,5,2,0:0:0:0:
200,153,47937,1,0,0:0:0:0:
261,80,48166,1,8,0:0:0:0:
355,76,48395,1,0,0:0:0:0:
260,74,48624,2,0,L|47:66,1,190,0|8,0:0|0:2,0:0:0:0:
165,70,49311,1,0,0:0:0:0:
355,205,49540,6,0,L|357:90,1,95,0|0,1:0|0:0,0:0:0:0:
260,114,49998,2,0,L|258:0,1,95
164,20,50456,1,0,1:0:0:0:
468,321,50914,1,0,1:0:0:0:
155,164,51372,6,0,L|357:169,2,190,4|8|2,0:0|0:0|0:0,0:0:0:0:
362,143,52746,2,0,L|477:124,1,95,8|2,0:0|0:0,0:0:0:0:
266,296,53204,6,0,P|208:281|291:224,1,190,0|0,0:0|3:0,0:0:0:0:
354,199,53891,1,0,3:0:0:0:
448,199,54120,2,0,L|257:199,1,190,2|8,0:0|0:0,0:0:0:0:
49,218,55036,5,2,0:0:0:0:
138,249,55265,2,0,L|151:30,1,190,0|0,0:0|2:0,0:0:0:0:
54,57,55952,1,0,3:0:0:0:
149,59,56181,1,0,0:2:0:0:
150,153,56410,1,8,2:2:0:0:
56,169,56639,1,0,0:2:0:0:
245,76,56868,5,2,1:2:0:0:
339,76,57097,1,0,0:0:0:0:
244,74,57326,1,0,0:0:0:0:
149,74,57555,1,0,0:0:0:0:
243,71,57784,1,0,1:0:0:0:
471,67,58242,1,10,1:2:0:0:
175,74,58700,6,0,P|120:88|199:153,1,190,2|10,1:2|0:0,0:0:0:0:
274,173,59387,1,0,0:0:0:0:
378,181,59616,2,0,P|437:201|351:259,1,190,2|10,3:2|0:0,0:0:0:0:
80,90,60533,6,0,L|280:77,1,190,2|8,3:2|1:2,0:0:0:0:
364,70,61220,2,0,L|129:84,1,190,0|2,0:0|0:0,0:0:0:0:
79,91,61907,1,0,3:0:0:0:
389,84,62365,6,0,L|387:303,1,190,2|10,1:2|3:2,0:0:0:0:
282,277,63052,1,0,0:0:0:0:
178,276,63281,2,0,L|177:57,1,190,2|10,3:2|0:0,0:0:0:0:
470,220,64197,5,2,1:2:0:0:
365,228,64426,1,0,0:0:0:0:
469,224,64655,1,8,1:2:0:0:
469,115,64884,1,0,3:0:0:0:
364,115,65113,2,0,L|150:112,1,190,2|8,1:2|1:2,0:0:0:0:
472,49,66029,6,0,P|475:107|335:148,1,190,2|10,1:2|0:0,0:0:0:0:
268,178,66716,1,0,0:0:0:0:
164,193,66945,2,0,L|393:163,1,190,2|8,3:2|0:0,0:0:0:0:
49,327,67861,6,0,P|65:234|165:227,1,190,2|8,1:2|1:2,0:0:0:0:
252,213,68548,2,0,P|265:142|157:86,1,190,2|2,0:0|0:0,0:0:0:0:
74,67,69235,1,0,3:0:0:0:
369,311,69693,6,0,L|373:88,1,190,2|10,1:2|0:0,0:0:0:0:
267,118,70380,1,0,0:0:0:0:
162,116,70609,2,0,L|364:106,1,190,2|10,3:2|0:0,0:0:0:0:
53,323,71525,6,0,L|23:213,2,95,2|0|8,1:2|0:0|1:2,0:0:0:0:
146,341,72212,1,0,3:0:0:0:
336,232,72441,1,2,1:2:0:0:
127,222,72899,1,8,1:2:0:0:
335,214,73357,6,0,L|460:188,2,95,2|0|8,3:2|0:0|0:0,0:0:0:0:
145,203,74273,2,0,L|260:199,1,95,2|0,3:2|0:0,0:0:0:0:
334,195,74731,1,8,0:0:0:0:
144,196,75189,6,0,P|95:182|159:95,1,190,2|8,3:2|0:0,0:0:0:0:
235,87,75876,1,0,0:0:0:0:
329,89,76105,1,2,3:2:0:0:
139,84,76563,1,8,0:0:0:0:
442,83,77021,6,0,L|442:181,1,95,2|0,3:2|0:0,0:0:0:0:
394,179,77365,1,0,0:0:0:0:
346,179,77479,1,8,0:0:0:0:
157,157,77937,2,0,L|273:151,1,95,2|0,3:2|0:0,0:0:0:0:
298,143,78281,1,0,0:0:0:0:
344,135,78395,1,8,0:0:0:0:
154,140,78853,6,0,L|311:141,2,142.5,2|0|0,3:2|0:0|0:0,0:0:0:0:
154,140,79769,1,0,3:0:0:0:
339,294,79998,2,0,L|213:293,1,95,8|8,0:3|1:2,0:0:0:0:
243,198,80456,1,8,0:3:0:0:
434,84,80685,6,0,L|499:92,1,47.5,2|0,3:2|0:0,0:0:0:0:
338,97,81143,2,0,P|284:117|352:195,1,190,0|2,0:0|3:2,0:0:0:0:
386,201,81716,1,0,0:0:0:0:
244,213,82059,2,0,L|35:203,1,190,0|2,0:0|3:2,0:0:0:0:
149,203,82746,5,0,0:0:0:0:
198,121,82975,1,8,0:0:0:0:
149,203,83204,1,0,0:0:0:0:
54,200,83433,1,2,3:2:0:0:
148,190,83662,1,0,0:0:0:0:
242,182,83891,1,8,0:0:0:0:
147,187,84120,1,0,0:0:0:0:
324,87,84349,6,0,L|415:57,2,95,2|0|8,3:2|0:0|0:0,0:0:0:0:
138,88,85265,2,0,L|262:83,1,95,2|0,3:2|0:0,0:0:0:0:
327,80,85723,1,8,0:0:0:0:
135,290,86181,6,0,L|135:184,1,95,2|0,3:2|0:0,0:0:0:0:
229,195,86639,2,0,L|113:196,1,95,8|0,0:0|0:0,0:0:0:0:
238,187,87097,2,0,P|334:191|420:120,1,190,2|8,3:2|0:2,0:0:0:0:
104,253,88013,5,2,3:2:0:0:
293,256,88471,1,2,0:1:0:0:
293,256,88929,2,0,L|188:251,1,95,2|0,3:2|0:0,0:0:0:0:
292,244,89387,2,0,L|402:242,1,95
282,236,89845,6,0,L|131:235,2,142.5,0|0|0,3:0|0:0|0:0,0:0:0:0:
377,238,90762,1,0,0:0:0:0:
187,235,91220,1,0,0:0:0:0:
187,235,91678,5,2,3:2:0:0:
376,234,92136,1,2,0:1:0:0:
376,151,92594,2,0,L|267:153,1,95,2|0,3:2|0:0,0:0:0:0:
186,90,93052,1,0,0:0:0:0:
280,86,93281,1,0,0:0:0:0:
363,132,93510,5,0,3:0:0:0:
409,215,93739,1,0,1:0:0:0:
363,132,93968,1,0,3:0:0:0:
280,86,94197,1,0,1:0:0:0:
175,82,94426,2,0,L|278:81,1,95,0|0,3:0|1:0,0:0:0:0:
374,89,94884,1,8,1:2:0:0:
66,218,95342,6,0,L|288:212,2,190,4|10|2,0:0|0:0|0:0,0:0:0:0:
254,197,96716,2,0,L|368:193,1,95,8|2,0:0|0:0,0:0:0:0:
159,88,97174,6,0,P|99:102|179:147,1,190,0|0,3:0|3:0,0:0:0:0:
253,173,97861,1,0,3:0:0:0:
348,259,98090,2,0,L|151:252,1,190,2|8,0:0|3:2,0:0:0:0:
63,253,98777,1,0,0:0:0:0:
247,117,99006,6,0,L|302:218,2,95,2|0|8,0:0|0:0|2:0,0:0:0:0:
152,118,99693,1,0,0:0:0:0:
246,115,99922,2,0,L|454:114,1,190,0|8,0:0|2:0,0:0:0:0:
341,112,100609,1,0,2:0:0:0:
151,314,100838,6,0,L|151:216,1,95,0|0,1:0|0:0,0:0:0:0:
245,219,101296,1,0,0:0:0:0:
150,217,101525,1,0,0:0:0:0:
55,223,101754,1,0,1:0:0:0:
361,92,102212,1,0,1:0:0:0:
52,309,102670,6,0,P|66:237|197:208,1,190,4|8,0:0|0:0,0:0:0:0:
355,186,103586,2,0,L|145:179,1,190,2|8,0:0|0:0,0:0:0:0:
165,84,104273,1,2,0:0:0:0:
348,79,104502,6,0,L|350:304,1,190,0|0,0:0|3:0,0:0:0:0:
254,269,105189,1,0,3:0:0:0:
159,271,105418,1,2,0:0:0:0:
348,273,105876,1,8,0:0:0:0:
140,251,106334,6,0,L|133:140,1,95,2|0,0:0|0:0,0:0:0:0:
238,150,106792,2,0,L|244:27,1,95,8|0,2:0|0:0,0:0:0:0:
347,50,107250,2,0,L|350:261,1,190,0|8,0:0|2:0,0:0:0:0:
255,250,107937,1,0,2:0:0:0:
64,109,108166,5,2,1:2:0:0:
157,91,108395,1,0,0:0:0:0:
250,74,108624,1,0,0:0:0:0:
155,76,108853,1,0,0:0:0:0:
250,74,109082,1,0,1:0:0:0:
441,285,109540,1,10,1:2:0:0:
155,319,109998,6,0,L|153:110,1,190,2|10,1:2|0:0,0:0:0:0:
256,113,110685,1,0,0:0:0:0:
360,108,110914,2,0,L|360:321,1,190,2|10,3:2|0:0,0:0:0:0:
66,121,111830,6,0,L|285:101,1,190,2|8,3:2|1:2,0:0:0:0:
350,98,112517,2,0,L|144:119,1,190,0|2,0:0|0:0,0:0:0:0:
66,128,113204,1,0,3:0:0:0:
368,326,113662,6,0,P|423:304|344:233,1,190,2|10,1:2|3:2,0:0:0:0:
263,214,114349,1,0,0:0:0:0:
158,218,114578,1,2,3:2:0:0:
347,217,115036,1,10,0:0:0:0:
36,112,115494,5,2,1:2:0:0:
141,116,115723,1,0,0:0:0:0:
37,113,115952,1,8,1:2:0:0:
36,112,116181,1,0,3:0:0:0:
141,113,116410,2,0,L|357:114,1,190,2|8,1:2|1:2,0:0:0:0:
27,310,117326,6,0,L|20:99,1,190,2|10,1:2|0:0,0:0:0:0:
126,119,118013,1,0,0:0:0:0:
231,119,118242,1,2,3:2:0:0:
42,119,118700,1,8,0:0:0:0:
352,332,119158,6,0,P|348:256|232:235,1,190,2|8,1:2|1:2,0:0:0:0:
148,233,119845,2,0,L|367:235,1,190,2|2,0:0|0:0,0:0:0:0:
434,233,120533,1,0,3:0:0:0:
129,317,120991,6,0,L|125:99,1,190,2|10,1:2|0:0,0:0:0:0:
230,128,121678,1,0,0:0:0:0:
127,123,121907,2,0,L|125:324,1,190,2|10,3:2|0:0,0:0:0:0:
431,126,122823,5,2,1:2:0:0:
388,210,123052,1,0,0:0:0:0:
306,256,123281,1,8,1:2:0:0:
212,261,123510,1,0,3:0:0:0:
23,84,123739,1,2,1:2:0:0:
231,76,124197,1,8,1:2:0:0:
439,74,124655,6,0,P|445:140|333:205,1,190,6|0,3:2|3:0,0:0:0:0:
259,194,125342,1,0,0:0:0:0:
165,193,125571,1,2,3:2:0:0:
355,199,126029,1,8,0:2:0:0:
355,199,126258,6,0,L|133:199,1,190,2|0,0:0|0:0,0:0:0:0:
110,179,126945,1,8,0:2:0:0:
168,103,127174,1,0,0:0:0:0:
263,101,127403,1,2,3:2:0:0:
472,101,127861,1,8,0:2:0:0:
168,323,128319,6,0,P|177:234|279:209,1,190,2|0,3:2|3:0,0:0:0:0:
358,203,129006,1,0,0:0:0:0:
264,203,129235,1,2,3:2:0:0:
75,204,129693,1,8,0:2:0:0:
75,109,129922,5,2,0:0:0:0:
265,103,130380,1,0,0:0:0:0:
76,107,130838,1,0,0:0:0:0:
171,107,131067,2,0,L|170:316,1,190,2|8,3:2|0:2,0:0:0:0:
474,235,131983,6,0,P|453:170|325:153,1,190,2|8,3:2|0:0,0:0:0:0:
250,141,132670,1,0,0:0:0:0:
345,142,132899,1,2,3:2:0:0:
154,340,133357,1,8,0:2:0:0:
344,340,133815,6,0,L|343:144,1,190,2|8,3:2|0:2,0:0:0:0:
249,148,134502,1,0,0:0:0:0:
344,148,134731,1,0,3:0:0:0:
439,148,134960,1,0,0:0:0:0:
344,148,135189,1,8,0:0:0:0:
59,317,135647,6,0,P|66:253|197:233,1,190,2|8,3:2|0:2,0:0:0:0:
267,231,136334,1,0,0:0:0:0:
173,225,136563,1,2,3:2:0:0:
363,232,137021,1,8,0:0:0:0:
174,242,137479,6,0,L|171:43,1,190,2|8,3:2|0:2,0:0:0:0:
267,50,138166,1,0,0:0:0:0:
173,48,138395,1,0,3:0:0:0:
79,48,138624,1,0,0:0:0:0:
173,48,138853,1,8,0:0:0:0:
475,119,139311,6,0,L|269:99,1,190,6|8,3:2|0:0,0:0:0:0:
214,161,139998,1,0,0:0:0:0:
289,102,140227,2,0,L|510:94,1,190,2|8,3:2|0:0,0:0:0:0:
384,98,140914,5,2,0:0:0:0:
195,102,141372,2,0,L|304:104,1,95,0|8,0:0|0:0,0:0:0:0:
385,114,141830,1,0,0:0:0:0:
291,104,142059,2,0,L|291:310,1,190,2|8,3:2|0:0,0:0:0:0:
81,93,142975,6,0,L|295:91,1,190,2|8,3:2|0:0,0:0:0:0:
348,147,143662,1,0,0:0:0:0:
271,92,143891,2,0,L|57:90,1,190,2|8,3:2|0:0,0:0:0:0:
176,93,144578,5,2,0:0:0:0:
366,93,145036,1,0,0:0:0:0:
177,93,145494,1,0,0:0:0:0:
272,95,145723,2,0,L|473:123,1,190,2|8,3:2|0:0,0:0:0:0:
159,321,146639,6,0,P|104:289|176:223,1,190,2|8,0:0|3:2,0:0:0:0:
266,235,147326,1,0,0:0:0:0:
361,244,147555,1,2,3:2:0:0:
172,243,148013,1,8,0:0:0:0:
381,250,148471,6,0,L|381:51,1,190,2|8,3:2|0:0,0:0:0:0:
287,65,149158,1,0,0:0:0:0:
382,65,149387,1,0,3:0:0:0:
477,67,149616,1,0,0:0:0:0:
383,68,149845,1,8,0:0:0:0:
69,293,150304,5,2,3:2:0:0:
269,294,150762,1,8,0:0:0:0:
332,223,150991,1,0,0:0:0:0:
271,104,151220,2,0,L|52:107,1,190,2|8,3:2|0:0,0:0:0:0:
280,110,152136,6,0,L|480:101,1,190,2|8,3:2|0:0,0:0:0:0:
366,108,152823,1,0,0:0:0:0:
303,191,153052,1,0,3:0:0:0:
369,109,153281,1,0,0:0:0:0:
474,105,153510,1,8,0:0:0:0:
161,88,153968,1,4,0:2:0:0:
256,192,166792,12,0,168166,0:0:0:0:
176,210,168624,6,0,L|174:110,1,95,4|0,0:0|0:0,0:0:0:0:
270,113,169082,2,0,L|395:116,1,95,10|0,0:0|0:0,0:0:0:0:
261,114,169540,2,0,L|67:106,1,190,2|8,0:0|0:0,0:0:0:0:
167,102,170227,1,2,0:0:0:0:
73,91,170456,6,0,P|76:160|209:178,1,190,0|0,3:0|3:0,0:0:0:0:
273,199,171143,1,0,3:0:0:0:
179,192,171372,2,0,P|94:178|67:70,1,190,2|8,0:0|3:2,0:0:0:0:
157,88,172059,1,0,0:0:0:0:
353,70,172288,6,0,L|350:196,1,95,2|0,0:0|0:0,0:0:0:0:
257,171,172746,2,0,L|252:293,1,95
357,278,173204,2,0,L|340:169,1,95
247,184,173662,1,0,0:0:0:0:
229,277,173891,1,0,0:0:0:0:
134,277,174120,6,0,L|84:195,2,95,0|0|0,1:0|0:0|0:0,0:0:0:0:
229,277,174807,1,0,0:0:0:0:
134,277,175036,1,0,1:0:0:0:
420,281,175494,1,0,1:0:0:0:
92,125,175952,6,0,L|219:147,1,95,4|0,0:0|0:0,0:0:0:0:
91,133,176410,2,0,L|85:252,1,95,8|0,0:0|0:0,0:0:0:0:
181,236,176868,2,0,L|381:242,1,190,2|8,0:0|0:0,0:0:0:0:
277,235,177555,1,2,0:0:0:0:
96,322,177784,6,0,L|94:110,1,190,0|0,3:0|3:0,0:0:0:0:
190,132,178471,1,0,3:0:0:0:
285,137,178700,1,2,0:0:0:0:
96,131,179158,1,8,0:0:0:0:
303,159,179616,6,0,L|301:43,1,95,2|0,0:0|0:0,0:0:0:0:
197,67,180075,2,0,L|200:190,1,95
95,167,180533,2,0,L|312:176,1,190
380,183,181220,1,0,0:0:0:0:
199,77,181449,6,0,L|198:200,1,95,2|0,1:2|0:0,0:0:0:0:
303,175,181907,1,0,0:0:0:0:
199,173,182136,1,0,0:0:0:0:
382,91,182365,2,0,L|485:96,2,95,0|0|10,1:0|3:0|1:2,0:0:0:0:
81,208,183281,6,0,L|292:205,1,190,2|10,1:2|0:0,0:0:0:0:
332,278,183968,1,0,0:0:0:0:
269,207,184197,2,0,L|46:201,1,190,2|10,3:2|0:0,0:0:0:0:
379,285,185113,6,0,L|379:81,1,190,2|8,3:2|1:2,0:0:0:0:
285,93,185800,2,0,L|86:77,1,190,0|2,0:0|0:0,0:0:0:0:
191,77,186487,1,0,0:0:0:0:
400,80,186945,6,0,L|178:109,1,190,2|10,1:2|3:2,0:0:0:0:
159,183,187632,1,0,0:0:0:0:
217,106,187861,2,0,L|433:73,1,190,2|10,3:2|0:0,0:0:0:0:
105,316,188777,6,0,L|-11:305,2,95,2|0|8,1:2|0:0|1:2,0:0:0:0:
200,321,189464,1,0,3:0:0:0:
96,321,189693,2,0,P|42:290|136:237,1,190,2|8,1:2|1:2,0:0:0:0:
407,130,190609,6,0,L|184:123,1,190,2|10,1:2|0:0,0:0:0:0:
151,192,191296,1,0,0:0:0:0:
220,125,191525,2,0,L|427:118,1,190,2|8,3:2|0:0,0:0:0:0:
115,335,192441,6,0,P|65:304|155:251,1,190,2|8,1:2|1:2,0:0:0:0:
230,246,193128,2,0,L|25:212,1,190,2|2,0:0|0:0,0:0:0:0:
138,206,193815,1,0,0:0:0:0:
347,197,194273,5,2,1:2:0:0:
158,195,194731,1,10,0:0:0:0:
109,114,194960,1,0,0:0:0:0:
158,195,195189,2,0,L|366:197,1,190,2|10,3:2|0:0,0:0:0:0:
34,99,196105,5,2,1:2:0:0:
34,99,196334,1,0,0:0:0:0:
139,99,196563,1,8,0:0:0:0:
35,97,196792,1,0,3:0:0:0:
230,197,197021,2,0,L|359:196,1,95,2|0,1:2|0:0,0:0:0:0:
136,285,197479,2,0,P|115:185|126:95,1,190,8|8,1:2|0:1,0:0:0:0:
