osu file format v14

[General]
AudioFilename: audio.mp3
AudioLeadIn: 0
PreviewTime: 43853
Countdown: 0
SampleSet: Soft
StackLeniency: 0.7
Mode: 0
LetterboxInBreaks: 0
WidescreenStoryboard: 1

[Editor]
Bookmarks: 113,3777,6525,6983,7441,7670,12937,14769,18433,22097,25761,29425,33090,36754,40418,43624,44082,47746,51410,55074,58280,58738,62403,66067,69731,72937,73395
DistanceSpacing: 1.1
BeatDivisor: 4
GridSize: 32
TimelineZoom: 1.6

[Metadata]
Title:Pretty Little Psycho (Cut Ver.)
TitleUnicode:Pretty Little Psycho (Cut Ver.)
Artist:Porcelain Black
ArtistUnicode:Porcelain Black
Creator:Doro
Version:Normal
Source:
Tags:english pop short version rock club electronic female vocals mimari i love ganyu
BeatmapID:3693333
BeatmapSetID:1800694

[Difficulty]
HPDrainRate:3.5
CircleSize:3.8
OverallDifficulty:4
ApproachRate:5
SliderMultiplier:1.2
SliderTickRate:1

[Events]
//Background and Video events
0,0,"lust.png",0,0
//Break Periods
2,7641,12937
//Storyboard Layer 0 (Background)
//Storyboard Layer 1 (Fail)
//Storyboard Layer 2 (Pass)
//Storyboard Layer 3 (Foreground)
//Storyboard Layer 4 (Overlay)
//Storyboard Sound Samples

[TimingPoints]
113,458.015267175573,4,2,1,50,1,0
113,-105.263157894737,4,2,1,50,0,0
6525,-105.263157894737,4,2,1,50,0,0
6983,-105.263157894737,4,2,1,50,0,0
14769,-105.263157894737,4,2,1,50,0,0
22097,-100,4,2,1,65,0,0
36754,-105.263157894737,4,2,1,60,0,0
38586,-105.263157894737,4,2,1,60,0,0
40418,-105.263157894737,4,2,1,60,0,0
41334,-105.263157894737,4,2,1,60,0,0
43624,-105.263157894737,4,2,1,50,0,0
44082,-95.2380952380952,4,2,1,75,0,1
51410,-95.2380952380952,4,2,1,75,0,1
58280,-95.2380952380952,4,2,1,75,0,0
58738,-95.2380952380952,4,2,1,75,0,1
72937,-95.2380952380952,4,2,1,75,0,0
73395,-100,4,2,1,35,0,0

[Colours]
Combo1 : 55,83,93
Combo2 : 105,159,178

[HitObjects]
370,294,113,6,0,B|431:282|421:328|483:314,2,113.999996955872,6|2|2,0:2|0:2|0:2,0:0:0:0:
305,199,1487,1,0,0:0:0:0:
219,123,1945,2,0,L|96:133,1,113.999996955872
44,228,2861,2,0,P|31:279|45:342,1,113.999996955872,2|2,0:2|0:2,0:0:0:0:
143,283,3777,6,0,B|176:271|176:271|257:291,2,113.999996955872,2|2|2,0:2|0:2|0:2,0:0:0:0:
43,338,5151,1,2,0:2:0:0:
44,228,5609,2,0,B|22:171|61:177|43:112,1,113.999996955872,2|2,0:2|0:2,0:0:0:0:
142,59,6525,2,0,P|200:47|252:76,1,113.999996955872,2|2,0:2|0:2,0:0:0:0:
322,156,7441,5,2,0:2:0:0:
414,225,14769,5,0,1:2:0:0:
326,150,15227,2,0,B|270:137|279:182|213:170,2,113.999996955872,0|0|0,3:2|1:2|1:2,0:0:0:0:
316,263,16601,2,0,P|333:315|316:378,1,113.999996955872,0|0,1:2|1:2,0:0:0:0:
219,318,17517,2,0,L|93:307,1,113.999996955872,0|0,1:2|3:2,0:0:0:0:
47,209,18433,5,0,1:2:0:0:
109,113,18891,2,0,B|142:101|142:101|223:121,2,113.999996955872,0|0|0,1:2|1:2|1:2,0:0:0:0:
168,210,20265,2,0,P|222:230|278:214,1,113.999996955872
379,170,21181,2,0,L|368:44,1,113.999996955872,0|0,1:2|0:0,0:0:0:0:
250,38,22097,6,0,B|220:32|220:32|193:41,1,60,6|2,1:2|0:2,0:0:0:0:
143,77,22555,1,8,0:2:0:0:
54,177,23013,2,0,L|60:239,1,60,2|2,1:2|0:2,0:0:0:0:
115,260,23471,2,0,L|109:321,1,60,10|2,0:2|0:2,0:0:0:0:
61,355,23929,2,0,B|97:342|97:342|185:364,1,120,2|10,1:2|0:2,0:0:0:0:
293,381,24845,2,0,L|303:255,1,120,2|8,1:2|0:0,0:0:0:0:
365,158,25761,6,0,P|396:150|423:158,1,60,2|2,1:2|0:2,0:0:0:0:
462,202,26219,1,8,0:2:0:0:
363,266,26677,2,0,L|300:260,1,60,2|2,1:2|0:0,0:0:0:0:
261,217,27135,2,0,L|198:222,1,60,10|2,0:0|0:0,0:0:0:0:
167,172,27593,2,0,B|106:158|117:209|41:194,1,120,2|10,1:2|0:0,0:0:0:0:
79,78,28509,2,0,L|73:15,2,60,2|2|8,1:2|0:0|0:0,0:0:0:0:
197,99,29425,6,0,P|266:93|309:140,1,120,2|10,1:2|0:2,0:0:0:0:
411,171,30342,2,0,L|405:233,1,60,2|2,1:2|0:0,0:0:0:0:
350,254,30800,2,0,L|356:315,1,60,10|0,0:2|0:0,0:0:0:0:
312,355,31258,2,0,B|251:340|251:340|189:354,1,120,2|10,1:2|0:2,0:0:0:0:
89,295,32174,2,0,B|82:263|82:263|91:229,1,60,2|2,1:2|0:0,0:0:0:0:
108,180,32632,1,10,0:2:0:0:
205,110,33090,6,0,B|266:96|255:147|331:132,1,120,2|10,1:2|0:2,0:0:0:0:
435,105,34006,2,0,P|445:136|437:169,1,60,2|2,1:2|0:0,0:0:0:0:
414,216,34464,1,10,0:2:0:0:
321,293,34922,2,0,B|292:284|292:284|262:289,1,60,2|2,1:2|0:0,0:0:0:0:
211,320,35380,2,0,B|198:284|198:284|220:200,2,120,10|2|8,0:2|1:2|0:0,0:0:0:0:
321,293,36754,6,0,P|375:284|435:317,1,113.999996955872,6|0,1:2|0:0,0:0:0:0:
448,196,37670,2,0,L|459:62,1,113.999996955872,10|0,1:2|0:0,0:0:0:0:
347,52,38586,2,0,B|290:38|290:38|232:51,1,113.999996955872,2|0,1:2|0:0,3:0:0:0:
126,82,39502,2,0,P|108:130|128:192,1,113.999996955872,10|0,1:2|0:0,0:3:0:0:
222,132,40418,6,0,L|335:141,1,113.999996955872,2|0,1:2|0:0,0:0:0:0:
300,248,41334,2,0,B|242:225|246:269|189:243,1,113.999996955872,10|0,1:2|0:0,3:0:0:0:
112,159,42250,1,0,0:0:0:0:
47,76,44082,6,0,L|130:83,1,62.9999980773926,6|0,1:2|0:0,0:0:0:0:
158,139,44540,2,0,L|241:131,1,62.9999980773926,10|0,0:0|0:0,0:0:0:0:
290,103,44998,2,0,P|335:130|340:206,1,125.999996154785,2|8,1:2|0:0,0:0:0:0:
318,268,45685,1,2,0:0:0:0:
193,353,46143,6,0,P|159:360|128:353,1,62.9999980773926,2|0,0:0|0:0,0:0:0:0:
81,305,46601,1,2,0:0:0:0:
81,305,46830,2,0,B|68:267|68:267|91:176,1,125.999996154785,2|10,1:2|0:0,0:0:0:0:
191,59,47746,6,0,L|274:66,1,62.9999980773926,2|2,1:2|0:0,0:0:0:0:
297,125,48204,2,0,L|380:118,1,62.9999980773926,10|2,0:0|0:0,0:0:0:0:
415,63,48662,2,0,P|437:116|415:181,1,125.999996154785,2|10,1:2|0:0,0:0:0:0:
314,295,49578,6,0,B|281:302|281:302|243:295,1,62.9999980773926,2|2,1:2|0:0,0:0:0:0:
195,248,50036,2,0,B|161:240|161:240|124:248,1,62.9999980773926,10|2,0:0|0:0,0:0:0:0:
69,285,50494,1,2,1:2:0:0:
69,285,50723,1,0,1:2:0:0:
59,204,50952,1,0,0:0:0:0:
125,85,51410,6,0,L|118:168,1,62.9999980773926,6|0,1:2|0:0,0:0:0:0:
189,185,51868,2,0,L|196:268,1,62.9999980773926,10|0,0:0|0:0,0:0:0:0:
187,323,52326,2,0,P|214:278|290:272,1,125.999996154785,2|8,1:2|0:0,0:0:0:0:
354,291,53013,1,2,0:0:0:0:
436,164,53471,6,0,P|444:129|434:98,1,62.9999980773926,2|0,0:0|0:0,0:0:0:0:
367,73,53929,1,2,0:0:0:0:
367,73,54158,2,0,B|302:58|314:113|232:97,1,125.999996154785,2|0,1:2|0:0,0:0:0:0:
99,69,55074,6,0,L|92:152,1,62.9999980773926,2|2,1:2|0:0,0:0:0:0:
155,175,55532,2,0,L|162:258,1,62.9999980773926,10|2,0:0|0:0,0:0:0:0:
110,294,55990,2,0,B|148:281|148:281|239:304,1,125.999996154785,2|10,1:2|0:0,0:0:0:0:
380,328,56906,6,0,P|387:295|380:260,1,62.9999980773926,10|2,1:2|1:2,0:0:0:0:
338,204,57364,2,0,P|331:171|338:136,1,62.9999980773926,10|2,1:2|1:2,0:0:0:0:
394,94,57822,1,10,1:2:0:0:
394,94,58051,1,10,1:2:0:0:
464,120,58280,1,14,1:2:0:0:
338,204,58738,6,0,L|267:197,1,62.9999980773926,6|2,1:2|0:0,0:0:0:0:
209,218,59196,1,10,0:0:0:0:
94,139,59654,2,0,P|86:107|93:76,1,62.9999980773926,2|2,1:2|0:0,0:0:0:0:
141,28,60113,1,10,0:0:0:0:
303,60,60571,6,0,P|311:92|304:123,1,62.9999980773926,2|2,1:2|0:0,0:0:0:0:
253,167,61029,1,10,0:0:0:0:
198,210,61258,2,0,P|153:237|148:313,1,125.999996154785,2|2,0:0|0:0,0:0:0:0:
348,345,62403,6,0,L|353:277,1,62.9999980773926,2|2,1:2|0:0,0:0:0:0:
374,216,62861,1,10,0:0:0:0:
493,145,63319,2,0,L|488:77,1,62.9999980773926,2|2,1:2|0:0,0:0:0:0:
450,24,63777,1,10,0:0:0:0:
321,76,64235,6,0,P|287:67|254:74,1,62.9999980773926,2|2,1:2|0:0,0:0:0:0:
215,125,64693,2,0,P|181:134|148:127,1,62.9999980773926,10|2,0:0|0:0,0:0:0:0:
123,67,65151,2,0,B|93:124|150:128|108:203,1,125.999996154785,2|0,1:2|0:0,0:0:0:0:
91,325,66067,6,0,L|155:319,1,62.9999980773926,6|2,1:2|0:0,0:0:0:0:
220,300,66525,1,10,0:0:0:0:
349,350,66983,2,0,P|383:354|412:343,1,62.9999980773926,2|2,1:2|0:0,0:0:0:0:
451,289,67441,1,10,0:0:0:0:
391,163,67899,6,0,P|360:146|329:144,1,62.9999980773926,2|2,3:2|3:0,3:0:0:0:
263,154,68357,1,10,0:0:0:0:
197,130,68586,2,0,P|146:117|88:166,1,125.999996154785,2|2,0:0|0:0,0:0:0:0:
192,339,69731,6,0,L|199:255,1,62.9999980773926,2|2,1:2|0:0,0:0:0:0:
240,221,70189,1,10,0:0:0:0:
329,114,70647,2,0,P|321:76|299:50,1,62.9999980773926,2|2,1:2|0:0,0:0:0:0:
241,34,71105,1,10,0:0:0:0:
122,83,71563,5,10,1:2:0:0:
122,83,71792,1,2,1:2:0:0:
84,148,72021,2,0,L|89:215,1,62.9999980773926,10|2,1:2|1:2,0:0:0:0:
149,255,72479,2,0,L|143:322,1,62.9999980773926,10|10,1:2|1:2,0:0:0:0:
87,368,72937,1,14,1:2:0:0:
