osu file format v14

[General]
AudioFilename: audio.mp3
AudioLeadIn: 0
PreviewTime: 43853
Countdown: 0
SampleSet: Soft
StackLeniency: 0.7
Mode: 0
LetterboxInBreaks: 0
WidescreenStoryboard: 1

[Editor]
Bookmarks: 113,3777,6525,6983,7441,7670,12937,14769,18433,22097,25761,29425,33090,36754,40418,43624,44082,47746,51410,55074,58280,58738,62403,66067,69731,72937,73395
DistanceSpacing: 1.2
BeatDivisor: 4
GridSize: 32
TimelineZoom: 1.6

[Metadata]
Title:Pretty Little Psycho (Cut Ver.)
TitleUnicode:Pretty Little Psycho (Cut Ver.)
Artist:Porcelain Black
ArtistUnicode:Porcelain Black
Creator:Doro
Version:Hard
Source:
Tags:english pop short version rock club electronic female vocals mimari i love ganyu
BeatmapID:3692719
BeatmapSetID:1800694

[Difficulty]
HPDrainRate:4.5
CircleSize:4
OverallDifficulty:6.3
ApproachRate:7.5
SliderMultiplier:1.4
SliderTickRate:1

[Events]
//Background and Video events
0,0,"lust.png",0,0
//Break Periods
2,7641,12937
//Storyboard Layer 0 (Background)
//Storyboard Layer 1 (Fail)
//Storyboard Layer 2 (Pass)
//Storyboard Layer 3 (Foreground)
//Storyboard Layer 4 (Overlay)
//Storyboard Sound Samples

[TimingPoints]
113,458.015267175573,4,2,1,50,1,0
113,-111.111111111111,4,2,1,50,0,0
6525,-111.111111111111,4,2,1,50,0,0
6983,-111.111111111111,4,2,1,50,0,0
14769,-111.111111111111,4,2,1,50,0,0
19807,-105.263157894737,4,2,1,50,0,0
22097,-100,4,2,1,65,0,0
36754,-100,4,2,1,60,0,0
38586,-100,4,2,1,60,0,0
40418,-100,4,2,1,60,0,0
41334,-100,4,2,1,60,0,0
43624,-100,4,2,1,50,0,0
44082,-90.9090909090909,4,2,1,75,0,1
51410,-90.9090909090909,4,2,1,75,0,1
58280,-90.9090909090909,4,2,1,75,0,0
58738,-90.9090909090909,4,2,1,75,0,1
72937,-90.9090909090909,4,2,1,75,0,0
73395,-100,4,2,1,35,0,0

[Colours]
Combo1 : 55,83,93
Combo2 : 105,159,178

[HitObjects]
426,103,113,6,0,L|347:96,1,62.9999980773926,6|0,0:2|0:0,0:0:0:0:
299,56,571,2,0,L|220:63,1,62.9999980773926,2|0,0:2|0:0,0:0:0:0:
173,103,1029,2,0,P|116:99|69:152,1,125.999996154785,2|0,0:2|0:0,0:0:0:0:
139,176,1716,6,0,P|146:210|133:246,1,62.9999980773926,2|0,0:2|0:0,0:0:0:0:
74,276,2174,2,0,P|66:306|73:336,1,62.9999980773926,2|0,0:3|0:0,0:0:0:0:
147,367,2632,1,2,0:2:0:0:
147,367,2861,1,2,0:2:0:0:
290,310,3319,6,0,L|297:231,1,62.9999980773926,2|2,0:2|0:2,0:0:0:0:
365,219,3777,2,0,L|358:140,1,62.9999980773926,2|0,0:2|0:0,0:0:0:0:
323,89,4235,2,0,P|292:81|262:88,1,62.9999980773926,2|0,0:2|0:0,0:0:0:0:
194,120,4693,1,2,0:2:0:0:
226,188,4922,2,0,B|233:218|233:218|226:249,2,62.9999980773926,0|2|0,0:0|0:2|0:0,0:0:0:0:
150,181,5609,6,0,L|71:188,1,62.9999980773926,2|0,0:2|0:0,0:0:0:0:
38,247,6067,2,0,L|45:326,1,62.9999980773926,2|0,0:2|0:0,0:0:0:0:
112,341,6525,2,0,B|145:324|175:341|175:341|207:357|240:346,2,125.999996154785,2|2|2,0:2|0:2|0:2,0:0:0:0:
482,103,14769,6,0,L|420:108,1,62.9999980773926,0|0,1:2|0:0,0:0:0:0:
376,160,15227,2,0,L|314:154,1,62.9999980773926,0|0,3:2|0:0,0:0:0:0:
255,187,15685,1,0,1:2:0:0:
255,187,15914,2,0,P|262:217|255:247,2,62.9999980773926,0|0|0,0:0|1:2|0:0,0:0:0:0:
193,217,16601,6,0,L|121:210,1,62.9999980773926,0|0,1:2|0:0,0:0:0:0:
91,153,17059,2,0,L|97:81,1,62.9999980773926,0|0,1:2|0:0,0:0:0:0:
173,81,17517,1,0,1:2:0:0:
173,81,17746,2,0,P|204:74|236:88,2,62.9999980773926,0|0|0,3:0|3:2|3:0,3:0:0:0:
199,154,18433,6,0,L|192:225,1,62.9999980773926,0|0,1:2|0:0,0:0:0:0:
145,275,18891,2,0,L|151:346,1,62.9999980773926,0|0,1:2|0:0,0:0:0:0:
218,371,19349,1,0,1:2:0:0:
218,371,19578,1,0,0:0:0:0:
268,322,19807,2,0,B|302:316|302:316|339:329,1,66.4999982242585,0|0,1:2|0:0,0:0:0:0:
400,303,20265,6,0,P|407:269|400:236,1,66.4999982242585
339,199,20723,2,0,P|331:165|338:132,1,66.4999982242585
380,76,21181,1,0,1:2:0:0:
380,76,21410,1,0,0:0:0:0:
307,67,21639,2,0,B|272:61|272:61|234:74,1,66.4999982242585
155,115,22097,5,6,1:2:0:0:
155,115,22212,1,0,0:0:0:0:
155,115,22326,1,2,0:2:0:0:
229,153,22555,2,0,P|236:188|229:222,1,70,8|2,0:2|0:2,0:0:0:0:
150,236,23013,1,2,1:2:0:0:
150,236,23242,1,2,0:2:0:0:
73,271,23471,2,0,L|80:342,1,70,10|2,0:2|0:2,0:0:0:0:
161,361,23929,6,0,B|196:355|196:355|234:368,1,70,2|2,1:2|0:2,0:0:0:0:
307,332,24387,2,0,B|342:338|342:338|380:325,1,70,10|2,0:2|0:2,0:0:0:0:
429,261,24845,1,2,1:2:0:0:
364,207,25074,2,0,L|371:136,2,70,2|8|2,0:0|0:0|0:2,0:0:0:0:
295,253,25761,5,2,1:2:0:0:
295,253,25990,1,2,0:2:0:0:
228,201,26219,2,0,P|194:193|161:200,1,70,8|2,0:2|0:2,0:0:0:0:
79,226,26677,1,2,1:2:0:0:
101,144,26906,2,0,L|94:73,2,70,2|10|2,0:0|0:0|0:0,0:0:0:0:
160,200,27593,5,2,1:2:0:0:
160,200,27822,1,2,0:0:0:0:
205,129,28051,2,0,P|239:121|272:128,1,70,10|2,0:0|0:0,0:0:0:0:
375,158,28509,1,2,1:2:0:0:
375,158,28738,1,2,0:0:0:0:
460,216,28967,1,8,0:0:0:0:
460,216,29196,1,2,1:2:0:0:
369,252,29425,5,2,1:2:0:0:
367,335,29654,1,2,0:0:0:0:
367,335,29769,1,0,0:0:0:0:
367,335,29883,1,10,0:2:0:0:
294,291,30113,1,2,0:0:0:0:
294,291,30342,2,0,L|210:298,1,70,2|2,1:2|0:0,0:0:0:0:
189,220,30800,2,0,L|105:212,1,70,10|0,0:2|0:0,0:0:0:0:
60,161,31258,5,2,1:2:0:0:
60,161,31487,1,2,0:0:0:0:
117,99,31716,1,10,0:2:0:0:
196,141,31945,5,2,0:0:0:0:
196,141,32059,1,0,0:0:0:0:
196,141,32174,1,2,1:2:0:0:
190,51,32403,1,2,0:0:0:0:
259,87,32632,2,0,P|293:84|325:97,1,70,10|0,0:2|0:0,0:0:0:0:
360,176,33090,6,0,L|353:247,2,70,2|2|10,1:2|0:0|0:2,0:0:0:0:
418,115,33777,1,2,0:0:0:0:
458,188,34006,2,0,B|464:223|464:223|451:261,1,70,2|2,1:2|0:0,0:0:0:0:
397,319,34464,1,10,0:2:0:0:
397,319,34693,1,0,0:0:0:0:
353,245,34922,6,0,B|318:239|318:239|280:252,1,70,2|2,1:2|0:0,0:0:0:0:
197,281,35380,2,0,L|204:210,1,70,10|2,0:2|0:0,0:0:0:0:
266,158,35838,2,0,L|259:87,1,70,2|2,1:2|0:0,0:0:0:0:
189,52,36296,1,8,0:0:0:0:
119,99,36525,1,0,0:0:0:0:
136,181,36754,6,0,P|77:173|22:241,1,140,6|0,1:2|0:0,0:0:0:0:
169,310,37670,2,0,L|308:297,1,140,10|0,1:2|0:0,0:0:0:0:
472,334,38586,2,0,B|490:297|472:264|472:264|453:229|466:193,1,140,2|0,1:2|0:0,3:0:0:0:
356,69,39502,2,0,L|216:56,1,140,10|0,1:2|0:0,0:3:0:0:
77,150,40418,6,0,P|135:142|190:210,1,140,2|0,1:2|0:0,0:0:0:0:
291,328,41334,2,0,B|328:312|360:328|360:328|397:345|431:333,1,140,10|0,1:2|0:0,3:0:0:0:
256,192,42250,12,8,43624,0:0:0:0:
53,95,44082,6,0,L|132:88,1,77.0000023498536,6|0,1:2|0:0,0:0:0:0:
206,152,44540,2,0,P|210:192|199:231,1,77.0000023498536,10|0,0:0|0:0,0:0:0:0:
122,289,44998,2,0,P|60:281|2:353,1,154.000004699707,2|8,1:2|0:0,0:0:0:0:
86,368,45685,6,0,L|165:361,1,77.0000023498536,2|0,0:0|1:2,0:0:0:0:
241,299,46143,2,0,L|320:305,1,77.0000023498536,2|0,0:0|0:0,0:0:0:0:
407,350,46601,1,2,0:0:0:0:
441,255,46830,2,0,P|445:219|435:179,1,77.0000023498536,2|0,1:2|0:0,0:0:0:0:
380,112,47288,1,10,0:0:0:0:
380,112,47517,1,2,0:0:0:0:
294,147,47746,6,0,B|256:153|256:153|215:139,1,77.0000023498536,2|2,1:2|0:0,0:0:0:0:
154,75,48204,2,0,B|116:68|116:68|75:82,1,77.0000023498536,10|2,0:0|0:0,0:0:0:0:
21,151,48662,1,2,1:2:0:0:
83,218,48891,2,0,P|79:254|88:294,2,77.0000023498536,2|10|2,0:0|0:0|0:0,0:0:0:0:
186,249,49578,5,2,1:2:0:0:
286,210,49807,1,2,0:0:0:0:
273,317,50036,1,10,0:0:0:0:
371,273,50265,1,2,0:0:0:0:
461,213,50494,2,0,L|454:133,1,77.0000023498536,2|0,1:2|1:2,0:0:0:0:
372,66,50952,2,0,P|333:58|292:72,1,77.0000023498536,0|0,0:0|1:2,0:0:0:0:
197,84,51410,6,0,L|117:90,1,77.0000023498536,6|0,1:2|0:0,0:0:0:0:
67,174,51868,2,0,P|62:214|73:253,1,77.0000023498536,10|0,0:0|0:0,0:0:0:0:
150,202,52326,2,0,P|212:194|270:266,1,154.000004699707,2|8,1:2|0:0,0:0:0:0:
351,313,53013,6,0,L|344:233,1,77.0000023498536,2|0,0:0|1:2,0:0:0:0:
443,220,53471,2,0,L|449:140,1,77.0000023498536,2|0,0:0|0:0,0:0:0:0:
362,92,53929,1,2,0:0:0:0:
265,63,54158,2,0,P|260:103|271:142,1,77.0000023498536,2|0,1:2|0:0,0:0:0:0:
186,194,54616,2,0,L|106:200,1,77.0000023498536
35,140,55074,5,2,1:2:0:0:
35,140,55303,1,2,0:0:0:0:
59,42,55532,2,0,P|97:33|139:45,1,77.0000023498536,10|2,0:0|0:0,0:0:0:0:
237,68,55990,1,2,1:2:0:0:
283,173,56219,2,0,L|277:252,2,77.0000023498536,2|10|2,0:0|0:0|0:0,0:0:0:0:
359,87,56906,5,10,1:2:0:0:
359,87,57135,1,2,1:2:0:0:
439,176,57364,1,10,1:2:0:0:
439,176,57593,1,2,1:2:0:0:
335,227,57822,1,10,1:2:0:0:
425,310,58051,1,10,1:2:0:0:
309,353,58280,2,0,B|271:359|271:359|230:345,1,77.0000023498536,14|0,1:2|0:0,0:0:0:0:
146,260,58738,6,0,L|154:162,1,77.0000023498536,6|2,1:2|0:0,0:0:0:0:
234,125,59196,2,0,P|273:118|309:129,1,77.0000023498536,10|2,0:0|0:0,0:0:0:0:
372,205,59654,1,2,1:2:0:0:
451,265,59883,2,0,L|444:346,2,77.0000023498536,2|10|2,0:0|0:0|0:0,0:0:0:0:
466,168,60571,5,2,1:2:0:0:
466,168,60800,1,2,0:0:0:0:
473,68,61029,1,10,0:0:0:0:
376,54,61258,2,0,B|338:61|338:61|297:47,1,77.0000023498536,2|0,0:0|0:0,0:0:0:0:
211,29,61716,2,0,B|173:22|173:22|132:36,1,77.0000023498536,2|0,0:0|0:0,0:0:0:0:
78,105,62174,1,0,0:0:0:0:
158,150,62403,6,0,L|151:228,1,77.0000023498536,2|2,1:2|0:0,0:0:0:0:
64,257,62861,2,0,L|70:334,1,77.0000023498536,10|2,0:0|0:0,0:0:0:0:
159,357,63319,1,2,1:2:0:0:
243,345,63548,2,0,P|280:351|316:340,2,77.0000023498536,2|10|2,0:0|0:0|0:0,0:0:0:0:
279,253,64235,5,2,1:2:0:0:
279,253,64464,1,2,0:0:0:0:
368,192,64693,1,10,0:0:0:0:
448,263,64922,1,2,0:0:0:0:
476,159,65151,2,0,B|489:123|489:123|481:80,1,77.0000023498536,2|0,1:2|1:2,0:0:0:0:
403,22,65609,2,0,B|389:57|389:57|397:100,1,77.0000023498536,0|0,0:0|1:2,0:0:0:0:
368,192,66067,6,0,L|279:183,1,77.0000023498536,6|2,1:2|0:0,0:0:0:0:
224,259,66525,2,0,L|146:265,1,77.0000023498536,10|2,0:0|0:0,0:0:0:0:
49,244,66983,1,2,1:2:0:0:
114,168,67212,2,0,P|107:129|117:92,2,77.0000023498536,2|10|2,0:0|0:0|0:0,0:0:0:0:
218,144,67899,5,2,3:2:0:0:
218,144,68128,1,2,3:0:0:0:
302,197,68357,1,10,0:0:0:0:
304,96,68586,2,0,B|339:82|339:82|382:90,1,77.0000023498536,2|0,0:0|0:0,0:0:0:0:
469,49,69044,2,0,B|482:84|482:84|474:127,1,77.0000023498536,2|0,0:0|0:0,0:0:0:0:
453,203,69502,1,0,0:0:0:0:
481,290,69731,6,0,P|444:296|407:288,1,77.0000023498536,2|2,1:2|0:0,0:0:0:0:
314,273,70189,2,0,P|275:265|239:278,1,77.0000023498536,10|2,0:0|0:0,0:0:0:0:
151,254,70647,1,2,1:2:0:0:
101,176,70876,2,0,L|93:95,2,77.0000023498536,2|10|2,0:0|0:0|0:0,0:0:0:0:
212,187,71563,5,10,1:2:0:0:
212,187,71792,1,2,1:2:0:0:
281,95,72021,1,10,1:2:0:0:
281,95,72250,1,2,1:2:0:0:
336,205,72479,1,10,1:2:0:0:
418,113,72708,1,10,1:2:0:0:
455,230,72937,2,0,B|435:268|455:304|455:304|474:341|461:380,1,154.000004699707,14|0,1:2|0:0,0:0:0:0:
