osu file format v14

[General]
AudioFilename: audio.mp3
AudioLeadIn: 0
PreviewTime: 34193
Countdown: 0
SampleSet: Soft
StackLeniency: 0.7
Mode: 0
LetterboxInBreaks: 0
WidescreenStoryboard: 1

[Editor]
DistanceSpacing: 1
BeatDivisor: 4
GridSize: 4
TimelineZoom: 1

[Metadata]
Title:Pokemon x Poppy
TitleUnicode:Pokémon x Poppy
Artist:Poppy
ArtistUnicode:Poppy
Creator:reiSevia
Version:Normal~!
Source:Pokémon: Indigo League
Tags:browiec cycopton wanpachi mildly_accurate ma gotta catch 'em all Pocket Monsters ポケットモンスター Poketto Monsuta female vocals english pop short cute poppymon that kanto jason paige generation gen 1 rock theme cover
BeatmapID:2586770
BeatmapSetID:1244395

[Difficulty]
HPDrainRate:3
CircleSize:3
OverallDifficulty:4
ApproachRate:5.5
SliderMultiplier:0.999999999999999
SliderTickRate:1

[Events]
//Background and Video events
0,0,"Poppymon.jpg",0,0
//Break Periods
//Storyboard Layer 0 (Background)
//Storyboard Layer 1 (Fail)
//Storyboard Layer 2 (Pass)
//Storyboard Layer 3 (Foreground)
//Storyboard Layer 4 (Overlay)
//Storyboard Sound Samples

[TimingPoints]
-805,405.405405405405,4,2,1,50,1,0
4059,-100,4,2,1,75,0,0
8924,-111.111111111111,4,2,1,75,0,0
9026,-111.111111111111,4,2,1,45,0,0
31627,-111.111111111111,4,2,1,50,0,0
34262,-111.111111111111,4,2,1,80,0,0
36492,-90.9090909090909,4,2,1,80,0,1
44499,-90.9090909090909,4,2,1,80,0,0
44600,-90.9090909090909,4,2,1,90,0,1
44701,-90.9090909090909,4,2,1,80,0,1
44803,-90.9090909090909,4,2,1,80,0,0
45208,-90.9090909090909,4,2,1,90,0,1
45309,-90.9090909090909,4,2,1,80,0,1
45411,-90.9090909090909,4,2,1,80,0,0
45816,-90.9090909090909,4,2,1,90,0,1
45917,-90.9090909090909,4,2,1,80,0,1
46424,-90.9090909090909,4,2,1,80,0,0
47640,-90.9090909090909,4,2,1,80,0,1
57472,-90.9090909090909,4,2,1,80,0,0
57573,-90.9090909090909,4,2,1,80,0,1
57776,-90.9090909090909,4,2,1,80,0,0
58181,-90.9090909090909,4,2,1,80,0,1
58384,-90.9090909090909,4,2,1,80,0,0
58789,-90.9090909090909,4,2,1,80,0,1
59397,-90.9090909090909,4,2,1,80,0,0
60816,-100,4,2,1,70,0,0
62539,-100,4,2,1,70,0,0
62640,-100,4,2,1,5,0,0
62843,-100,4,2,1,65,0,0
63249,-100,4,2,1,60,0,0
63654,-100,4,2,1,55,0,0
64059,-100,4,2,1,50,0,0
64465,-100,4,2,1,45,0,0
64870,-100,4,2,1,40,0,0
65276,-100,4,2,1,35,0,0
65681,-100,4,2,1,30,0,0
66086,-100,4,2,1,25,0,0
66492,-100,4,2,1,20,0,0
66897,-100,4,2,1,15,0,0
67303,-100,4,2,1,5,0,0

[Colours]
Combo1 : 203,117,232
Combo2 : 238,79,79
Combo3 : 245,155,73
Combo4 : 249,240,72
Combo5 : 112,234,81
Combo6 : 85,157,244

[HitObjects]
50,291,4059,6,0,P|92:279|145:319,1,99.9999999999999,6|8,3:2|0:0,0:0:0:0:
170,344,4667,1,6,3:2:0:0:
262,300,5073,1,8,0:0:0:0:
262,300,5276,2,0,P|240:224|276:150,1,150,6|8,3:2|3:0,0:0:0:0:
309,134,6086,2,0,P|313:98|317:74,1,50,8|0,3:0|3:0,0:0:0:0:
290,41,6492,1,8,3:0:0:0:
202,90,6897,1,6,3:0:0:0:
116,142,7303,2,0,P|122:201|134:312,2,150,6|6|2,3:2|3:2|0:0,0:0:0:0:
88,56,8924,6,0,L|178:65,1,89.999997253418,4|2,3:2|3:2,0:0:0:0:
213,38,9532,1,2,0:0:0:0:
213,38,9735,2,0,L|303:29,1,89.999997253418,2|0,3:2|3:2,0:0:0:0:
392,24,10546,2,0,P|402:82|410:125,1,89.999997253418,2|2,3:2|3:2,0:0:0:0:
378,146,11154,2,0,P|368:204|360:247,1,89.999997253418,2|0,0:0|0:0,0:0:0:0:
410,309,11965,1,2,0:0:0:0:
410,309,12167,6,0,P|383:322|315:310,1,89.999997253418,2|2,3:2|3:2,0:0:0:0:
267,246,12978,2,0,L|266:191,2,44.999998626709,2|2|2,3:2|0:0|3:2,0:0:0:0:
235,330,13789,1,0,3:2:0:0:
149,358,14194,2,0,L|97:351,1,44.999998626709,0|0,3:2|3:2,0:0:0:0:
70,321,14600,2,0,P|65:276|80:234,1,89.999997253418,0|0,3:2|3:2,0:0:0:0:
246,199,15613,5,2,0:0:0:0:
246,199,15816,2,0,P|279:208|339:187,1,89.999997253418,2|2,3:2|3:2,0:0:0:0:
386,121,16627,1,2,3:2:0:0:
386,121,16830,2,0,L|401:22,2,89.999997253418,2|2|2,0:0|0:0|3:2,0:0:0:0:
418,151,17843,2,0,L|431:239,1,89.999997253418,0|0,3:2|3:2,0:0:0:0:
434,330,18654,6,0,P|389:319|343:336,1,89.999997253418,2|2,3:2|3:2,0:0:0:0:
315,362,19262,2,0,P|270:373|224:356,1,89.999997253418,2|2,3:2|0:0,0:0:0:0:
218,316,19870,2,0,L|230:215,2,89.999997253418,2|0|0,3:2|3:2|3:2,0:0:0:0:
138,353,21086,1,0,3:2:0:0:
138,353,21289,2,0,L|84:343,1,44.999998626709,2|2,3:2|3:2,0:0:0:0:
49,337,21694,1,2,3:2:0:0:
117,220,22303,6,0,L|108:169,1,44.999998626709,2|2,1:2|3:2,0:0:0:0:
73,148,22708,1,2,3:2:0:0:
73,148,22911,2,0,L|87:56,1,89.999997253418,2|2,0:0|0:0,0:0:0:0:
95,14,23519,1,2,3:2:0:0:
183,49,23924,1,2,1:2:0:0:
183,49,24127,2,0,L|277:38,1,89.999997253418,2|2,0:0|3:2,0:0:0:0:
317,32,24735,1,0,1:2:0:0:
369,111,25140,5,2,3:2:0:0:
369,111,25343,2,0,P|386:160|375:210,1,89.999997253418,2|0,0:0|3:2,0:0:0:0:
390,240,25951,2,0,L|289:251,1,89.999997253418,2|2,3:2|1:2,0:0:0:0:
262,226,26559,1,2,0:0:0:0:
146,292,27167,1,0,1:2:0:0:
146,292,27370,2,0,L|131:241,1,44.999998626709,2|0,3:2|3:2,0:0:0:0:
98,219,27776,2,0,L|113:168,1,44.999998626709,2|0,3:2|1:2,0:0:0:0:
82,140,28181,1,2,3:2:0:0:
110,54,28586,6,0,L|161:63,1,44.999998626709,2|2,3:2|1:2,0:0:0:0:
185,102,28992,1,2,3:2:0:0:
185,102,29194,2,0,L|286:84,1,89.999997253418,2|0,3:2|1:2,0:0:0:0:
341,22,30005,2,0,P|381:38|428:33,1,89.999997253418,2|2,3:2|1:2,0:0:0:0:
469,52,30613,2,0,P|453:92|481:178,1,134.999995880127,2|0,3:2|1:2,0:0:0:0:
256,192,31627,12,0,34870,0:0:0:0:
64,72,36492,6,0,P|108:88|180:68,1,110.000003356934,6|8,3:2|0:0,0:0:0:0:
203,32,37100,1,2,0:0:0:0:
203,32,37303,2,0,L|260:37,1,55.0000016784668,0|0,3:2|3:2,0:0:0:0:
312,43,37708,1,8,0:0:0:0:
394,115,38113,6,0,L|380:229,1,110.000003356934,0|8,3:2|0:0,0:0:0:0:
406,272,38722,1,2,0:0:0:0:
406,272,38924,2,0,L|465:267,2,55.0000016784668,2|2|10,3:2|3:2|0:0,0:0:0:0:
361,304,39532,2,0,P|319:332|245:306,1,110.000003356934,6|2,3:2|3:2,0:0:0:0:
222,284,40140,1,8,0:0:0:0:
153,197,40546,2,0,L|144:139,1,55.0000016784668,0|2,3:2|3:2,0:0:0:0:
137,88,40951,1,14,0:0:0:0:
247,86,41357,6,0,L|360:69,2,110.000003356934,6|10|0,3:2|0:0|3:2,0:0:0:0:
199,58,42370,1,0,3:2:0:0:
199,58,42573,2,0,L|138:52,1,55.0000016784668,8|2,0:0|0:0,0:0:0:0:
89,49,42978,1,2,3:2:0:0:
89,49,43181,2,0,P|106:126|81:158,1,110.000003356934,2|2,0:0|0:0,0:0:0:0:
54,188,43789,1,2,3:2:0:0:
65,297,44194,2,0,L|72:354,1,55.0000016784668,10|2,0:0|3:2,0:0:0:0:
112,364,44600,6,0,P|173:355|232:346,1,110.000003356934,6|10,3:2|0:0,0:0:0:0:
271,368,45208,1,6,3:2:0:0:
362,307,45613,1,10,0:0:0:0:
362,307,45816,2,0,B|338:285|312:264|312:264|327:216|341:161,1,165.0000050354,6|8,3:2|3:0,0:0:0:0:
356,116,46627,1,8,3:0:0:0:
278,38,47032,2,0,L|224:46,1,55.0000016784668,8|10,3:0|3:0,0:0:0:0:
168,53,47438,1,10,0:0:0:0:
168,53,47640,6,0,P|139:112|163:165,1,110.000003356934,6|0,3:2|0:0,0:0:0:0:
203,168,48249,2,0,L|212:229,1,55.0000016784668,10|2,0:0|0:0,0:0:0:0:
215,277,48654,1,2,3:2:0:0:
215,277,48857,1,2,3:2:0:0:
287,359,49262,2,0,P|334:375|401:340,1,110.000003356934,2|2,0:0|0:0,0:0:0:0:
425,313,49870,1,8,0:0:0:0:
425,313,50073,2,0,L|409:199,1,110.000003356934,2|2,3:2|3:2,0:0:0:0:
427,151,50681,1,10,0:0:0:0:
363,61,51086,6,0,P|311:41|221:104,1,165.0000050354,4|2,3:2|3:2,0:0:0:0:
198,143,51897,2,0,L|196:200,1,55.0000016784668,10|6,0:0|3:2,0:0:0:0:
196,253,52303,1,6,3:2:0:0:
196,253,52505,2,0,P|250:263|304:272,1,110.000003356934,6|2,3:2|3:2,0:0:0:0:
382,349,53316,2,0,P|436:338|490:329,1,110.000003356934,2|0,0:0|3:2,0:0:0:0:
511,278,53924,1,12,0:0:0:0:
448,181,54330,5,6,3:2:0:0:
448,181,54532,2,0,P|452:134|453:118,1,55.0000016784668,2|8,0:0|0:0,0:0:0:0:
410,90,54938,2,0,P|356:91|319:129,1,110.000003356934,2|2,3:2|0:0,0:0:0:0:
254,219,55749,1,2,0:0:0:0:
145,203,56154,2,0,P|102:193|87:191,1,55.0000016784668,2|8,0:0|0:0,0:0:0:0:
50,154,56559,2,0,P|37:108|72:46,1,110.000003356934,2|0,3:2|0:0,0:0:0:0:
114,35,57167,1,8,0:0:0:0:
222,52,57573,5,6,3:2:0:0:
337,169,58181,1,6,3:2:0:0:
257,313,58789,2,0,P|193:299|128:297,1,110.000003356934,6|0,3:2|0:0,0:0:0:0:
98,319,59397,1,8,3:0:0:0:
98,319,59600,2,0,P|105:270|109:244,1,55.0000016784668,10|2,3:0|3:2,0:0:0:0:
135,219,60005,1,10,3:0:0:0:
135,219,60208,2,0,L|116:104,1,110.000003356934,10|6,3:0|3:0,0:0:0:0:
138,65,60816,5,4,3:2:0:0:
230,21,61222,1,10,0:0:0:0:
230,21,61424,1,6,3:2:0:0:
414,264,62438,5,6,3:2:0:0:
256,192,62640,12,0,67303,0:0:0:0:
