osu file format v14

[General]
AudioFilename: audio.mp3
AudioLeadIn: 0
PreviewTime: 34193
Countdown: 0
SampleSet: Soft
StackLeniency: 0.7
Mode: 0
LetterboxInBreaks: 0
WidescreenStoryboard: 0

[Editor]
DistanceSpacing: 1
BeatDivisor: 4
GridSize: 4
TimelineZoom: 1

[Metadata]
Title:Pokemon x Poppy
TitleUnicode:Pokémon x Poppy
Artist:Poppy
ArtistUnicode:Poppy
Creator:reiSevia
Version:Journey~!
Source:Pokémon: Indigo League
Tags:browiec cycopton wanpachi mildly_accurate ma gotta catch 'em all Pocket Monsters ポケットモンスター Poketto Monsuta female vocals english pop short cute poppymon that kanto jason paige generation gen 1 rock theme cover
BeatmapID:2586769
BeatmapSetID:1244395

[Difficulty]
HPDrainRate:5
CircleSize:3.8
OverallDifficulty:7.5
ApproachRate:8
SliderMultiplier:1.66
SliderTickRate:1

[Events]
//Background and Video events
0,0,"Poppymon.jpg",0,0
//Break Periods
//Storyboard Layer 0 (Background)
//Storyboard Layer 1 (Fail)
//Storyboard Layer 2 (Pass)
//Storyboard Layer 3 (Foreground)
//Storyboard Layer 4 (Overlay)
//Storyboard Sound Samples

[TimingPoints]
-805,405.405405405405,4,2,1,50,1,0
3654,-100,4,2,1,5,0,0
4059,-91.743119266055,4,2,1,75,0,0
8722,-114.942528735632,4,2,1,75,0,0
8924,-133.333333333333,4,2,1,75,0,0
9026,-133.333333333333,4,2,1,45,0,0
18654,-128.205128205128,4,2,1,45,0,0
22303,-120.481927710843,4,2,1,45,0,0
31627,-105.263157894737,4,2,1,50,0,0
32843,-208.333333333333,4,2,1,50,0,0
34059,-208.333333333333,4,2,1,5,0,0
34262,-208.333333333333,4,2,1,80,0,0
34667,-100,4,2,1,80,0,0
34870,-333.333333333333,4,2,1,80,0,0
36492,-94.3396226415094,4,2,1,80,0,1
44499,-94.3396226415094,4,2,1,80,0,0
44600,-94.3396226415094,4,2,1,90,0,1
44701,-94.3396226415094,4,2,1,80,0,1
44803,-94.3396226415094,4,2,1,80,0,0
45208,-94.3396226415094,4,2,1,90,0,1
45309,-94.3396226415094,4,2,1,80,0,1
45411,-94.3396226415094,4,2,1,80,0,0
45816,-94.3396226415094,4,2,1,90,0,1
45917,-94.3396226415094,4,2,1,80,0,1
46424,-94.3396226415094,4,2,1,80,0,0
47640,-94.3396226415094,4,2,1,80,0,1
57472,-94.3396226415094,4,2,1,80,0,0
57573,-89.2857142857143,4,2,1,80,0,1
57776,-89.2857142857143,4,2,1,80,0,0
58181,-89.2857142857143,4,2,1,80,0,1
58384,-89.2857142857143,4,2,1,80,0,0
58789,-89.2857142857143,4,2,1,80,0,1
59397,-89.2857142857143,4,2,1,80,0,0
60816,-100,4,2,1,70,0,0
61424,-125,4,2,1,70,0,0
62438,-294.117647058824,4,2,1,70,0,0
62843,-294.117647058824,4,2,1,65,0,0
63249,-294.117647058824,4,2,1,60,0,0
63654,-294.117647058824,4,2,1,55,0,0
64059,-294.117647058824,4,2,1,50,0,0
64465,-294.117647058824,4,2,1,45,0,0
64870,-294.117647058824,4,2,1,40,0,0
65276,-294.117647058824,4,2,1,35,0,0
65681,-294.117647058824,4,2,1,30,0,0
66086,-294.117647058824,4,2,1,25,0,0
66492,-294.117647058824,4,2,1,20,0,0
66897,-294.117647058824,4,2,1,15,0,0
67303,-294.117647058824,4,2,1,5,0,0

[Colours]
Combo1 : 203,117,232
Combo2 : 238,79,79
Combo3 : 245,155,73
Combo4 : 249,240,72
Combo5 : 112,234,81
Combo6 : 85,157,244

[HitObjects]
256,192,208,12,0,3654,0:0:0:0:
37,140,4059,6,0,B|74:131|103:123|103:123|123:130|145:140|145:140|183:130|217:121,1,181.120941932648,6|8,3:2|0:0,0:0:0:0:
482,73,4667,2,0,P|399:56|363:140,1,181.120941932648,6|8,3:2|0:0,0:0:0:0:
465,364,5276,1,6,3:2:0:0:
284,180,5478,2,0,P|297:267|312:362,1,181.120941932648,2|8,0:0|3:0,0:0:0:0:
201,267,6086,5,8,3:0:0:0:
201,267,6289,1,0,3:0:0:0:
383,193,6492,1,8,3:0:0:0:
248,344,6694,1,6,3:0:0:0:
280,156,6897,1,6,3:0:0:0:
372,276,7100,1,6,3:0:0:0:
259,129,7303,6,0,B|211:113|143:133|203:153|143:173|83:153,1,181.120941932648,6|10,3:2|0:0,0:0:0:0:
299,268,7911,2,0,P|383:262|400:159,1,181.120941932648,6|2,3:2|0:0,0:0:0:0:
395,141,8417,1,2,0:0:0:0:
395,141,8519,2,0,L|442:148,1,45.2350004831619,2|2,0:0|0:0,0:0:0:0:
339,42,8722,2,0,L|291:47,1,36.1050003030052,2|2,0:0|0:0,0:0:0:0:
270,190,8924,6,0,P|262:148|255:110,1,62.2500023746491,4|2,3:2|0:0,0:0:0:0:
166,155,9330,2,0,P|160:185|154:216,1,62.465802374649,2|2,3:2|0:0,0:0:0:0:
68,287,9735,2,0,P|56:224|44:164,1,124.500004749298,2|0,3:2|3:2,0:0:0:0:
22,68,10343,1,2,0:0:0:0:
115,120,10546,2,0,P|145:114|176:108,1,62.465802374649,2|0,3:2|0:0,0:0:0:0:
222,32,10951,1,2,3:2:0:0:
222,32,11154,2,0,P|252:37|283:43,1,62.465802374649,2|0,0:0|3:2,0:0:0:0:
347,119,11559,2,0,P|341:149|335:180,1,62.465802374649,0|0,0:0|3:2,0:0:0:0:
424,229,11965,1,2,0:0:0:0:
358,307,12167,6,0,P|318:315|278:322,1,62.2500023746491,2|0,3:2|0:0,0:0:0:0:
175,230,12573,2,0,P|205:235|236:241,1,62.465802374649,2|0,3:2|3:2,0:0:0:0:
337,177,12978,1,2,3:2:0:0:
337,177,13181,1,2,0:0:0:0:
208,89,13384,2,0,P|213:119|219:150,1,62.465802374649,2|0,3:2|0:0,0:0:0:0:
356,73,13789,2,0,P|415:83|444:137,1,124.624504749298,0|0,3:2|3:2,0:0:0:0:
495,244,14397,1,0,3:2:0:0:
495,244,14600,2,0,P|428:231|357:217,1,124.500004749298,0|0,3:2|3:2,0:0:0:0:
372,220,15411,6,0,P|317:228|293:233,1,62.465802374649,0|2,3:2|0:0,0:0:0:0:
193,153,15816,2,0,P|248:161|272:166,1,62.465802374649,2|0,3:2|3:2,0:0:0:0:
375,83,16222,2,0,P|320:91|296:96,1,62.465802374649,2|0,3:2|0:0,0:0:0:0:
244,28,16627,1,2,3:2:0:0:
164,128,16830,2,0,P|157:87|151:46,1,62.465802374649,2|0,0:0|3:2,0:0:0:0:
57,3,17235,2,0,P|52:33|46:64,1,62.465802374649,2|0,0:0|3:2,0:0:0:0:
23,144,17640,1,2,3:2:0:0:
1,228,17843,2,0,P|55:214|141:194,1,124.624504749298,0|0,3:2|3:2,0:0:0:0:
220,260,18451,1,2,0:0:0:0:
276,136,18654,6,0,P|342:125|393:183,1,129.609484346558,2|2,3:2|3:2,0:0:0:0:
312,358,19262,2,0,P|303:324|294:287,1,64.9644341732788,2|0,3:2|3:2,0:0:0:0:
232,216,19667,1,2,0:0:0:0:
174,332,19870,2,0,B|117:317|87:309|87:309|45:341,2,129.609484346558,2|0|0,3:2|3:2|3:2,0:0:0:0:
148,236,20884,1,0,3:2:0:0:
148,236,21086,1,0,3:2:0:0:
23,244,21289,5,2,3:2:0:0:
174,332,21492,1,2,3:2:0:0:
124,144,21694,1,2,3:2:0:0:
124,144,22303,6,0,P|165:134|201:125,1,69.1288196652857,2|2,1:2|3:2,0:0:0:0:
269,202,22708,1,2,3:2:0:0:
379,91,22911,2,0,P|369:132|360:168,1,69.1288196652857,2|0,0:0|1:2,0:0:0:0:
380,256,23316,1,2,0:0:0:0:
481,281,23519,2,0,P|462:203|446:134,1,137.780001997238,2|2,3:2|1:2,0:0:0:0:
309,54,24127,2,0,P|300:87|292:120,1,69.1288196652857,2|0,0:0|3:2,0:0:0:0:
247,323,24532,5,2,3:2:0:0:
360,173,24735,1,0,1:2:0:0:
186,221,24938,1,2,3:2:0:0:
362,335,25140,5,2,3:2:0:0:
362,335,25343,2,0,P|355:288|349:248,1,69.1288196652857,2|0,0:0|1:2,0:0:0:0:
283,194,25749,1,0,3:2:0:0:
224,312,25951,2,0,P|147:300|82:290,1,137.917781997238,2|2,3:2|1:2,0:0:0:0:
10,214,26559,1,2,0:0:0:0:
10,214,26762,2,0,P|47:164|25:79,1,137.917781997238,0|0,3:2|1:2,0:0:0:0:
142,52,27370,6,0,L|210:36,1,69.1288196652857,2|0,3:2|3:2,0:0:0:0:
254,173,27776,2,0,L|182:155,1,69.1288196652857,2|0,3:2|1:2,0:0:0:0:
98,305,28181,1,2,3:2:0:0:
211,247,28384,1,2,3:2:0:0:
52,176,28586,5,2,3:2:0:0:
96,336,28789,2,0,P|143:328|180:323,1,69.1288196652857,2|2,1:2|3:2,0:0:0:0:
304,205,29194,2,0,P|235:194|167:183,1,137.917781997238,2|0,3:2|1:2,0:0:0:0:
292,334,29803,1,2,0:0:0:0:
395,224,30005,2,0,P|387:181|380:142,1,68.8900009986191,2|0,3:2|0:0,0:0:0:0:
433,39,30411,1,2,1:2:0:0:
284,184,30613,2,0,P|296:119|311:41,1,137.780001997238,2|0,3:2|0:0,0:0:0:0:
183,4,31222,1,0,1:2:0:0:
183,4,31424,1,2,0:0:0:0:
38,156,31627,6,0,B|156:128|82:190|193:164,1,157.857695788956,6|2,3:2|0:0,0:0:0:0:
334,32,32235,2,0,B|306:51|283:66|283:66|316:163,1,157.857695788956,2|2,3:2|0:0,0:0:0:0:
471,280,32843,6,0,P|419:244|397:362,1,239.082501835938,2|0,3:2|0:0,0:0:0:0:
472,360,34262,5,2,0:0:0:0:
392,172,34465,1,2,0:0:0:0:
284,308,34667,2,0,L|324:301,1,41.5,2|2,0:0|0:0,0:0:0:0:
480,216,34870,6,0,B|443:207|414:199|414:199|394:206|372:216|372:216|341:208|304:197,1,174.412874680786,0|2,0:0|0:0,0:0:0:0:
176,36,36492,6,0,P|188:92|197:131,1,88.28499746758,6|2,3:2|0:0,0:0:0:0:
61,248,36897,1,8,0:0:0:0:
296,108,37100,2,0,P|284:164|275:203,1,88.28499746758,2|0,0:0|3:2,0:0:0:0:
76,138,37505,1,0,3:2:0:0:
269,22,37708,2,0,P|312:20|364:43,1,87.9800001342468,8|0,0:0|0:0,0:0:0:0:
244,276,38113,6,0,B|214:252|189:235|189:235|199:187|213:115,1,176.135960268494,0|8,3:2|0:0,0:0:0:0:
356,256,38722,1,2,0:0:0:0:
164,196,38924,1,2,3:2:0:0:
392,148,39127,1,2,3:2:0:0:
244,296,39330,1,10,0:0:0:0:
187,55,39532,6,0,B|232:39|297:58|240:77|297:96|354:77,1,176.135960268494,6|2,3:2|3:2,0:0:0:0:
242,220,40140,1,8,0:0:0:0:
495,175,40343,2,0,P|441:164|396:154,1,87.9800001342468,2|0,0:0|3:2,0:0:0:0:
225,310,40749,1,2,3:2:0:0:
307,116,40951,1,14,0:0:0:0:
461,294,41154,1,2,0:0:0:0:
461,294,41255,1,8,0:0:0:0:
461,294,41357,6,0,P|418:284|375:275,1,88.28499746758,6|0,3:2|0:0,0:0:0:0:
143,234,41762,2,0,P|229:215|314:196,1,176.135960268494,10|0,0:0|3:2,0:0:0:0:
222,326,42370,1,0,3:2:0:0:
120,150,42573,2,0,P|79:129|34:131,1,87.9800001342468,8|2,0:0|0:0,0:0:0:0:
93,308,42978,5,2,3:2:0:0:
222,175,43181,2,0,P|212:132|203:89,1,88.28499746758,2|8,0:0|0:0,0:0:0:0:
102,228,43586,1,2,0:0:0:0:
297,107,43789,2,0,P|339:97|382:88,1,88.28499746758,2|0,3:2|3:2,0:0:0:0:
481,302,44194,1,10,0:0:0:0:
333,207,44397,1,2,3:2:0:0:
482,45,44600,6,0,P|462:130|444:216,1,176.135960268494,6|10,3:2|0:0,0:0:0:0:
220,111,45208,2,0,B|281:98|333:80|333:80|364:113|387:136,1,175.960000268494,6|10,3:2|0:0,0:0:0:0:
323,303,45816,2,0,B|273:306|244:273|244:273|190:291|141:271,1,175.960000268494,6|0,3:2|0:0,0:0:0:0:
28,340,46424,5,8,3:0:0:0:
157,276,46627,1,8,3:0:0:0:
66,252,46830,1,0,3:2:0:0:
224,360,47032,5,8,3:0:0:0:
128,172,47235,1,10,3:0:0:0:
16,360,47438,1,10,0:0:0:0:
245,273,47640,6,0,B|256:215|266:167|266:167|241:150|211:126,1,176.135960268494,6|0,3:2|0:0,0:0:0:0:
44,35,48249,2,0,P|89:21|136:11,1,87.9800001342468,10|2,0:0|0:0,0:0:0:0:
37,178,48654,1,2,3:2:0:0:
211,126,48857,2,0,P|171:112|125:101,1,87.9800001342468,2|8,3:2|0:0,0:0:0:0:
296,39,49262,1,2,0:0:0:0:
187,252,49465,5,2,3:2:0:0:
399,199,49667,1,2,0:0:0:0:
211,126,49870,1,8,0:0:0:0:
318,347,50073,2,0,P|327:304|336:261,1,88.28499746758,2|0,3:2|0:0,0:0:0:0:
431,109,50478,1,2,3:2:0:0:
431,109,50580,1,2,0:0:0:0:
431,109,50681,2,0,P|388:118|345:127,1,88.28499746758,10|0,0:0|0:0,0:0:0:0:
103,24,51086,6,0,P|145:33|188:42,1,88.28499746758,4|0,3:2|0:0,0:0:0:0:
240,248,51492,1,8,0:0:0:0:
128,124,51694,1,2,3:2:0:0:
102,331,51897,1,10,0:0:0:0:
258,155,52100,1,6,3:2:0:0:
25,207,52303,1,6,3:2:0:0:
252,352,52505,6,0,B|367:391|309:312|430:347,1,175.960000268494,6|2,3:2|3:2,0:0:0:0:
327,141,53113,1,8,0:0:0:0:
235,260,53316,1,2,0:0:0:0:
235,260,53417,1,8,0:0:0:0:
235,260,53519,2,0,P|277:251|320:242,1,88.28499746758,0|0,3:2|3:2,0:0:0:0:
415,93,53924,1,12,0:0:0:0:
240,136,54127,1,0,3:2:0:0:
482,254,54330,5,6,3:2:0:0:
482,254,54532,2,0,P|403:238|373:233,1,87.9800001342468,2|8,0:0|0:0,0:0:0:0:
255,381,54938,2,0,P|334:365|364:360,1,87.9800001342468,2|0,3:2|3:2,0:0:0:0:
287,156,55343,2,0,P|262:192|261:237,1,87.9800001342468,2|8,0:0|0:0,0:0:0:0:
73,374,55749,6,0,P|117:365|160:355,1,88.28499746758,2|0,0:0|3:2,0:0:0:0:
19,183,56154,2,0,P|10:226|0:269,1,88.28499746758,2|8,0:0|0:0,0:0:0:0:
164,201,56559,1,2,3:2:0:0:
164,201,56762,2,0,P|154:158|145:115,1,88.28499746758,0|0,3:2|0:0,0:0:0:0:
276,312,57167,1,8,0:0:0:0:
276,312,57573,6,0,P|288:220|301:128,1,186.105922269531,6|8,3:2|0:0,0:0:0:0:
79,17,58181,2,0,P|129:98|218:82,1,186.105922269531,6|8,3:2|0:0,0:0:0:0:
455,209,58789,6,0,B|416:199|385:191|385:191|364:198|341:209|341:209|301:198|266:189,1,186.105922269531,6|0,3:2|0:0,0:0:0:0:
116,129,59397,1,8,3:0:0:0:
276,191,59600,1,10,3:0:0:0:
134,223,59803,1,2,3:2:0:0:
308,188,60005,1,10,3:0:0:0:
188,84,60208,1,10,3:0:0:0:
220,272,60411,1,4,3:0:0:0:
183,58,60613,1,6,3:0:0:0:
23,286,60816,6,0,P|96:263|161:325,1,166.166,4|10,3:2|0:0,0:0:0:0:
336,380,61424,2,0,B|306:356|281:339|281:339|291:291|307:200,1,199.235413333333,6|0,3:2|0:0,0:0:0:0:
449,121,62235,1,2,0:0:0:0:
444,136,62336,1,2,0:0:0:0:
439,151,62438,38,0,B|431:220|374:261|291:242|274:164|274:164|343:149|343:149|353:139|353:139|355:154|355:154|365:145|365:145|436:131|436:131|416:46|329:34|269:76|272:153,1,677.280004133789,6|0,3:2|0:0,0:0:0:0:
