osu file format v14

[General]
AudioFilename: audio.mp3
AudioLeadIn: 0
PreviewTime: 94249
Countdown: 1
SampleSet: Soft
StackLeniency: 0.7
Mode: 0
LetterboxInBreaks: 0
WidescreenStoryboard: 0

[Editor]
DistanceSpacing: 1.4
BeatDivisor: 4
GridSize: 8
TimelineZoom: 2

[Metadata]
Title:Moshi Moshi
TitleUnicode:Moshi Moshi
Artist:Poppy
ArtistUnicode:Poppy
Creator:GhostFY
Version:Moshi!
Source:
Tags:I'm Poppy
BeatmapID:1444169
BeatmapSetID:682938

[Difficulty]
HPDrainRate:6
CircleSize:4.5
OverallDifficulty:7
ApproachRate:8
SliderMultiplier:1.4
SliderTickRate:2

[Events]
//Background and Video events
0,0,"BG.jpg",0,0
//Break Periods
//Storyboard Layer 0 (Background)
//Storyboard Layer 1 (Fail)
//Storyboard Layer 2 (Pass)
//Storyboard Layer 3 (Foreground)
//Storyboard Sound Samples
Sample,49249,0,"soft-hitwhistle.wav",70
Sample,50233,0,"soft-hitwhistle.wav",70
Sample,53184,0,"soft-hitwhistle.wav",70
Sample,104331,0,"soft-hitwhistle.wav",70
Sample,108266,0,"soft-hitwhistle.wav",70

[TimingPoints]
1053,491.803278688525,4,2,0,70,1,0
40397,-100,4,2,1,70,0,1
55151,-100,4,2,0,70,0,1
56134,-100,4,2,0,70,0,0
95479,-100,4,2,1,70,0,1
110233,-100,4,2,0,70,0,0
111216,-100,4,2,0,70,0,1
126954,-100,4,2,0,70,0,0
160397,-100,4,2,0,70,0,1
177118,-100,4,2,0,70,0,0

[Colours]
Combo1 : 255,255,255
Combo2 : 255,255,128
Combo3 : 255,255,0

[HitObjects]
104,104,40397,6,0,P|160:96|200:112,1,70,6|0,0:0|0:0,0:0:0:0:
216,184,40889,2,0,P|160:192|120:176,1,70,0|0,1:0|0:0,0:0:0:0:
48,176,41380,1,2,0:0:0:0:
88,264,41626,1,0,0:0:0:0:
88,264,41749,1,0,0:0:0:0:
88,264,41872,2,0,P|128:280|176:280,1,70,0|0,1:0|0:0,0:0:0:0:
320,176,42364,6,0,L|328:96,1,70,2|0,0:0|0:0,0:0:0:0:
392,184,42856,2,0,L|384:272,1,70,0|0,1:0|0:0,0:0:0:0:
296,304,43348,1,2,0:0:0:0:
248,216,43593,1,0,0:0:0:0:
248,216,43716,1,0,0:0:0:0:
248,216,43839,2,0,P|208:192|152:192,1,70,0|0,1:0|0:0,0:0:0:0:
112,8,44331,6,0,P|128:40|128:88,1,70,2|0,0:0|0:0,0:0:0:0:
120,168,44823,2,0,P|104:208|64:240,1,70,0|0,1:0|0:0,0:0:0:0:
8,288,45315,1,2,0:0:0:0:
96,336,45561,1,0,0:0:0:0:
96,336,45684,1,0,0:0:0:0:
96,336,45807,2,0,L|176:336,1,70,0|0,1:0|0:0,0:0:0:0:
256,304,46298,6,0,P|296:272|312:240,1,70,2|0,0:0|0:0,0:0:0:0:
256,176,46790,1,0,1:0:0:0:
206,256,47036,2,0,P|227:284|256:304,1,70,0|2,0:0|0:0,0:0:0:0:
352,320,47528,1,0,0:0:0:0:
352,320,47651,1,4,0:3:0:0:
352,320,47774,2,0,P|392:288|440:280,1,70,0|0,1:0|0:0,0:0:0:0:
504,320,48266,6,0,L|472:168,1,140,2|0,0:0|1:0,0:0:0:0:
416,104,49003,2,0,P|400:152|312:200,1,140
280,200,49618,1,0,0:0:0:0:
232,176,49741,2,0,P|200:144|304:160,1,280,0|0,1:0|1:0,0:0:0:0:
320,232,50971,1,0,0:0:0:0:
232,280,51216,2,0,L|144:280,1,70,2|0,0:0|0:0,0:0:0:0:
162,280,51585,1,0,0:0:0:0:
162,280,51708,1,0,1:0:0:0:
72,232,51954,1,0,0:0:0:0:
40,136,52200,6,0,P|48:184|-8:280,1,140,2|0,0:0|1:0,0:0:0:0:
88,200,52938,2,0,P|136:184|224:208,1,140
220,205,53553,1,0,0:0:0:0:
220,205,53675,1,0,1:0:0:0:
304,256,53921,1,0,0:0:0:0:
392,216,54167,2,0,L|416:288,1,70,2|0,0:0|0:0,0:0:0:0:
312,112,54659,2,0,L|288:32,1,70,0|4,1:0|1:0,0:0:0:0:
200,16,55151,1,8,0:3:0:0:
144,96,55397,6,0,P|184:112|240:96,1,70,4|2,0:3|0:0,0:0:0:0:
210,110,55766,1,2,0:0:0:0:
210,110,55889,1,2,0:0:0:0:
200,16,56134,6,0,L|104:152,1,140,4|0,0:0|1:0,0:0:0:0:
296,216,57118,2,0,L|384:96,1,140,0|0,0:0|1:0,0:0:0:0:
208,208,58102,2,0,P|224:272|304:304,1,140,0|0,0:0|1:0,0:0:0:0:
464,216,59085,2,0,P|384:232|360:304,1,140,0|0,0:0|1:0,0:0:0:0:
359,279,59700,1,2,0:0:0:0:
359,279,59823,1,2,0:0:0:0:
288,208,60069,6,0,B|256:144|256:144|184:144,1,140,0|0,0:0|1:0,0:0:0:0:
56,288,61053,2,0,B|96:352|96:352|184:352,1,140,0|0,0:0|1:0,0:0:0:0:
288,200,62036,2,0,P|328:128|384:88,1,140,0|0,0:0|1:0,0:0:0:0:
392,288,63020,2,0,P|328:248|280:192,1,140,0|0,0:0|1:0,0:0:0:0:
285,200,63634,1,2,0:0:0:0:
285,200,63757,1,2,0:0:0:0:
200,160,64003,6,0,B|136:128|136:128|104:152|40:144,1,140,0|0,0:0|1:0,0:0:0:0:
80,48,64741,1,0,0:0:0:0:
71,145,64987,2,0,B|48:184|24:200|24:200|24:272,1,140,0|0,0:0|1:0,0:0:0:0:
208,328,65971,2,0,P|288:304|328:232,1,140,0|0,0:0|1:0,0:0:0:0:
288,168,66708,1,0,0:0:0:0:
192,168,66954,2,0,B|192:128|192:128|224:72|224:72|224:32,1,140,0|0,0:0|1:0,0:0:0:0:
224,36,67569,1,2,0:0:0:0:
224,36,67692,1,2,0:0:0:0:
136,80,67938,6,0,P|96:96|56:96,1,70
32,184,68430,2,0,P|80:200|120:200,1,70,0|0,1:0|0:0,0:0:0:0:
160,280,68921,2,0,P|128:296|72:304,1,70
192,336,69413,2,0,L|264:336,1,70,0|0,1:0|0:0,0:0:0:0:
344,280,69905,2,0,P|352:216|320:128,1,140,0|0,0:0|1:0,0:0:0:0:
256,80,70643,1,0,0:0:0:0:
181,144,70889,2,0,P|160:210|168:280,1,140,0|0,0:0|1:0,0:0:0:0:
167,279,71503,1,2,0:0:0:0:
167,279,71626,1,2,0:0:0:0:
256,320,71872,6,0,B|328:320|328:320|400:280,1,140,0|0,0:0|1:0,0:0:0:0:
328,104,72856,2,0,B|256:104|256:104|184:136,1,140,0|0,0:0|1:0,0:0:0:0:
104,176,73593,1,0,0:0:0:0:
184,232,73839,2,0,B|184:272|160:296|160:296|120:336|144:384,2,140,0|0|0,0:0|1:0|0:0,0:0:0:0:
256,168,75069,1,0,0:0:0:0:
328,232,75315,1,0,1:0:0:0:
328,232,75438,1,2,0:0:0:0:
328,232,75561,1,2,0:0:0:0:
400,168,75807,6,0,P|408:128|400:72,1,70
328,40,76298,2,0,P|320:80|328:128,1,70,0|0,1:0|0:0,0:0:0:0:
232,64,76790,2,0,L|160:64,1,70
104,144,77282,2,0,L|176:144,1,70,0|0,1:0|0:0,0:0:0:0:
208,240,77774,2,0,P|160:288|72:280,1,140,0|0,0:0|1:0,0:0:0:0:
8,264,78512,1,0,0:0:0:0:
96,296,78757,2,0,B|168:296|168:296|216:232,1,140,0|0,0:0|1:0,0:0:0:0:
256,160,79495,1,0,0:0:0:0:
328,224,79741,6,0,L|408:224,1,70
464,144,80233,2,0,P|472:88|456:48,1,70,0|0,1:0|0:0,0:0:0:0:
392,16,80725,2,0,P|320:32|344:88,1,140,0|0,0:0|1:0,0:0:0:0:
256,144,81462,1,0,0:0:0:0:
180,80,81708,2,0,P|182:17|120:16,1,140,0|0,0:0|1:0,0:0:0:0:
64,96,82446,1,0,0:0:0:0:
64,96,82692,2,0,L|64:176,1,70
144,224,83184,2,0,L|144:144,1,70,0|0,1:0|0:0,0:0:0:0:
232,112,83675,5,0,0:0:0:0:
232,112,83921,1,0,0:0:0:0:
312,168,84167,1,0,1:0:0:0:
312,168,84413,1,0,0:0:0:0:
408,152,84659,2,0,P|408:200|384:240,1,70
400,320,85151,2,0,P|360:296|312:296,1,70,0|0,1:0|0:0,0:0:0:0:
240,304,85643,2,0,P|176:312|152:240,1,140,0|0,0:0|1:0,0:0:0:0:
240,80,86626,2,0,P|176:72|152:144,1,140,0|0,0:0|1:0,0:0:0:0:
224,192,87364,1,0,0:0:0:0:
304,136,87610,6,0,P|320:104|320:64,1,70
400,8,88102,2,0,P|416:56|440:80,1,70,0|0,1:0|0:0,0:0:0:0:
504,136,88593,1,0,0:0:0:0:
424,184,88839,1,0,0:0:0:0:
424,184,89085,2,0,L|448:336,2,140,0|0|0,1:0|0:0|1:0,0:0:0:0:
336,152,90315,1,0,0:0:0:0:
256,208,90561,2,0,P|208:224|176:224,1,70
104,176,91053,1,0,1:0:0:0:
120,80,91298,1,0,0:0:0:0:
200,136,91544,6,0,P|216:80|176:0,2,140,0|0|0,1:0|1:0|1:0,0:0:0:0:
256,320,93020,5,0,1:0:0:0:
256,320,93266,1,0,1:0:0:0:
256,192,93512,12,0,94987,1:0:0:0:
176,32,95479,6,0,L|176:112,1,70,6|0,0:0|0:0,0:0:0:0:
248,168,95971,2,0,L|248:96,1,70,0|0,1:0|0:0,0:0:0:0:
312,24,96462,1,2,0:0:0:0:
392,88,96708,1,0,0:0:0:0:
392,88,96831,1,0,0:0:0:0:
392,88,96954,2,0,P|424:96|464:88,1,70,0|0,1:0|0:0,0:0:0:0:
296,200,97447,6,0,L|216:232,1,70,2|0,0:0|0:0,0:0:0:0:
328,256,97939,2,0,L|328:176,1,70,0|0,1:0|0:0,0:0:0:0:
264,256,98430,2,0,L|336:312,1,70,2|0,0:0|0:0,0:0:0:0:
319,298,98798,1,0,0:0:0:0:
319,298,98921,1,0,1:0:0:0:
416,272,99167,1,0,0:0:0:0:
296,120,99413,6,0,B|224:104|224:104|192:120|136:128,1,140,2|0,0:0|1:0,0:0:0:0:
64,112,100151,1,0,0:0:0:0:
112,200,100397,2,0,L|120:280,1,70,2|0,0:0|0:0,0:0:0:0:
118,269,100766,1,0,0:0:0:0:
118,269,100889,1,0,1:0:0:0:
192,336,101134,1,0,0:0:0:0:
368,256,101380,6,0,P|408:240|440:200,1,70,2|0,0:0|0:0,0:0:0:0:
448,128,101872,2,0,P|480:168|520:184,2,70,0|0|2,1:0|0:0|0:0,0:0:0:0:
408,40,102610,1,0,0:0:0:0:
408,40,102733,1,0,1:0:0:0:
408,40,102856,2,0,L|328:64,1,70,4|0,1:3|0:0,0:0:0:0:
152,120,103348,6,0,P|120:184|152:256,1,140,2|0,0:0|1:0,0:0:0:0:
224,296,104085,2,0,P|152:256|72:280,1,140
97,264,104700,1,0,0:0:0:0:
97,264,104823,1,0,1:0:0:0:
144,352,105069,1,0,0:0:0:0:
232,312,105315,2,0,L|304:312,1,70,2|0,0:0|0:0,0:0:0:0:
376,248,105807,1,0,1:0:0:0:
408,152,106053,1,0,0:0:0:0:
312,128,106298,1,2,0:0:0:0:
288,224,106544,1,0,0:0:0:0:
344,144,106790,2,0,P|336:104|304:72,1,70,0|0,1:0|0:0,0:0:0:0:
224,72,107282,6,0,P|160:88|72:72,1,140,2|0,0:0|1:0,0:0:0:0:
152,8,108020,2,0,P|160:88|144:176,1,140
88,224,108757,2,0,B|104:256|136:272|136:272|176:272|216:216,1,140,0|2,1:0|0:0,0:0:0:0:
312,80,109741,6,0,P|352:56|408:56,1,70,0|4,1:0|1:0,0:0:0:0:
376,152,110233,2,0,P|336:176|288:176,1,70
224,136,110725,2,0,L|224:208,1,70,2|4,0:0|0:3,0:0:0:0:
224,206,111093,1,8,0:3:0:0:
224,206,111216,6,0,B|264:264|264:264|352:264,1,140,4|0,0:2|1:0,0:0:0:0:
408,200,111954,2,0,P|392:128|408:48,1,140
488,8,112692,1,0,1:0:0:0:
408,64,112938,1,0,0:0:0:0:
360,80,113061,1,0,0:0:0:0:
312,56,113184,2,0,P|264:32|200:40,2,105,0|2|0,0:0|0:0|0:0,0:0:0:0:
312,56,114167,1,4,0:3:0:0:
216,224,114659,1,0,1:0:0:0:
136,160,114905,1,0,0:0:0:0:
104,192,115028,1,0,0:0:0:0:
104,240,115151,2,0,L|120:272,3,35,2|0|0|0,0:0|0:0|0:0|0:0,0:0:0:0:
168,280,115643,2,0,L|184:312,3,35,0|0|0|0,1:0|0:0|0:0|0:0,0:0:0:0:
232,312,116134,2,0,L|248:344,3,35,2|0|0|0,0:0|0:0|0:0|0:0,0:0:0:0:
296,344,116626,2,0,L|312:376,4,35,0|0|0|0|2,1:0|0:0|0:0|0:0|0:0,0:0:0:0:
440,208,117610,2,0,P|456:256|440:296,1,70,0|0,1:0|0:0,0:0:0:0:
352,256,118102,1,2,0:0:0:0:
272,128,118471,2,0,L|248:80,1,35,4|0,0:3|1:0,0:0:0:0:
160,72,118839,1,2,0:0:0:0:
80,128,119085,2,0,B|72:200|72:200|80:296,1,140,2|0,0:0|1:0,0:0:0:0:
272,304,120069,2,0,B|344:296|344:296|440:304,1,140,0|0,0:0|1:0,0:0:0:0:
392,104,121053,2,0,P|368:56|344:40,1,70,2|0,0:0|0:0,0:0:0:0:
256,48,121544,2,0,L|224:72,3,35
176,72,122036,2,0,L|128:112,4,35
88,24,122774,1,0,0:0:0:0:
32,104,123020,2,0,P|24:168|40:256,1,140
120,288,123757,2,0,L|160:288,2,35
32,336,124249,1,0,0:0:0:0:
128,304,124495,2,0,L|224:304,1,70
296,288,124987,2,0,P|336:224|344:152,1,140
256,120,125725,1,0,0:0:0:0:
168,160,125971,1,0,0:0:0:0:
256,280,126339,2,0,L|256:336,1,35
352,344,126708,1,0,0:0:0:0:
416,272,126954,2,0,P|424:192|408:128,1,140
320,88,127692,1,0,0:0:0:0:
232,128,127938,2,0,B|184:128|184:128|136:104|136:104|80:104,1,140
16,152,128675,1,0,0:0:0:0:
72,232,128921,2,0,P|104:200|112:152,1,70
152,264,129413,2,0,P|184:296|232:304,1,70
304,312,129905,1,0,0:0:0:0:
368,240,130151,2,0,L|368:160,1,70
368,170,130520,1,0,0:0:0:0:
368,170,130643,1,0,0:0:0:0:
304,96,130889,2,0,B|232:104|232:104|136:104,1,140
72,120,131626,1,0,0:0:0:0:
136,192,131872,2,0,P|160:280|160:336,1,140
72,280,132610,1,0,0:0:0:0:
160,320,132856,2,0,P|200:320|256:312,1,70
328,296,133348,1,0,0:0:0:0:
328,296,133593,2,0,P|376:280|376:192,1,140
360,152,134208,2,0,L|312:104,3,35
432,136,134823,2,0,P|416:200|336:216,1,140
256,208,135561,1,0,0:0:0:0:
160,220,135807,2,0,P|96:200|80:136,1,140
80,40,136544,1,0,0:0:0:0:
168,88,136790,2,0,P|216:88|256:72,1,70
312,144,137282,2,0,P|312:184|336:232,1,70
