osu file format v14

[General]
AudioFilename: audio.mp3
AudioLeadIn: 0
PreviewTime: 17039
Countdown: 0
SampleSet: Normal
StackLeniency: 0.7
Mode: 1
LetterboxInBreaks: 0
WidescreenStoryboard: 0

[Editor]
Bookmarks: 3249,9692,17746,33853,40295,46738,53181,62846,75731,93450
DistanceSpacing: 0.9
BeatDivisor: 4
GridSize: 32
TimelineZoom: 2.3

[Metadata]
Title:final phase
TitleUnicode:final phase
Artist:Poppin'Party
ArtistUnicode:Poppin'Party
Creator:Roger
Version:Volta's Mental Out
Source:バンドリ!ガールズバンドパーティ!
Tags:cover opening op video game version anime japanese pop jpop j-pop bandori! bang dream! girls band party! garupa ガルパ popipa ポピパ ポッピン パーティー toyama kasumi 戸山香澄 terakawa aimi 寺川愛美 hanazono tae 花園たえ otsuka sae 大塚紗英 ushigome rimi 牛込りみ nishimoto rimi 西本りみ yamabuki saya saaya 山吹沙綾 ohashi ayaka 大橋彩香 ichigaya arisa 市ヶ谷有咲 itou ayasa 伊藤彩沙 kasai yuta 笠井雄太 Elements Garden とある科学の超電磁砲T to aru toaru kagaku no railgun a certain scientific T season 3 s3 fripSide 八木沼悟志 Yaginuma Satoshi ][ -GH- ][ Volta Amiichii
BeatmapID:2515404
BeatmapSetID:1207984

[Difficulty]
HPDrainRate:6.5
CircleSize:2
OverallDifficulty:6.2
ApproachRate:0
SliderMultiplier:1.4
SliderTickRate:1

[Events]
//Background and Video events
0,0,"bg5.jpg",0,28
//Break Periods
//Storyboard Layer 0 (Background)
//Storyboard Layer 1 (Fail)
//Storyboard Layer 2 (Pass)
//Storyboard Layer 3 (Foreground)
//Storyboard Layer 4 (Overlay)
//Storyboard Sound Samples

[TimingPoints]
3248,402.684563758389,4,1,0,60,1,0
9690,-90.9090909090909,4,1,0,70,0,0
12912,-86.9565217391304,4,1,0,70,0,0
16133,-83.3333333333333,4,1,0,20,0,0
17694,-83.3333333333333,4,1,0,80,0,0
17744,402.684563758389,4,1,0,80,1,1
17744,-83.3333333333333,4,1,0,80,0,1
33851,402.684563758389,4,1,0,70,1,0
33851,-83.3333333333333,4,1,0,70,0,0
34052,-111.111111111111,4,1,0,60,0,0
40193,-100,4,1,0,70,0,0
46736,-93.4579439252336,4,1,0,70,0,0
53381,-100,4,1,0,70,0,0
56502,-90.9090909090909,4,1,0,70,0,0
62844,402.684563758389,4,1,0,80,1,1
62844,-83.3333333333333,4,1,0,80,0,1
90159,-83.3333333333333,4,1,0,50,0,1
90226,-83.3333333333333,4,1,0,30,0,0
90578,-83.3333333333333,4,1,0,50,0,0
91006,-83.3333333333333,4,1,0,70,0,0
91031,-83.3333333333333,4,1,0,70,0,1
91132,-83.3333333333333,4,1,0,40,0,1
92843,-83.3333333333333,4,1,0,30,0,1
93045,-83.3333333333333,4,1,0,20,0,1
93246,-83.3333333333333,4,1,0,10,0,1
93448,-83.3333333333333,4,1,0,5,0,0

[HitObjects]
251,145,3247,5,4,0:0:0:0:
329,198,3550,1,8,0:0:0:0:
325,112,3852,1,8,0:0:0:0:
325,112,3919,1,8,0:0:0:0:
325,112,3986,1,8,0:0:0:0:
325,112,4053,1,8,0:0:0:0:
325,112,4355,1,8,0:0:0:0:
238,100,4657,1,8,0:0:0:0:
253,102,4724,1,8,0:0:0:0:
269,104,4791,1,8,0:0:0:0:
269,104,4858,1,8,0:0:0:0:
269,104,5160,1,8,0:0:0:0:
269,104,5462,1,8,0:0:0:0:
269,104,5664,1,4,0:0:0:0:
269,104,6066,1,12,0:0:0:0:
337,129,6268,1,0,0:0:0:0:
395,151,6469,1,4,0:0:0:0:
297,141,6771,1,8,0:0:0:0:
269,104,7073,1,8,0:0:0:0:
269,104,7140,1,8,0:0:0:0:
269,104,7207,1,8,0:0:0:0:
144,128,7274,1,8,0:0:0:0:
239,136,7576,1,8,0:0:0:0:
269,104,7878,1,8,0:0:0:0:
269,104,7945,1,8,0:0:0:0:
269,104,8013,1,8,0:0:0:0:
239,136,8080,1,8,0:0:0:0:
269,104,8382,1,8,0:0:0:0:
395,151,8684,5,0,0:0:0:0:
254,164,8885,5,12,0:0:0:0:
254,164,9086,1,0,0:0:0:0:
254,164,9288,1,12,0:0:0:0:
192,167,9489,1,8,0:0:0:0:
254,164,9690,1,4,0:0:0:0:
326,129,9992,1,8,0:0:0:0:
326,129,10093,1,0,0:0:0:0:
273,106,10294,1,0,0:0:0:0:
273,106,10362,1,8,0:0:0:0:
273,106,10429,1,8,0:0:0:0:
273,106,10496,1,8,0:0:0:0:
348,75,10798,1,8,0:0:0:0:
329,83,10899,1,0,0:0:0:0:
329,83,11100,1,0,0:0:0:0:
348,75,11167,1,8,0:0:0:0:
348,75,11234,1,8,0:0:0:0:
348,75,11301,1,8,0:0:0:0:
348,75,11603,1,8,0:0:0:0:
348,75,11704,1,0,0:0:0:0:
290,85,11905,1,8,0:0:0:0:
236,95,12107,1,0,0:0:0:0:
181,103,12308,1,8,0:0:0:0:
201,124,12409,1,8,0:0:0:0:
181,103,12509,1,0,0:0:0:0:
71,55,12912,1,8,0:0:0:0:
104,93,13113,1,0,0:0:0:0:
128,121,13214,1,8,0:0:0:0:
75,138,13315,1,0,0:0:0:0:
208,123,13516,1,0,0:0:0:0:
186,126,13583,1,8,0:0:0:0:
163,129,13650,1,8,0:0:0:0:
157,121,13717,1,8,0:0:0:0:
215,161,13919,1,0,0:0:0:0:
215,161,14019,1,8,0:0:0:0:
215,161,14120,1,0,0:0:0:0:
169,199,14321,1,0,0:0:0:0:
177,182,14388,1,8,0:0:0:0:
184,167,14456,1,8,0:0:0:0:
190,154,14523,1,8,0:0:0:0:
348,75,14623,1,0,0:0:0:0:
348,75,14724,1,8,0:0:0:0:
348,75,14825,1,8,0:0:0:0:
348,75,14925,1,0,0:0:0:0:
348,75,15026,1,0,0:0:0:0:
348,75,15127,1,8,0:0:0:0:
315,75,15227,1,0,0:0:0:0:
348,75,15328,1,8,0:0:0:0:
348,75,15429,1,8,0:0:0:0:
348,75,15529,1,0,0:0:0:0:
348,75,15630,1,0,0:0:0:0:
348,75,15731,1,8,0:0:0:0:
348,75,15831,1,8,0:0:0:0:
320,85,15932,1,8,0:0:0:0:
301,90,16033,1,8,0:0:0:0:
256,192,16133,12,0,17643,0:0:0:0:
330,131,17744,5,4,0:0:0:0:
234,136,18046,1,0,0:0:0:0:
183,138,18146,1,8,0:0:0:0:
183,138,18348,1,8,0:0:0:0:
183,138,18549,1,0,0:0:0:0:
183,138,18650,1,8,0:0:0:0:
183,138,18750,1,0,0:0:0:0:
157,143,18851,1,0,0:0:0:0:
183,138,18952,1,8,0:0:0:0:
183,138,19153,1,0,0:0:0:0:
183,138,19354,1,8,0:0:0:0:
225,124,19455,1,0,0:0:0:0:
280,97,19656,1,0,0:0:0:0:
280,97,19757,1,8,0:0:0:0:
280,97,19958,1,8,0:0:0:0:
280,97,20059,1,0,0:0:0:0:
280,97,20160,1,0,0:0:0:0:
280,97,20260,1,8,0:0:0:0:
280,97,20361,1,0,0:0:0:0:
280,97,20462,1,0,0:0:0:0:
488,337,20562,1,8,0:0:0:0:
442,299,20764,1,8,0:0:0:0:
393,260,20965,1,0,0:0:0:0:
339,231,21066,1,0,0:0:0:0:
309,220,21267,1,0,0:0:0:0:
280,209,21368,1,8,0:0:0:0:
252,165,21569,1,0,0:0:0:0:
220,114,21770,1,8,0:0:0:0:
220,114,21871,1,0,0:0:0:0:
220,114,21972,1,0,0:0:0:0:
220,114,22072,1,0,0:0:0:0:
189,120,22173,1,8,0:0:0:0:
164,125,22274,1,0,0:0:0:0:
220,114,22374,1,8,0:0:0:0:
220,114,22576,1,0,0:0:0:0:
277,122,22676,1,0,0:0:0:0:
301,126,22878,1,0,0:0:0:0:
301,126,22978,1,8,0:0:0:0:
301,126,23180,1,0,0:0:0:0:
202,159,23280,1,8,0:0:0:0:
202,159,23381,1,0,0:0:0:0:
202,159,23482,1,0,0:0:0:0:
202,159,23582,1,0,0:0:0:0:
217,136,23784,1,8,0:0:0:0:
217,136,23985,1,8,0:0:0:0:
191,135,24086,1,8,0:0:0:0:
217,136,24186,1,4,0:0:0:0:
191,135,24388,1,0,0:0:0:0:
202,159,24589,1,12,0:0:0:0:
234,114,24790,1,0,0:0:0:0:
234,114,24891,1,8,0:0:0:0:
234,114,24992,1,0,0:0:0:0:
191,118,25193,1,8,0:0:0:0:
169,121,25294,1,0,0:0:0:0:
234,114,25395,1,8,0:0:0:0:
200,96,25495,1,0,0:0:0:0:
234,114,25596,1,0,0:0:0:0:
234,114,25797,1,8,0:0:0:0:
259,114,25898,1,8,0:0:0:0:
234,114,26099,1,0,0:0:0:0:
234,114,26200,1,8,0:0:0:0:
234,114,26401,1,0,0:0:0:0:
234,114,26502,1,8,0:0:0:0:
172,119,26603,1,0,0:0:0:0:
151,133,26703,1,0,0:0:0:0:
151,121,26804,1,8,0:0:0:0:
253,90,27005,1,8,0:0:0:0:
253,90,27106,1,0,0:0:0:0:
253,90,27207,1,8,0:0:0:0:
229,94,27307,1,8,0:0:0:0:
253,90,27408,1,4,0:0:0:0:
245,92,27609,1,0,0:0:0:0:
222,103,27710,1,0,0:0:0:0:
253,90,27811,1,8,0:0:0:0:
195,104,28012,1,0,0:0:0:0:
137,118,28213,1,12,0:0:0:0:
80,132,28415,1,8,0:0:0:0:
253,90,28515,1,0,0:0:0:0:
80,132,28616,1,8,0:0:0:0:
80,132,28817,1,0,0:0:0:0:
80,132,29019,1,8,0:0:0:0:
80,132,29119,1,0,0:0:0:0:
80,132,29220,1,0,0:0:0:0:
80,132,29321,1,8,0:0:0:0:
80,132,29421,1,0,0:0:0:0:
80,132,29522,1,8,0:0:0:0:
109,142,29623,1,8,0:0:0:0:
109,142,29723,1,0,0:0:0:0:
80,132,29824,1,8,0:0:0:0:
95,112,29891,1,0,0:0:0:0:
113,101,29958,1,8,0:0:0:0:
131,90,30025,1,8,0:0:0:0:
158,74,30126,1,0,0:0:0:0:
109,142,30227,1,8,0:0:0:0:
99,141,30294,1,8,0:0:0:0:
89,140,30361,1,0,0:0:0:0:
109,142,30428,1,8,0:0:0:0:
95,112,30529,1,8,0:0:0:0:
217,136,30629,5,0,0:0:0:0:
217,136,30831,1,8,0:0:0:0:
217,136,30931,1,0,0:0:0:0:
217,136,31133,1,0,0:0:0:0:
217,136,31233,1,8,0:0:0:0:
217,136,31435,1,8,0:0:0:0:
189,138,31535,5,0,0:0:0:0:
208,113,31636,1,0,0:0:0:0:
217,136,31737,1,8,0:0:0:0:
126,140,31938,1,0,0:0:0:0:
217,136,32039,1,0,0:0:0:0:
217,136,32240,5,8,0:0:0:0:
217,136,32441,1,0,0:0:0:0:
217,136,32542,1,8,0:0:0:0:
156,138,32743,1,0,0:0:0:0:
126,140,32844,1,8,0:0:0:0:
137,104,32945,1,0,0:0:0:0:
137,104,33046,1,8,0:0:0:0:
137,104,33146,1,8,0:0:0:0:
137,104,33247,1,0,0:0:0:0:
137,104,33348,1,0,0:0:0:0:
137,104,33448,1,8,0:0:0:0:
126,140,33650,1,0,0:0:0:0:
137,104,33851,1,4,0:0:0:0:
218,194,34253,1,0,0:0:0:0:
170,166,34455,1,8,0:0:0:0:
94,170,34656,1,0,0:0:0:0:
126,140,34857,1,8,0:0:0:0:
126,140,35059,1,0,0:0:0:0:
126,140,35260,1,0,0:0:0:0:
126,140,35461,1,8,0:0:0:0:
126,140,35763,1,8,0:0:0:0:
126,140,35864,1,0,0:0:0:0:
126,140,36065,1,8,0:0:0:0:
126,140,36267,1,0,0:0:0:0:
235,212,36669,1,8,0:0:0:0:
235,212,36871,1,0,0:0:0:0:
126,140,37072,1,0,0:0:0:0:
126,140,37173,1,0,0:0:0:0:
126,140,37273,1,8,0:0:0:0:
126,140,37475,1,0,0:0:0:0:
126,140,37575,1,8,0:0:0:0:
96,139,37676,1,8,0:0:0:0:
69,139,37777,1,0,0:0:0:0:
96,146,37877,1,8,0:0:0:0:
69,139,38079,1,0,0:0:0:0:
126,122,38280,1,8,0:0:0:0:
149,115,38381,1,8,0:0:0:0:
176,108,38481,1,0,0:0:0:0:
176,108,38683,1,0,0:0:0:0:
126,122,38985,1,8,0:0:0:0:
126,122,39085,1,0,0:0:0:0:
126,122,39287,1,8,0:0:0:0:
176,108,39488,1,0,0:0:0:0:
176,108,39689,1,0,0:0:0:0:
176,108,39790,1,0,0:0:0:0:
199,146,39891,1,8,0:0:0:0:
259,142,39991,5,0,0:0:0:0:
176,108,40092,1,0,0:0:0:0:
199,146,40293,1,12,0:0:0:0:
157,157,40595,1,0,0:0:0:0:
180,155,40696,1,8,0:0:0:0:
259,142,40897,1,0,0:0:0:0:
236,138,40998,1,8,0:0:0:0:
286,138,41099,1,0,0:0:0:0:
133,159,41300,1,0,0:0:0:0:
180,155,41401,1,0,0:0:0:0:
133,159,41502,1,8,0:0:0:0:
133,159,41703,1,0,0:0:0:0:
133,159,41904,5,0,0:0:0:0:
145,124,42005,1,8,0:0:0:0:
191,155,42106,1,0,0:0:0:0:
133,159,42206,1,0,0:0:0:0:
157,157,42307,1,8,0:0:0:0:
133,159,42508,1,8,0:0:0:0:
157,156,42609,1,8,0:0:0:0:
133,159,42710,1,0,0:0:0:0:
71,167,42911,1,0,0:0:0:0:
71,167,43112,1,8,0:0:0:0:
32,124,43314,1,8,0:0:0:0:
154,142,43414,1,8,0:0:0:0:
145,124,43515,5,4,0:0:0:0:
191,155,43716,1,0,0:0:0:0:
217,104,43918,1,8,0:0:0:0:
32,124,44119,1,0,0:0:0:0:
145,124,44320,1,12,0:0:0:0:
191,155,44522,1,0,0:0:0:0:
216,141,44622,1,0,0:0:0:0:
191,155,44723,1,8,0:0:0:0:
128,155,44924,1,8,0:0:0:0:
145,124,45126,1,4,0:0:0:0:
191,155,45428,1,0,0:0:0:0:
191,155,45528,1,8,0:0:0:0:
191,155,45730,1,0,0:0:0:0:
383,65,45931,1,8,0:0:0:0:
331,77,46132,1,8,0:0:0:0:
305,92,46233,1,0,0:0:0:0:
128,155,46334,5,8,0:0:0:0:
128,155,46401,1,8,0:0:0:0:
128,155,46468,1,8,0:0:0:0:
128,155,46535,1,0,0:0:0:0:
61,176,46636,1,0,0:0:0:0:
128,155,46736,1,12,0:0:0:0:
217,117,47038,1,0,0:0:0:0:
240,107,47139,1,8,0:0:0:0:
207,168,47340,1,8,0:0:0:0:
128,155,47441,1,8,0:0:0:0:
128,155,47542,1,0,0:0:0:0:
128,155,47743,1,0,0:0:0:0:
209,122,47944,1,8,0:0:0:0:
161,124,48146,1,8,0:0:0:0:
209,122,48347,1,0,0:0:0:0:
209,122,48448,1,0,0:0:0:0:
209,122,48649,1,0,0:0:0:0:
209,122,48750,1,8,0:0:0:0:
209,122,48951,1,8,0:0:0:0:
209,122,49052,1,8,0:0:0:0:
209,122,49153,1,0,0:0:0:0:
209,122,49253,1,8,0:0:0:0:
186,126,49354,1,0,0:0:0:0:
186,126,49555,1,8,0:0:0:0:
123,126,49757,1,8,0:0:0:0:
123,126,49958,1,0,0:0:0:0:
123,126,50260,1,0,0:0:0:0:
123,126,50361,1,8,0:0:0:0:
166,150,50562,1,8,0:0:0:0:
198,157,50663,1,8,0:0:0:0:
166,150,50763,1,0,0:0:0:0:
222,162,50965,1,0,0:0:0:0:
296,164,51166,5,8,0:0:0:0:
275,137,51267,1,0,0:0:0:0:
255,111,51367,1,8,0:0:0:0:
255,111,51569,1,0,0:0:0:0:
304,79,51770,1,8,0:0:0:0:
284,88,51837,1,0,0:0:0:0:
266,97,51904,1,0,0:0:0:0:
249,105,51971,1,8,0:0:0:0:
198,126,52173,1,0,0:0:0:0:
177,134,52273,1,0,0:0:0:0:
145,136,52374,1,0,0:0:0:0:
127,155,52475,1,8,0:0:0:0:
278,106,52575,1,0,0:0:0:0:
271,83,52777,5,8,0:0:0:0:
271,83,52978,1,8,0:0:0:0:
271,83,53079,1,8,0:0:0:0:
38,178,53179,5,4,0:0:0:0:
128,190,53481,1,0,0:0:0:0:
153,193,53582,1,8,0:0:0:0:
211,200,53783,1,8,0:0:0:0:
269,208,53985,1,0,0:0:0:0:
379,224,54186,1,0,0:0:0:0:
379,224,54387,1,8,0:0:0:0:
379,224,54589,1,0,0:0:0:0:
364,216,54689,1,0,0:0:0:0:
379,224,54790,1,0,0:0:0:0:
427,156,55092,1,0,0:0:0:0:
427,156,55193,1,8,0:0:0:0:
427,156,55394,1,8,0:0:0:0:
366,153,55595,1,0,0:0:0:0:
302,149,55797,1,0,0:0:0:0:
303,150,55998,1,8,0:0:0:0:
246,147,56199,1,8,0:0:0:0:
246,117,56300,1,8,0:0:0:0:
66,174,56401,5,4,0:0:0:0:
239,98,56804,1,0,0:0:0:0:
239,98,57005,1,8,0:0:0:0:
289,77,57206,1,8,0:0:0:0:
289,77,57408,1,8,0:0:0:0:
125,144,57508,1,0,0:0:0:0:
289,77,57710,1,0,0:0:0:0:
289,77,57810,1,8,0:0:0:0:
141,169,58012,1,4,0:0:0:0:
141,169,58213,1,8,0:0:0:0:
141,169,58314,1,8,0:0:0:0:
5,134,58414,1,0,0:0:0:0:
141,169,58515,1,8,0:0:0:0:
70,139,58616,1,8,0:0:0:0:
125,144,58817,1,8,0:0:0:0:
177,148,58918,1,0,0:0:0:0:
177,148,59018,1,8,0:0:0:0:
177,148,59119,1,8,0:0:0:0:
228,109,59220,5,0,0:0:0:0:
228,109,59421,5,8,0:0:0:0:
233,135,59622,5,4,0:0:0:0:
251,77,59824,1,8,0:0:0:0:
251,77,59924,1,8,0:0:0:0:
251,77,60025,1,0,0:0:0:0:
225,75,60126,5,0,0:0:0:0:
233,135,60226,1,12,0:0:0:0:
251,77,60428,1,0,0:0:0:0:
251,77,60528,1,8,0:0:0:0:
251,77,60629,1,0,0:0:0:0:
233,135,60730,1,0,0:0:0:0:
233,135,60830,1,12,0:0:0:0:
233,135,61032,5,8,0:0:0:0:
233,135,61132,1,8,0:0:0:0:
260,137,61233,5,4,0:0:0:0:
260,137,61535,1,4,0:0:0:0:
260,137,61837,1,4,0:0:0:0:
366,200,62240,1,0,0:0:0:0:
396,206,62340,1,0,0:0:0:0:
318,172,62441,1,8,0:0:0:0:
318,172,62542,1,8,0:0:0:0:
318,172,62642,1,8,0:0:0:0:
318,172,62743,1,8,0:0:0:0:
92,136,62844,5,4,0:0:0:0:
234,136,63146,1,0,0:0:0:0:
183,138,63246,1,8,0:0:0:0:
183,138,63448,1,8,0:0:0:0:
183,138,63649,1,0,0:0:0:0:
183,138,63750,1,0,0:0:0:0:
183,138,63850,1,8,0:0:0:0:
158,141,63951,1,0,0:0:0:0:
183,138,64052,1,8,0:0:0:0:
183,138,64253,1,0,0:0:0:0:
183,138,64454,1,8,0:0:0:0:
225,124,64555,1,0,0:0:0:0:
280,97,64756,1,0,0:0:0:0:
280,97,64857,1,8,0:0:0:0:
280,97,65058,1,8,0:0:0:0:
280,97,65159,1,8,0:0:0:0:
280,97,65260,1,0,0:0:0:0:
280,97,65360,1,8,0:0:0:0:
280,97,65461,1,0,0:0:0:0:
280,97,65562,1,0,0:0:0:0:
488,337,65662,1,8,0:0:0:0:
442,299,65864,1,8,0:0:0:0:
393,260,66065,1,0,0:0:0:0:
339,231,66166,1,0,0:0:0:0:
309,220,66367,1,0,0:0:0:0:
280,209,66468,1,8,0:0:0:0:
252,165,66669,1,0,0:0:0:0:
220,114,66870,1,8,0:0:0:0:
220,114,66971,1,8,0:0:0:0:
220,114,67072,1,0,0:0:0:0:
220,114,67172,1,0,0:0:0:0:
189,120,67273,1,8,0:0:0:0:
164,125,67374,1,0,0:0:0:0:
220,114,67474,1,8,0:0:0:0:
220,114,67676,1,0,0:0:0:0:
277,122,67776,1,0,0:0:0:0:
301,126,67978,1,0,0:0:0:0:
301,126,68078,1,8,0:0:0:0:
301,126,68280,1,0,0:0:0:0:
202,159,68380,1,8,0:0:0:0:
202,159,68481,1,0,0:0:0:0:
202,159,68582,1,8,0:0:0:0:
202,159,68682,1,0,0:0:0:0:
217,136,68884,1,8,0:0:0:0:
217,136,69085,1,8,0:0:0:0:
192,134,69186,1,8,0:0:0:0:
217,136,69286,1,4,0:0:0:0:
141,115,69588,1,0,0:0:0:0:
183,138,69689,1,8,0:0:0:0:
183,138,69890,1,8,0:0:0:0:
183,138,70092,1,0,0:0:0:0:
183,138,70192,1,8,0:0:0:0:
183,138,70293,1,0,0:0:0:0:
154,139,70394,1,0,0:0:0:0:
183,138,70495,1,8,0:0:0:0:
183,138,70696,1,0,0:0:0:0:
183,138,70897,1,8,0:0:0:0:
225,124,70998,1,8,0:0:0:0:
280,97,71199,1,0,0:0:0:0:
280,97,71300,1,8,0:0:0:0:
280,97,71501,1,8,0:0:0:0:
280,97,71602,1,8,0:0:0:0:
280,97,71703,1,0,0:0:0:0:
280,97,71803,1,0,0:0:0:0:
280,97,71904,1,8,0:0:0:0:
280,97,72005,1,0,0:0:0:0:
488,337,72105,1,8,0:0:0:0:
442,299,72307,1,8,0:0:0:0:
393,260,72508,5,0,0:0:0:0:
368,250,72609,1,0,0:0:0:0:
323,206,72810,1,0,0:0:0:0:
291,180,72911,1,8,0:0:0:0:
254,152,73112,1,8,0:0:0:0:
213,122,73213,1,0,0:0:0:0:
200,112,73313,1,8,0:0:0:0:
323,206,73515,1,0,0:0:0:0:
329,185,73615,1,8,0:0:0:0:
323,206,73716,1,8,0:0:0:0:
329,185,73817,1,8,0:0:0:0:
323,206,73917,1,0,0:0:0:0:
181,129,74119,5,8,0:0:0:0:
279,141,74320,1,0,0:0:0:0:
279,141,74421,1,8,0:0:0:0:
279,141,74622,1,0,0:0:0:0:
279,141,74723,1,8,0:0:0:0:
254,140,74823,1,8,0:0:0:0:
222,132,74924,1,0,0:0:0:0:
199,122,75025,1,0,0:0:0:0:
353,207,75125,5,8,0:0:0:0:
329,185,75226,1,0,0:0:0:0:
300,160,75327,1,8,0:0:0:0:
279,141,75427,1,0,0:0:0:0:
279,141,75528,1,0,0:0:0:0:
215,137,75729,1,4,0:0:0:0:
274,188,76031,1,0,0:0:0:0:
279,141,76132,1,8,0:0:0:0:
228,160,76333,1,8,0:0:0:0:
173,182,76535,1,0,0:0:0:0:
173,182,76635,1,8,0:0:0:0:
173,182,76736,1,0,0:0:0:0:
173,182,76837,1,8,0:0:0:0:
173,182,76937,1,8,0:0:0:0:
173,182,77139,1,0,0:0:0:0:
173,182,77340,1,8,0:0:0:0:
107,185,77441,1,0,0:0:0:0:
191,56,77642,1,8,0:0:0:0:
172,77,77743,1,8,0:0:0:0:
178,146,77944,1,0,0:0:0:0:
178,146,78045,1,8,0:0:0:0:
178,146,78146,1,0,0:0:0:0:
147,144,78246,1,0,0:0:0:0:
103,150,78347,1,8,0:0:0:0:
103,150,78448,1,0,0:0:0:0:
152,143,78548,1,8,0:0:0:0:
152,143,78750,1,0,0:0:0:0:
152,143,78951,1,8,0:0:0:0:
103,150,79052,1,8,0:0:0:0:
103,150,79253,1,0,0:0:0:0:
103,150,79354,1,8,0:0:0:0:
167,139,79555,1,0,0:0:0:0:
215,173,79756,1,8,0:0:0:0:
247,195,79857,1,0,0:0:0:0:
278,217,79958,1,8,0:0:0:0:
278,217,80058,1,8,0:0:0:0:
278,217,80159,1,0,0:0:0:0:
278,217,80260,1,0,0:0:0:0:
278,217,80360,1,8,0:0:0:0:
158,169,80562,5,0,0:0:0:0:
158,169,80662,1,0,0:0:0:0:
158,169,80864,1,0,0:0:0:0:
352,176,80964,5,8,0:0:0:0:
158,169,81166,1,8,0:0:0:0:
254,171,81266,1,8,0:0:0:0:
217,169,81367,1,0,0:0:0:0:
192,169,81468,1,8,0:0:0:0:
158,169,81568,1,0,0:0:0:0:
158,169,81669,1,0,0:0:0:0:
26,153,81770,5,8,0:0:0:0:
64,128,81870,1,8,0:0:0:0:
26,153,81971,1,8,0:0:0:0:
26,153,82072,1,8,0:0:0:0:
212,172,82172,5,4,0:0:0:0:
215,113,82374,1,0,0:0:0:0:
215,113,82575,1,12,0:0:0:0:
161,130,82776,1,0,0:0:0:0:
136,138,82877,1,8,0:0:0:0:
112,146,82978,1,0,0:0:0:0:
112,146,83179,1,0,0:0:0:0:
112,146,83280,1,0,0:0:0:0:
112,146,83380,1,8,0:0:0:0:
112,146,83481,1,8,0:0:0:0:
112,146,83582,1,0,0:0:0:0:
212,172,83783,1,4,0:0:0:0:
167,145,83984,1,0,0:0:0:0:
167,145,84186,1,12,0:0:0:0:
167,145,84387,1,0,0:0:0:0:
167,145,84488,1,8,0:0:0:0:
167,145,84588,1,8,0:0:0:0:
167,145,84790,1,8,0:0:0:0:
167,145,84890,1,0,0:0:0:0:
209,117,84991,1,8,0:0:0:0:
185,119,85092,1,8,0:0:0:0:
209,117,85192,1,0,0:0:0:0:
187,93,85293,1,0,0:0:0:0:
209,117,85394,1,12,0:0:0:0:
237,119,85595,1,8,0:0:0:0:
202,122,85696,1,0,0:0:0:0:
237,119,85797,1,0,0:0:0:0:
212,172,85998,1,12,0:0:0:0:
238,116,86199,1,0,0:0:0:0:
214,92,86300,1,8,0:0:0:0:
238,116,86401,1,0,0:0:0:0:
219,97,86501,1,0,0:0:0:0:
212,172,86602,1,12,0:0:0:0:
259,170,86803,1,0,0:0:0:0:
80,132,87005,5,8,0:0:0:0:
80,132,87105,1,0,0:0:0:0:
80,132,87206,1,0,0:0:0:0:
80,132,87307,1,8,0:0:0:0:
80,132,87407,1,0,0:0:0:0:
80,132,87508,1,8,0:0:0:0:
109,142,87609,1,8,0:0:0:0:
109,142,87709,1,0,0:0:0:0:
80,132,87810,1,8,0:0:0:0:
95,112,87877,1,0,0:0:0:0:
113,101,87944,1,8,0:0:0:0:
131,90,88011,1,8,0:0:0:0:
158,74,88112,1,0,0:0:0:0:
109,142,88213,1,8,0:0:0:0:
99,141,88280,1,8,0:0:0:0:
89,140,88347,1,0,0:0:0:0:
109,142,88414,1,8,0:0:0:0:
95,112,88515,1,8,0:0:0:0:
217,136,88615,5,0,0:0:0:0:
217,136,88817,1,8,0:0:0:0:
217,136,88917,1,0,0:0:0:0:
217,136,89119,1,0,0:0:0:0:
217,136,89219,1,8,0:0:0:0:
217,136,89421,5,8,0:0:0:0:
189,138,89521,5,0,0:0:0:0:
208,113,89622,1,0,0:0:0:0:
217,136,89723,1,8,0:0:0:0:
126,140,89924,1,0,0:0:0:0:
217,136,90025,1,0,0:0:0:0:
217,136,90226,5,8,0:0:0:0:
209,108,90327,1,0,0:0:0:0:
202,82,90427,1,8,0:0:0:0:
196,58,90528,1,8,0:0:0:0:
196,58,90629,1,0,0:0:0:0:
196,58,90696,1,0,0:0:0:0:
196,58,90763,1,0,0:0:0:0:
196,58,90830,1,0,0:0:0:0:
181,73,90897,1,0,0:0:0:0:
167,88,90964,1,0,0:0:0:0:
223,177,91031,5,12,0:0:0:0:
256,192,91132,12,0,93448,0:0:0:0:
