osu file format v14

[General]
AudioFilename: audio.mp3
AudioLeadIn: 0
PreviewTime: 17039
Countdown: 0
SampleSet: Normal
StackLeniency: 0.7
Mode: 1
LetterboxInBreaks: 0
WidescreenStoryboard: 0

[Editor]
Bookmarks: 3249,9692,17746,33853,40295,46738,53181,62846,75731,93450
DistanceSpacing: 0.9
BeatDivisor: 4
GridSize: 32
TimelineZoom: 3.499998

[Metadata]
Title:final phase
TitleUnicode:final phase
Artist:Poppin'Party
ArtistUnicode:Poppin'Party
Creator:Roger
Version:Oni
Source:バンドリ!ガールズバンドパーティ!
Tags:cover opening op video game version anime japanese pop jpop j-pop bandori! bang dream! girls band party! garupa ガルパ popipa ポピパ ポッピン パーティー toyama kasumi 戸山香澄 terakawa aimi 寺川愛美 hanazono tae 花園たえ otsuka sae 大塚紗英 ushigome rimi 牛込りみ nishimoto rimi 西本りみ yamabuki saya saaya 山吹沙綾 ohashi ayaka 大橋彩香 ichigaya arisa 市ヶ谷有咲 itou ayasa 伊藤彩沙 kasai yuta 笠井雄太 Elements Garden とある科学の超電磁砲T to aru toaru kagaku no railgun a certain scientific T season 3 s3 fripSide 八木沼悟志 Yaginuma Satoshi ][ -GH- ][ Volta Amiichii
BeatmapID:2515407
BeatmapSetID:1207984

[Difficulty]
HPDrainRate:6
CircleSize:2
OverallDifficulty:5.2
ApproachRate:0
SliderMultiplier:1.4
SliderTickRate:1

[Events]
//Background and Video events
0,0,"bg4.jpg",0,0
//Break Periods
//Storyboard Layer 0 (Background)
//Storyboard Layer 1 (Fail)
//Storyboard Layer 2 (Pass)
//Storyboard Layer 3 (Foreground)
//Storyboard Layer 4 (Overlay)
//Storyboard Sound Samples

[TimingPoints]
3248,402.684563758389,4,1,0,70,1,0
9690,-100,4,1,0,75,0,0
12912,-100,4,1,0,80,0,0
16133,-100,4,1,0,30,0,0
17039,-100,4,1,0,75,0,0
17744,402.684563758389,4,1,0,85,1,1
33851,402.684563758389,4,1,0,75,1,0
40293,-100,4,1,0,80,0,0
62139,-100,4,1,0,75,0,0
62844,402.684563758389,4,1,0,85,1,1
90226,-100,4,1,0,40,0,0
90931,-100,4,1,0,75,0,0
91031,-100,4,1,0,85,0,1
91132,-100,4,1,0,40,0,1
92843,-100,4,1,0,30,0,1
93045,-100,4,1,0,20,0,1
93246,-100,4,1,0,10,0,1
93448,-100,4,1,0,5,0,0

[HitObjects]
256,192,3248,5,12,0:0:0:0:
256,192,3550,1,0,0:0:0:0:
256,192,3852,1,0,0:0:0:0:
256,192,3952,1,0,0:0:0:0:
256,192,4053,1,8,0:0:0:0:
256,192,4355,1,0,0:0:0:0:
256,192,4657,1,0,0:0:0:0:
256,192,4758,1,0,0:0:0:0:
256,192,4858,1,8,0:0:0:0:
256,192,5160,1,0,0:0:0:0:
256,192,5462,1,0,0:0:0:0:
256,192,5664,1,8,0:0:0:0:
256,192,6066,1,8,0:0:0:0:
256,192,6268,1,0,0:0:0:0:
256,192,6469,1,12,0:0:0:0:
256,192,6771,1,0,0:0:0:0:
256,192,7073,1,0,0:0:0:0:
256,192,7174,1,0,0:0:0:0:
256,192,7274,1,8,0:0:0:0:
256,192,7576,1,0,0:0:0:0:
256,192,7878,1,0,0:0:0:0:
256,192,7979,1,0,0:0:0:0:
256,192,8080,1,8,0:0:0:0:
256,192,8382,1,0,0:0:0:0:
256,192,8684,1,0,0:0:0:0:
256,192,8885,1,8,0:0:0:0:
256,192,8986,1,0,0:0:0:0:
256,192,9086,1,0,0:0:0:0:
256,192,9288,1,8,0:0:0:0:
256,192,9489,1,0,0:0:0:0:
256,192,9690,1,12,0:0:0:0:
256,192,9992,1,0,0:0:0:0:
256,192,10093,1,0,0:0:0:0:
256,192,10294,1,0,0:0:0:0:
256,192,10395,1,0,0:0:0:0:
256,192,10496,1,8,0:0:0:0:
256,192,10798,1,0,0:0:0:0:
256,192,10899,1,0,0:0:0:0:
256,192,11100,1,0,0:0:0:0:
256,192,11201,1,0,0:0:0:0:
256,192,11301,1,8,0:0:0:0:
256,192,11603,1,0,0:0:0:0:
256,192,11704,1,0,0:0:0:0:
256,192,11905,1,0,0:0:0:0:
256,192,12107,1,8,0:0:0:0:
256,192,12509,1,0,0:0:0:0:
256,192,12711,1,0,0:0:0:0:
256,192,12912,1,8,0:0:0:0:
256,192,13214,1,0,0:0:0:0:
256,192,13315,1,0,0:0:0:0:
256,192,13516,1,0,0:0:0:0:
256,192,13617,1,0,0:0:0:0:
256,192,13717,1,8,0:0:0:0:
256,192,14019,1,0,0:0:0:0:
256,192,14120,1,0,0:0:0:0:
256,192,14321,1,0,0:0:0:0:
256,192,14422,1,0,0:0:0:0:
256,192,14523,1,8,0:0:0:0:
256,192,14724,1,0,0:0:0:0:
256,192,14825,1,0,0:0:0:0:
256,192,14925,1,0,0:0:0:0:
256,192,15127,1,0,0:0:0:0:
256,192,15328,1,8,0:0:0:0:
256,192,15429,1,0,0:0:0:0:
256,192,15529,1,0,0:0:0:0:
256,192,15630,1,0,0:0:0:0:
256,192,15731,1,8,0:0:0:0:
256,192,15831,1,0,0:0:0:0:
256,192,15932,1,0,0:0:0:0:
256,192,16133,12,0,16939,0:0:0:0:
256,192,17140,5,8,0:0:0:0:
256,192,17341,1,0,0:0:0:0:
256,192,17543,1,0,0:0:0:0:
256,192,17744,1,12,0:0:0:0:
256,192,18046,1,0,0:0:0:0:
256,192,18146,1,0,0:0:0:0:
256,192,18348,1,8,0:0:0:0:
256,192,18549,1,0,0:0:0:0:
256,192,18650,1,0,0:0:0:0:
256,192,18750,1,0,0:0:0:0:
256,192,18952,1,8,0:0:0:0:
256,192,19153,1,0,0:0:0:0:
256,192,19354,1,0,0:0:0:0:
256,192,19455,1,8,0:0:0:0:
256,192,19656,1,8,0:0:0:0:
256,192,19757,1,0,0:0:0:0:
256,192,19958,1,8,0:0:0:0:
256,192,20059,1,0,0:0:0:0:
256,192,20160,1,0,0:0:0:0:
256,192,20260,1,8,0:0:0:0:
256,192,20361,1,0,0:0:0:0:
256,192,20562,1,8,0:0:0:0:
256,192,20764,1,0,0:0:0:0:
256,192,20864,1,0,0:0:0:0:
256,192,20965,1,8,0:0:0:0:
256,192,21368,1,0,0:0:0:0:
256,192,21569,1,8,0:0:0:0:
256,192,21770,1,0,0:0:0:0:
256,192,21871,1,8,0:0:0:0:
256,192,21972,1,0,0:0:0:0:
256,192,22072,1,0,0:0:0:0:
256,192,22173,1,8,0:0:0:0:
256,192,22374,1,0,0:0:0:0:
256,192,22576,1,8,0:0:0:0:
256,192,22676,1,0,0:0:0:0:
256,192,22878,1,0,0:0:0:0:
256,192,22978,1,8,0:0:0:0:
256,192,23180,1,0,0:0:0:0:
256,192,23280,1,0,0:0:0:0:
256,192,23381,1,0,0:0:0:0:
256,192,23482,1,8,0:0:0:0:
256,192,23582,1,0,0:0:0:0:
256,192,23784,1,8,0:0:0:0:
256,192,23985,1,8,0:0:0:0:
256,192,24086,1,8,0:0:0:0:
256,192,24186,1,4,0:0:0:0:
256,192,24589,1,12,0:0:0:0:
256,192,24790,1,0,0:0:0:0:
256,192,24992,1,8,0:0:0:0:
256,192,25092,1,0,0:0:0:0:
256,192,25193,1,0,0:0:0:0:
256,192,25395,1,8,0:0:0:0:
256,192,25596,1,0,0:0:0:0:
256,192,25797,1,8,0:0:0:0:
256,192,25898,1,8,0:0:0:0:
256,192,26099,1,8,0:0:0:0:
256,192,26200,1,0,0:0:0:0:
256,192,26401,1,0,0:0:0:0:
256,192,26502,1,0,0:0:0:0:
256,192,26603,1,8,0:0:0:0:
256,192,26804,1,0,0:0:0:0:
256,192,27005,1,8,0:0:0:0:
256,192,27106,1,8,0:0:0:0:
256,192,27207,1,8,0:0:0:0:
256,192,27307,1,8,0:0:0:0:
256,192,27408,1,4,0:0:0:0:
256,192,27811,1,0,0:0:0:0:
256,192,28012,1,0,0:0:0:0:
256,192,28213,1,8,0:0:0:0:
256,192,28314,1,0,0:0:0:0:
256,192,28515,1,0,0:0:0:0:
256,192,28616,1,8,0:0:0:0:
256,192,28817,1,0,0:0:0:0:
256,192,29019,1,8,0:0:0:0:
256,192,29119,1,8,0:0:0:0:
256,192,29220,1,0,0:0:0:0:
256,192,29321,1,0,0:0:0:0:
256,192,29421,1,8,0:0:0:0:
256,192,29623,1,0,0:0:0:0:
256,192,29723,1,0,0:0:0:0:
256,192,29824,1,8,0:0:0:0:
256,192,29925,1,8,0:0:0:0:
256,192,30025,1,0,0:0:0:0:
256,192,30227,1,8,0:0:0:0:
256,192,30327,1,8,0:0:0:0:
256,192,30428,1,0,0:0:0:0:
256,192,30629,1,12,0:0:0:0:
256,192,30931,1,4,0:0:0:0:
256,192,31233,1,4,0:0:0:0:
256,192,31435,1,12,0:0:0:0:
256,192,31737,1,12,0:0:0:0:
256,192,32039,1,4,0:0:0:0:
256,192,32240,1,8,0:0:0:0:
256,192,32441,1,0,0:0:0:0:
256,192,32542,1,8,0:0:0:0:
256,192,32743,1,0,0:0:0:0:
256,192,32844,1,8,0:0:0:0:
256,192,33046,1,8,0:0:0:0:
256,192,33146,1,8,0:0:0:0:
256,192,33247,1,0,0:0:0:0:
256,192,33348,1,0,0:0:0:0:
256,192,33448,1,12,0:0:0:0:
256,192,33851,1,4,0:0:0:0:
256,192,34253,1,0,0:0:0:0:
256,192,34656,1,0,0:0:0:0:
256,192,34857,1,0,0:0:0:0:
256,192,35059,1,8,0:0:0:0:
256,192,35260,1,0,0:0:0:0:
256,192,35461,1,8,0:0:0:0:
256,192,35864,1,0,0:0:0:0:
256,192,36065,1,8,0:0:0:0:
256,192,36267,1,0,0:0:0:0:
256,192,36669,1,8,0:0:0:0:
256,192,36871,1,8,0:0:0:0:
256,192,37072,1,0,0:0:0:0:
256,192,37475,1,0,0:0:0:0:
256,192,37877,1,0,0:0:0:0:
256,192,38079,1,8,0:0:0:0:
256,192,38280,1,0,0:0:0:0:
256,192,38481,1,0,0:0:0:0:
256,192,38683,1,8,0:0:0:0:
256,192,39085,1,0,0:0:0:0:
256,192,39287,1,8,0:0:0:0:
256,192,39488,1,0,0:0:0:0:
256,192,39689,1,0,0:0:0:0:
256,192,39790,1,0,0:0:0:0:
256,192,39891,1,8,0:0:0:0:
256,192,40293,1,4,0:0:0:0:
256,192,40495,1,0,0:0:0:0:
256,192,40696,1,8,0:0:0:0:
256,192,40998,1,8,0:0:0:0:
256,192,41099,1,0,0:0:0:0:
256,192,41300,1,0,0:0:0:0:
256,192,41502,1,8,0:0:0:0:
256,192,41703,1,0,0:0:0:0:
256,192,41804,1,8,0:0:0:0:
256,192,41904,1,0,0:0:0:0:
256,192,42106,1,0,0:0:0:0:
256,192,42307,1,8,0:0:0:0:
256,192,42609,1,8,0:0:0:0:
256,192,42710,1,0,0:0:0:0:
256,192,42810,1,0,0:0:0:0:
256,192,42911,1,0,0:0:0:0:
256,192,43112,1,8,0:0:0:0:
256,192,43314,1,8,0:0:0:0:
256,192,43414,1,8,0:0:0:0:
256,192,43515,1,0,0:0:0:0:
256,192,43716,1,0,0:0:0:0:
256,192,43918,1,8,0:0:0:0:
256,192,44119,1,0,0:0:0:0:
256,192,44220,1,0,0:0:0:0:
256,192,44320,1,8,0:0:0:0:
256,192,44522,1,8,0:0:0:0:
256,192,44723,1,0,0:0:0:0:
256,192,44824,1,0,0:0:0:0:
256,192,44924,1,0,0:0:0:0:
256,192,45126,1,8,0:0:0:0:
256,192,45428,1,0,0:0:0:0:
256,192,45528,1,8,0:0:0:0:
256,192,45730,1,0,0:0:0:0:
256,192,45931,1,8,0:0:0:0:
256,192,46132,1,8,0:0:0:0:
256,192,46233,1,8,0:0:0:0:
256,192,46334,1,0,0:0:0:0:
256,192,46434,1,0,0:0:0:0:
256,192,46535,1,0,0:0:0:0:
256,192,46736,1,12,0:0:0:0:
256,192,46938,1,0,0:0:0:0:
256,192,47139,1,8,0:0:0:0:
256,192,47441,1,8,0:0:0:0:
256,192,47542,1,0,0:0:0:0:
256,192,47743,1,0,0:0:0:0:
256,192,47944,1,8,0:0:0:0:
256,192,48146,1,0,0:0:0:0:
256,192,48246,1,0,0:0:0:0:
256,192,48347,1,8,0:0:0:0:
256,192,48448,1,8,0:0:0:0:
256,192,48649,1,8,0:0:0:0:
256,192,48750,1,0,0:0:0:0:
256,192,48951,1,8,0:0:0:0:
256,192,49153,1,0,0:0:0:0:
256,192,49354,1,8,0:0:0:0:
256,192,49455,1,8,0:0:0:0:
256,192,49555,1,0,0:0:0:0:
256,192,49757,1,8,0:0:0:0:
256,192,49958,1,0,0:0:0:0:
256,192,50159,1,0,0:0:0:0:
256,192,50361,1,8,0:0:0:0:
256,192,50663,1,8,0:0:0:0:
256,192,50763,1,0,0:0:0:0:
256,192,50965,1,0,0:0:0:0:
256,192,51166,1,8,0:0:0:0:
256,192,51367,1,8,0:0:0:0:
256,192,51468,1,8,0:0:0:0:
256,192,51569,1,0,0:0:0:0:
256,192,51669,1,0,0:0:0:0:
256,192,51871,1,8,0:0:0:0:
256,192,51971,1,0,0:0:0:0:
256,192,52173,1,8,0:0:0:0:
256,192,52374,1,0,0:0:0:0:
256,192,52475,1,8,0:0:0:0:
256,192,52575,1,0,0:0:0:0:
256,192,52777,1,8,0:0:0:0:
256,192,52978,1,0,0:0:0:0:
256,192,53079,1,0,0:0:0:0:
256,192,53179,1,12,0:0:0:0:
256,192,53481,1,0,0:0:0:0:
256,192,53582,1,8,0:0:0:0:
256,192,53783,1,0,0:0:0:0:
256,192,53985,1,8,0:0:0:0:
256,192,54387,1,8,0:0:0:0:
256,192,54589,1,8,0:0:0:0:
256,192,54689,1,8,0:0:0:0:
256,192,54790,1,0,0:0:0:0:
256,192,55092,1,0,0:0:0:0:
256,192,55193,1,8,0:0:0:0:
256,192,55394,1,8,0:0:0:0:
256,192,55595,1,0,0:0:0:0:
256,192,55998,1,8,0:0:0:0:
256,192,56199,1,0,0:0:0:0:
256,192,56300,1,0,0:0:0:0:
256,192,56401,1,12,0:0:0:0:
256,192,56804,1,0,0:0:0:0:
256,192,57005,1,0,0:0:0:0:
256,192,57206,1,0,0:0:0:0:
256,192,57408,1,0,0:0:0:0:
256,192,57609,1,0,0:0:0:0:
256,192,57810,1,0,0:0:0:0:
256,192,58012,1,12,0:0:0:0:
256,192,58414,1,8,0:0:0:0:
256,192,58616,1,8,0:0:0:0:
256,192,58817,1,8,0:0:0:0:
256,192,59018,1,8,0:0:0:0:
256,192,59220,1,8,0:0:0:0:
256,192,59421,1,8,0:0:0:0:
256,192,59622,1,4,0:0:0:0:
256,192,59824,1,8,0:0:0:0:
256,192,59924,1,8,0:0:0:0:
256,192,60025,1,0,0:0:0:0:
256,192,60126,1,0,0:0:0:0:
256,192,60226,1,8,0:0:0:0:
256,192,60428,1,0,0:0:0:0:
256,192,60528,1,0,0:0:0:0:
256,192,60629,1,0,0:0:0:0:
256,192,60730,1,0,0:0:0:0:
256,192,60830,1,8,0:0:0:0:
256,192,61032,1,8,0:0:0:0:
256,192,61132,1,8,0:0:0:0:
256,192,61233,1,4,0:0:0:0:
256,192,61535,1,4,0:0:0:0:
256,192,61837,1,4,0:0:0:0:
256,192,62240,1,8,0:0:0:0:
256,192,62441,1,0,0:0:0:0:
256,192,62642,1,0,0:0:0:0:
256,192,62844,1,12,0:0:0:0:
256,192,63146,1,0,0:0:0:0:
256,192,63246,1,0,0:0:0:0:
256,192,63448,1,8,0:0:0:0:
256,192,63649,1,0,0:0:0:0:
256,192,63750,1,0,0:0:0:0:
256,192,63850,1,0,0:0:0:0:
256,192,64052,1,8,0:0:0:0:
256,192,64253,1,0,0:0:0:0:
256,192,64454,1,0,0:0:0:0:
256,192,64555,1,8,0:0:0:0:
256,192,64756,1,8,0:0:0:0:
256,192,64857,1,0,0:0:0:0:
256,192,65058,1,8,0:0:0:0:
256,192,65159,1,0,0:0:0:0:
256,192,65260,1,0,0:0:0:0:
256,192,65360,1,8,0:0:0:0:
256,192,65461,1,0,0:0:0:0:
256,192,65662,1,8,0:0:0:0:
256,192,65864,1,0,0:0:0:0:
256,192,65964,1,0,0:0:0:0:
256,192,66065,1,8,0:0:0:0:
256,192,66468,1,8,0:0:0:0:
256,192,66669,1,0,0:0:0:0:
256,192,66770,1,0,0:0:0:0:
256,192,66870,1,8,0:0:0:0:
256,192,66971,1,8,0:0:0:0:
256,192,67072,1,0,0:0:0:0:
256,192,67273,1,8,0:0:0:0:
256,192,67474,1,0,0:0:0:0:
256,192,67676,1,8,0:0:0:0:
256,192,67776,1,8,0:0:0:0:
256,192,67978,1,8,0:0:0:0:
256,192,68078,1,0,0:0:0:0:
256,192,68280,1,0,0:0:0:0:
256,192,68380,1,0,0:0:0:0:
256,192,68481,1,0,0:0:0:0:
256,192,68582,1,8,0:0:0:0:
256,192,68682,1,0,0:0:0:0:
256,192,68884,1,8,0:0:0:0:
256,192,69085,1,8,0:0:0:0:
256,192,69186,1,8,0:0:0:0:
256,192,69286,1,4,0:0:0:0:
256,192,69689,1,12,0:0:0:0:
256,192,69890,1,0,0:0:0:0:
256,192,70092,1,8,0:0:0:0:
256,192,70192,1,0,0:0:0:0:
256,192,70293,1,0,0:0:0:0:
256,192,70495,1,8,0:0:0:0:
256,192,70696,1,0,0:0:0:0:
256,192,70897,1,0,0:0:0:0:
256,192,70998,1,8,0:0:0:0:
256,192,71199,1,8,0:0:0:0:
256,192,71300,1,0,0:0:0:0:
256,192,71501,1,8,0:0:0:0:
256,192,71602,1,0,0:0:0:0:
256,192,71703,1,0,0:0:0:0:
256,192,71803,1,8,0:0:0:0:
256,192,71904,1,0,0:0:0:0:
256,192,72105,1,8,0:0:0:0:
256,192,72307,1,8,0:0:0:0:
256,192,72407,1,8,0:0:0:0:
256,192,72508,1,0,0:0:0:0:
256,192,72911,1,8,0:0:0:0:
256,192,73112,1,0,0:0:0:0:
256,192,73213,1,0,0:0:0:0:
256,192,73313,1,8,0:0:0:0:
256,192,73515,1,0,0:0:0:0:
256,192,73615,1,8,0:0:0:0:
256,192,73716,1,0,0:0:0:0:
256,192,73917,1,0,0:0:0:0:
256,192,74119,1,8,0:0:0:0:
256,192,74421,1,8,0:0:0:0:
256,192,74521,1,0,0:0:0:0:
256,192,74723,1,8,0:0:0:0:
256,192,74924,1,0,0:0:0:0:
256,192,75125,1,8,0:0:0:0:
256,192,75226,1,8,0:0:0:0:
256,192,75327,1,0,0:0:0:0:
256,192,75427,1,0,0:0:0:0:
256,192,75528,1,0,0:0:0:0:
256,192,75729,1,4,0:0:0:0:
256,192,76031,1,8,0:0:0:0:
256,192,76132,1,8,0:0:0:0:
256,192,76333,1,0,0:0:0:0:
256,192,76535,1,8,0:0:0:0:
256,192,76635,1,0,0:0:0:0:
256,192,76736,1,0,0:0:0:0:
256,192,76937,1,8,0:0:0:0:
256,192,77139,1,0,0:0:0:0:
256,192,77340,1,8,0:0:0:0:
256,192,77441,1,8,0:0:0:0:
256,192,77642,1,8,0:0:0:0:
256,192,77743,1,0,0:0:0:0:
256,192,77944,1,8,0:0:0:0:
256,192,78045,1,0,0:0:0:0:
256,192,78146,1,0,0:0:0:0:
256,192,78246,1,8,0:0:0:0:
256,192,78347,1,0,0:0:0:0:
256,192,78548,1,8,0:0:0:0:
256,192,78750,1,0,0:0:0:0:
256,192,78850,1,0,0:0:0:0:
256,192,78951,1,8,0:0:0:0:
256,192,79354,1,0,0:0:0:0:
256,192,79555,1,8,0:0:0:0:
256,192,79756,1,0,0:0:0:0:
256,192,79857,1,0,0:0:0:0:
256,192,79958,1,8,0:0:0:0:
256,192,80058,1,0,0:0:0:0:
256,192,80159,1,8,0:0:0:0:
256,192,80360,1,0,0:0:0:0:
256,192,80562,1,8,0:0:0:0:
256,192,80662,1,0,0:0:0:0:
256,192,80864,1,0,0:0:0:0:
256,192,80964,1,8,0:0:0:0:
256,192,81166,1,0,0:0:0:0:
256,192,81266,1,0,0:0:0:0:
256,192,81367,1,0,0:0:0:0:
256,192,81468,1,8,0:0:0:0:
256,192,81568,1,0,0:0:0:0:
256,192,81770,1,8,0:0:0:0:
256,192,81870,1,8,0:0:0:0:
256,192,81971,1,8,0:0:0:0:
256,192,82072,1,8,0:0:0:0:
256,192,82172,1,4,0:0:0:0:
256,192,82374,1,0,0:0:0:0:
256,192,82575,1,8,0:0:0:0:
256,192,82877,1,8,0:0:0:0:
256,192,82978,1,0,0:0:0:0:
256,192,83179,1,0,0:0:0:0:
256,192,83380,1,8,0:0:0:0:
256,192,83481,1,0,0:0:0:0:
256,192,83582,1,0,0:0:0:0:
256,192,83783,1,4,0:0:0:0:
256,192,83984,1,0,0:0:0:0:
256,192,84186,1,8,0:0:0:0:
256,192,84488,1,8,0:0:0:0:
256,192,84588,1,0,0:0:0:0:
256,192,84790,1,0,0:0:0:0:
256,192,84991,1,8,0:0:0:0:
256,192,85192,1,0,0:0:0:0:
256,192,85293,1,0,0:0:0:0:
256,192,85394,1,8,0:0:0:0:
256,192,85595,1,0,0:0:0:0:
256,192,85797,1,0,0:0:0:0:
256,192,85998,1,8,0:0:0:0:
256,192,86199,1,0,0:0:0:0:
256,192,86300,1,0,0:0:0:0:
256,192,86401,1,0,0:0:0:0:
256,192,86602,1,8,0:0:0:0:
256,192,86803,1,0,0:0:0:0:
256,192,87005,1,8,0:0:0:0:
256,192,87105,1,8,0:0:0:0:
256,192,87206,1,0,0:0:0:0:
256,192,87307,1,0,0:0:0:0:
256,192,87407,1,0,0:0:0:0:
256,192,87609,1,8,0:0:0:0:
256,192,87709,1,8,0:0:0:0:
256,192,87810,1,0,0:0:0:0:
256,192,87911,1,0,0:0:0:0:
256,192,88011,1,0,0:0:0:0:
256,192,88112,1,0,0:0:0:0:
256,192,88213,1,8,0:0:0:0:
256,192,88414,1,0,0:0:0:0:
256,192,88615,1,12,0:0:0:0:
256,192,88917,1,4,0:0:0:0:
256,192,89219,1,4,0:0:0:0:
256,192,89421,1,12,0:0:0:0:
256,192,89723,1,12,0:0:0:0:
256,192,90025,1,4,0:0:0:0:
256,192,91031,1,12,0:0:0:0:
256,192,91233,8,0,93448,0:0:0:0:
