osu file format v14

[General]
AudioFilename: audio.mp3
AudioLeadIn: 0
PreviewTime: 17039
Countdown: 0
SampleSet: Normal
StackLeniency: 0.7
Mode: 1
LetterboxInBreaks: 0
WidescreenStoryboard: 0

[Editor]
Bookmarks: 3249,9692,17746,33853,40295,46738,53181,62846,75731,93450
DistanceSpacing: 0.9
BeatDivisor: 4
GridSize: 32
TimelineZoom: 1.9

[Metadata]
Title:final phase
TitleUnicode:final phase
Artist:Poppin'Party
ArtistUnicode:Poppin'Party
Creator:Roger
Version:Futsuu
Source:バンドリ!ガールズバンドパーティ!
Tags:cover opening op video game version anime japanese pop jpop j-pop bandori! bang dream! girls band party! garupa ガルパ popipa ポピパ ポッピン パーティー toyama kasumi 戸山香澄 terakawa aimi 寺川愛美 hanazono tae 花園たえ otsuka sae 大塚紗英 ushigome rimi 牛込りみ nishimoto rimi 西本りみ yamabuki saya saaya 山吹沙綾 ohashi ayaka 大橋彩香 ichigaya arisa 市ヶ谷有咲 itou ayasa 伊藤彩沙 kasai yuta 笠井雄太 Elements Garden とある科学の超電磁砲T to aru toaru kagaku no railgun a certain scientific T season 3 s3 fripSide 八木沼悟志 Yaginuma Satoshi ][ -GH- ][ Volta Amiichii
BeatmapID:2515403
BeatmapSetID:1207984

[Difficulty]
HPDrainRate:7
CircleSize:2
OverallDifficulty:3.7
ApproachRate:0
SliderMultiplier:1.4
SliderTickRate:1

[Events]
//Background and Video events
0,0,"bg2.jpg",0,50
//Break Periods
//Storyboard Layer 0 (Background)
//Storyboard Layer 1 (Fail)
//Storyboard Layer 2 (Pass)
//Storyboard Layer 3 (Foreground)
//Storyboard Layer 4 (Overlay)
//Storyboard Sound Samples

[TimingPoints]
3248,402.684563758389,4,1,0,70,1,0
9690,-100,4,1,0,75,0,0
12912,-100,4,1,0,80,0,0
16133,-100,4,1,0,30,0,0
17039,-100,4,1,0,75,0,0
17744,402.684563758389,4,1,0,85,1,1
33851,402.684563758389,4,1,0,75,1,0
40293,-100,4,1,0,80,0,0
62139,-100,4,1,0,75,0,0
62844,402.684563758389,4,1,0,85,1,1
90226,-100,4,1,0,40,0,0
90931,-100,4,1,0,75,0,0
91031,-100,4,1,0,85,0,1
91132,-100,4,1,0,40,0,1
92843,-100,4,1,0,30,0,1
93045,-100,4,1,0,20,0,1
93246,-100,4,1,0,10,0,1
93448,-100,4,1,0,5,0,0

[HitObjects]
256,192,3248,5,12,0:0:0:0:
256,192,3852,1,0,0:0:0:0:
256,192,4053,1,8,0:0:0:0:
256,192,4657,1,0,0:0:0:0:
256,192,4858,1,8,0:0:0:0:
256,192,5462,1,0,0:0:0:0:
256,192,5664,1,8,0:0:0:0:
256,192,6066,1,0,0:0:0:0:
256,192,6469,1,12,0:0:0:0:
256,192,7073,1,0,0:0:0:0:
256,192,7274,1,8,0:0:0:0:
256,192,7878,1,0,0:0:0:0:
256,192,8080,1,8,0:0:0:0:
256,192,8885,1,8,0:0:0:0:
256,192,9086,1,0,0:0:0:0:
256,192,9288,1,8,0:0:0:0:
256,192,9690,1,12,0:0:0:0:
256,192,10294,1,0,0:0:0:0:
256,192,10496,1,8,0:0:0:0:
256,192,10798,1,0,0:0:0:0:
256,192,11100,1,0,0:0:0:0:
256,192,11301,1,8,0:0:0:0:
256,192,11905,1,0,0:0:0:0:
256,192,12107,1,8,0:0:0:0:
256,192,12509,1,0,0:0:0:0:
256,192,12912,1,8,0:0:0:0:
256,192,13516,1,0,0:0:0:0:
256,192,13717,1,8,0:0:0:0:
256,192,14019,1,0,0:0:0:0:
256,192,14321,1,0,0:0:0:0:
256,192,14523,1,8,0:0:0:0:
256,192,15127,1,0,0:0:0:0:
256,192,15328,1,8,0:0:0:0:
256,192,15529,1,0,0:0:0:0:
256,192,15731,1,8,0:0:0:0:
256,192,16133,8,8,16939,0:0:0:0:
256,192,17744,5,12,0:0:0:0:
256,192,18146,1,0,0:0:0:0:
256,192,18348,1,8,0:0:0:0:
256,192,18952,1,8,0:0:0:0:
256,192,19354,1,0,0:0:0:0:
256,192,19757,1,8,0:0:0:0:
256,192,19958,1,0,0:0:0:0:
256,192,20361,1,0,0:0:0:0:
256,192,20562,1,8,0:0:0:0:
256,192,20965,1,0,0:0:0:0:
256,192,21368,1,8,0:0:0:0:
256,192,21770,1,0,0:0:0:0:
256,192,21972,1,0,0:0:0:0:
256,192,22173,1,8,0:0:0:0:
256,192,22576,1,0,0:0:0:0:
256,192,22978,1,8,0:0:0:0:
256,192,23180,1,0,0:0:0:0:
256,192,23582,1,0,0:0:0:0:
256,192,23784,1,8,0:0:0:0:
256,192,23985,1,8,0:0:0:0:
256,192,24186,1,0,0:0:0:0:
256,192,24589,1,12,0:0:0:0:
256,192,25395,1,8,0:0:0:0:
256,192,25797,1,0,0:0:0:0:
256,192,26200,1,8,0:0:0:0:
256,192,26401,1,0,0:0:0:0:
256,192,26804,1,0,0:0:0:0:
256,192,27005,1,8,0:0:0:0:
256,192,27207,1,8,0:0:0:0:
256,192,27408,1,4,0:0:0:0:
256,192,28213,1,0,0:0:0:0:
256,192,28616,1,0,0:0:0:0:
256,192,28817,1,0,0:0:0:0:
256,192,29019,1,8,0:0:0:0:
256,192,29421,1,0,0:0:0:0:
256,192,29623,1,0,0:0:0:0:
256,192,29824,1,8,0:0:0:0:
256,192,30025,1,8,0:0:0:0:
256,192,30227,1,0,0:0:0:0:
256,192,30629,1,12,0:0:0:0:
256,192,30931,1,4,0:0:0:0:
256,192,31435,1,12,0:0:0:0:
256,192,31737,1,12,0:0:0:0:
256,192,32240,1,8,0:0:0:0:
256,192,32542,1,8,0:0:0:0:
256,192,32844,1,8,0:0:0:0:
256,192,33046,1,0,0:0:0:0:
256,192,33448,1,8,0:0:0:0:
256,192,33851,1,4,0:0:0:0:
256,192,34656,1,0,0:0:0:0:
256,192,35059,1,0,0:0:0:0:
256,192,35461,1,8,0:0:0:0:
256,192,35864,1,0,0:0:0:0:
256,192,36267,1,0,0:0:0:0:
256,192,36669,1,8,0:0:0:0:
256,192,36871,1,8,0:0:0:0:
256,192,37072,1,0,0:0:0:0:
256,192,37877,1,0,0:0:0:0:
256,192,38280,1,0,0:0:0:0:
256,192,38683,1,8,0:0:0:0:
256,192,39085,1,0,0:0:0:0:
256,192,39287,1,8,0:0:0:0:
256,192,39488,1,0,0:0:0:0:
256,192,39891,1,8,0:0:0:0:
256,192,40293,1,4,0:0:0:0:
256,192,40897,1,8,0:0:0:0:
256,192,41099,1,0,0:0:0:0:
256,192,41502,1,0,0:0:0:0:
256,192,41904,1,8,0:0:0:0:
256,192,42307,1,0,0:0:0:0:
256,192,42508,1,8,0:0:0:0:
256,192,42710,1,0,0:0:0:0:
256,192,43314,1,8,0:0:0:0:
256,192,43515,1,0,0:0:0:0:
256,192,43918,1,8,0:0:0:0:
256,192,44320,1,0,0:0:0:0:
256,192,44522,1,0,0:0:0:0:
256,192,44723,1,8,0:0:0:0:
256,192,45126,1,0,0:0:0:0:
256,192,45730,1,8,0:0:0:0:
256,192,45931,1,0,0:0:0:0:
256,192,46132,1,0,0:0:0:0:
256,192,46334,1,8,0:0:0:0:
256,192,46736,1,4,0:0:0:0:
256,192,47139,1,8,0:0:0:0:
256,192,47944,1,8,0:0:0:0:
256,192,48146,1,8,0:0:0:0:
256,192,48347,1,0,0:0:0:0:
256,192,48750,1,8,0:0:0:0:
256,192,49153,1,0,0:0:0:0:
256,192,49354,1,0,0:0:0:0:
256,192,49555,1,8,0:0:0:0:
256,192,49958,1,0,0:0:0:0:
256,192,50361,1,8,0:0:0:0:
256,192,50965,1,0,0:0:0:0:
256,192,51166,1,8,0:0:0:0:
256,192,51569,1,0,0:0:0:0:
256,192,51971,1,8,0:0:0:0:
256,192,52173,1,0,0:0:0:0:
256,192,52374,1,8,0:0:0:0:
256,192,52777,1,8,0:0:0:0:
256,192,53179,1,4,0:0:0:0:
256,192,53783,1,8,0:0:0:0:
256,192,53985,1,0,0:0:0:0:
256,192,54387,1,8,0:0:0:0:
256,192,54790,1,0,0:0:0:0:
256,192,55394,1,8,0:0:0:0:
256,192,55595,1,0,0:0:0:0:
256,192,55998,1,8,0:0:0:0:
256,192,56401,1,12,0:0:0:0:
256,192,57206,1,0,0:0:0:0:
256,192,57408,1,0,0:0:0:0:
256,192,57609,1,0,0:0:0:0:
256,192,58012,1,12,0:0:0:0:
256,192,58817,1,8,0:0:0:0:
256,192,59018,1,8,0:0:0:0:
256,192,59220,1,8,0:0:0:0:
256,192,59622,1,4,0:0:0:0:
256,192,60025,1,0,0:0:0:0:
256,192,60226,1,8,0:0:0:0:
256,192,60428,1,0,0:0:0:0:
256,192,60830,1,8,0:0:0:0:
256,192,61032,1,0,0:0:0:0:
256,192,61233,1,8,0:0:0:0:
256,192,61535,1,8,0:0:0:0:
256,192,61837,1,8,0:0:0:0:
256,192,62844,1,12,0:0:0:0:
256,192,63246,1,0,0:0:0:0:
256,192,63448,1,8,0:0:0:0:
256,192,64052,1,8,0:0:0:0:
256,192,64454,1,0,0:0:0:0:
256,192,64857,1,8,0:0:0:0:
256,192,65058,1,0,0:0:0:0:
256,192,65461,1,0,0:0:0:0:
256,192,65662,1,8,0:0:0:0:
256,192,66065,1,0,0:0:0:0:
256,192,66468,1,8,0:0:0:0:
256,192,66870,1,0,0:0:0:0:
256,192,67072,1,0,0:0:0:0:
256,192,67273,1,8,0:0:0:0:
256,192,67676,1,0,0:0:0:0:
256,192,68078,1,8,0:0:0:0:
256,192,68280,1,0,0:0:0:0:
256,192,68682,1,0,0:0:0:0:
256,192,68884,1,8,0:0:0:0:
256,192,69085,1,8,0:0:0:0:
256,192,69286,1,0,0:0:0:0:
256,192,69689,1,12,0:0:0:0:
256,192,70495,1,8,0:0:0:0:
256,192,70897,1,0,0:0:0:0:
256,192,71300,1,8,0:0:0:0:
256,192,71501,1,0,0:0:0:0:
256,192,71904,1,0,0:0:0:0:
256,192,72105,1,8,0:0:0:0:
256,192,72508,1,0,0:0:0:0:
256,192,73112,1,0,0:0:0:0:
256,192,73313,1,8,0:0:0:0:
256,192,73716,1,8,0:0:0:0:
256,192,74119,1,0,0:0:0:0:
256,192,74421,1,0,0:0:0:0:
256,192,74723,1,0,0:0:0:0:
256,192,74924,1,8,0:0:0:0:
256,192,75327,1,0,0:0:0:0:
256,192,75729,1,4,0:0:0:0:
256,192,76132,1,8,0:0:0:0:
256,192,76333,1,0,0:0:0:0:
256,192,76937,1,8,0:0:0:0:
256,192,77340,1,0,0:0:0:0:
256,192,77743,1,8,0:0:0:0:
256,192,77944,1,8,0:0:0:0:
256,192,78347,1,0,0:0:0:0:
256,192,78548,1,8,0:0:0:0:
256,192,78951,1,0,0:0:0:0:
256,192,79354,1,8,0:0:0:0:
256,192,79756,1,0,0:0:0:0:
256,192,79958,1,8,0:0:0:0:
256,192,80159,1,8,0:0:0:0:
256,192,80562,1,0,0:0:0:0:
256,192,80964,1,8,0:0:0:0:
256,192,81166,1,0,0:0:0:0:
256,192,81568,1,0,0:0:0:0:
256,192,81770,1,8,0:0:0:0:
256,192,81971,1,8,0:0:0:0:
256,192,82172,1,4,0:0:0:0:
256,192,82978,1,0,0:0:0:0:
256,192,83179,1,0,0:0:0:0:
256,192,83380,1,8,0:0:0:0:
256,192,83783,1,4,0:0:0:0:
256,192,84186,1,8,0:0:0:0:
256,192,84387,1,8,0:0:0:0:
256,192,84588,1,0,0:0:0:0:
256,192,84991,1,0,0:0:0:0:
256,192,85394,1,8,0:0:0:0:
256,192,85797,1,0,0:0:0:0:
256,192,85998,1,8,0:0:0:0:
256,192,86401,1,0,0:0:0:0:
256,192,86602,1,8,0:0:0:0:
256,192,87005,1,8,0:0:0:0:
256,192,87407,1,0,0:0:0:0:
256,192,87609,1,0,0:0:0:0:
256,192,87810,1,8,0:0:0:0:
256,192,88011,1,8,0:0:0:0:
256,192,88213,1,0,0:0:0:0:
256,192,88615,1,12,0:0:0:0:
256,192,88917,1,4,0:0:0:0:
256,192,89421,1,12,0:0:0:0:
256,192,89723,1,12,0:0:0:0:
256,192,90025,1,4,0:0:0:0:
256,192,91031,1,12,0:0:0:0:
256,192,91233,8,12,93448,0:0:0:0:
