osu file format v14

[General]
AudioFilename: audio.mp3
AudioLeadIn: 0
PreviewTime: 17039
Countdown: 0
SampleSet: Soft
StackLeniency: 0.7
Mode: 3
LetterboxInBreaks: 0
SpecialStyle: 0
WidescreenStoryboard: 0

[Editor]
Bookmarks: 3247,9690,17744,33851,40293,46736,53179,62844,75729,93448
DistanceSpacing: 0.9
BeatDivisor: 4
GridSize: 32
TimelineZoom: 1.599999

[Metadata]
Title:final phase
TitleUnicode:final phase
Artist:Poppin'Party
ArtistUnicode:Poppin'Party
Creator:Roger
Version:Amii's Hard
Source:バンドリ!ガールズバンドパーティ!
Tags:cover opening op video game version anime japanese pop jpop j-pop bandori! bang dream! girls band party! garupa ガルパ popipa ポピパ ポッピン パーティー toyama kasumi 戸山香澄 terakawa aimi 寺川愛美 hanazono tae 花園たえ otsuka sae 大塚紗英 ushigome rimi 牛込りみ nishimoto rimi 西本りみ yamabuki saya saaya 山吹沙綾 ohashi ayaka 大橋彩香 ichigaya arisa 市ヶ谷有咲 itou ayasa 伊藤彩沙 kasai yuta 笠井雄太 Elements Garden とある科学の超電磁砲T to aru toaru kagaku no railgun a certain scientific T season 3 s3 fripSide 八木沼悟志 Yaginuma Satoshi ][ -GH- ][ Volta Amiichii
BeatmapID:2538259
BeatmapSetID:1207984

[Difficulty]
HPDrainRate:8
CircleSize:4
OverallDifficulty:7.5
ApproachRate:0
SliderMultiplier:1.4
SliderTickRate:1

[Events]
//Background and Video events
0,0,"Amii-Lv4.jpg",0,0
//Break Periods
//Storyboard Layer 0 (Background)
//Storyboard Layer 1 (Fail)
//Storyboard Layer 2 (Pass)
//Storyboard Layer 3 (Foreground)
//Storyboard Layer 4 (Overlay)
//Storyboard Sound Samples

[TimingPoints]
3248,402.684563758389,4,2,1,50,1,0
16536,-100,4,2,1,15,0,0
16838,-100,4,2,1,27,0,0
17341,-100,4,2,1,39,0,0
17744,402.684563758389,4,2,1,50,1,1
33851,402.684563758389,4,2,1,50,1,0
62038,-100,4,2,1,15,0,0
62441,-100,4,2,1,37,0,0
62844,402.684563758389,4,2,1,50,1,1
90226,-100,4,2,1,50,0,0
91031,-100,4,2,1,50,0,1
93448,-100,4,2,1,50,0,0

[HitObjects]
64,192,3248,5,2,0:0:0:0:
320,192,3248,1,4,0:0:0:0:
448,192,3248,1,0,0:0:0:0:
192,192,3550,1,0,0:0:0:0:
448,192,3852,1,0,0:0:0:0:
320,192,3919,1,0,0:0:0:0:
192,192,3986,1,0,0:0:0:0:
64,192,4053,1,0,0:0:0:0:
320,192,4355,1,0,0:0:0:0:
64,192,4657,1,0,0:0:0:0:
192,192,4724,1,0,0:0:0:0:
320,192,4791,1,0,0:0:0:0:
448,192,4858,1,0,0:0:0:0:
192,192,5160,1,0,0:0:0:0:
320,192,5462,1,0,0:0:0:0:
64,192,5664,1,0,0:0:0:0:
448,192,6066,1,0,0:0:0:0:
192,192,6268,1,2,0:0:0:0:
320,192,6268,1,0,0:0:0:0:
64,192,6469,1,2,0:0:0:0:
192,192,6469,1,4,0:0:0:0:
448,192,6469,1,0,0:0:0:0:
320,192,6771,1,0,0:0:0:0:
448,192,7073,1,0,0:0:0:0:
320,192,7140,1,0,0:0:0:0:
64,192,7207,1,0,0:0:0:0:
192,192,7274,128,0,7576:0:0:0:0:
448,192,7576,128,0,7878:0:0:0:0:
320,192,7778,1,0,0:0:0:0:
64,192,7878,1,0,0:0:0:0:
192,192,7945,1,0,0:0:0:0:
448,192,8013,1,0,0:0:0:0:
320,192,8080,128,0,8885:0:0:0:0:
64,192,8382,1,0,0:0:0:0:
192,192,8684,1,2,0:0:0:0:
448,192,8684,1,0,0:0:0:0:
64,192,8885,1,10,0:0:0:0:
448,192,8885,1,0,0:0:0:40:Tom3.wav
64,192,9086,1,2,0:0:0:0:
320,192,9086,1,8,0:0:0:0:
192,192,9288,1,10,0:0:0:0:
448,192,9288,1,0,0:0:0:40:Tom3.wav
192,192,9489,1,2,0:0:0:0:
320,192,9489,1,8,0:0:0:0:
64,192,9690,1,2,0:0:0:0:
320,192,9690,1,4,0:0:0:0:
448,192,9690,1,0,0:0:0:0:
192,192,9892,1,0,0:0:0:0:
320,192,9992,1,0,0:0:0:0:
64,192,10093,1,8,0:0:0:0:
448,192,10093,1,0,0:0:0:0:
320,192,10294,1,0,0:0:0:0:
448,192,10362,1,0,0:0:0:0:
192,192,10429,1,0,0:0:0:0:
64,192,10496,1,2,0:0:0:0:
320,192,10496,1,0,0:0:0:0:
448,192,10697,1,0,0:0:0:0:
192,192,10798,1,0,0:0:0:0:
320,192,10899,1,8,0:0:0:0:
448,192,10899,1,0,0:0:0:0:
64,192,11100,1,0,0:0:0:0:
192,192,11167,1,0,0:0:0:0:
448,192,11234,1,0,0:0:0:0:
64,192,11301,1,2,0:0:0:0:
320,192,11301,1,0,0:0:0:0:
192,192,11503,1,0,0:0:0:0:
320,192,11603,1,0,0:0:0:0:
192,192,11704,1,8,0:0:0:0:
448,192,11704,1,0,0:0:0:0:
64,192,11905,1,0,0:0:0:0:
320,192,12107,128,2,12308:0:0:0:0:
448,192,12107,128,0,12308:0:0:0:0:
192,192,12308,1,0,0:0:0:0:
64,192,12509,128,8,12711:0:0:0:0:
320,192,12509,128,0,12711:0:0:0:0:
448,192,12711,1,0,0:0:0:0:
64,192,12912,1,2,0:0:0:0:
192,192,12912,1,0,0:0:0:40:Tom3.wav
320,192,13113,1,8,0:0:0:0:
448,192,13113,1,0,0:0:0:40:Tom3.wav
192,192,13315,1,10,0:0:0:0:
320,192,13315,1,0,0:0:0:40:Tom3.wav
64,192,13516,128,8,13717:0:0:0:0:
448,192,13516,1,0,0:0:0:40:Tom3.wav
192,192,13717,1,10,0:0:0:0:
320,192,13717,1,0,0:0:0:40:Tom3.wav
192,192,13919,1,8,0:0:0:0:
448,192,13919,1,0,0:0:0:40:Tom3.wav
64,192,14120,1,10,0:0:0:0:
320,192,14120,1,0,0:0:0:40:Tom3.wav
64,192,14321,1,8,0:0:0:0:
448,192,14321,128,0,14523:0:0:0:40:Tom3.wav
192,192,14523,1,8,0:0:0:0:
320,192,14523,1,2,0:0:0:0:
64,192,14623,1,8,0:0:0:0:
320,192,14724,1,8,0:0:0:0:
448,192,14825,1,8,0:0:0:0:
192,192,14925,1,10,0:0:0:0:
64,192,15026,1,8,0:0:0:0:
320,192,15127,1,8,0:0:0:0:
448,192,15227,1,8,0:0:0:0:
192,192,15328,1,10,0:0:0:0:
64,192,15429,1,8,0:0:0:0:
320,192,15529,1,8,0:0:0:0:
448,192,15630,1,8,0:0:0:0:
192,192,15731,1,10,0:0:0:0:
64,192,15831,1,8,0:0:0:0:
320,192,15932,1,8,0:0:0:0:
448,192,16033,1,8,0:0:0:0:
64,192,16133,128,0,17643:0:0:0:0:
448,192,16737,1,8,0:0:0:0:
320,192,16838,1,8,0:0:0:0:
192,192,16939,1,8,0:0:0:0:
448,192,17039,1,8,0:0:0:0:
320,192,17140,1,8,0:0:0:0:
192,192,17241,1,8,0:0:0:0:
448,192,17341,1,8,0:0:0:0:
320,192,17442,1,8,0:0:0:0:
192,192,17543,1,8,0:0:0:0:
448,192,17643,1,8,0:0:0:0:
64,192,17744,1,4,0:0:0:0:
192,192,17744,1,2,0:0:0:0:
320,192,17744,128,0,19354:0:0:0:0:
448,192,18046,1,0,0:0:0:0:
64,192,18146,1,8,0:0:0:0:
192,192,18146,1,0,0:0:0:0:
192,192,18348,1,0,0:0:0:0:
64,192,18549,1,2,0:0:0:0:
448,192,18549,1,0,0:0:0:0:
192,192,18650,1,0,0:0:0:0:
64,192,18851,1,0,0:0:0:0:
192,192,18952,1,8,0:0:0:0:
448,192,18952,1,0,0:0:0:0:
448,192,19153,1,0,0:0:0:0:
64,192,19354,1,2,0:0:0:0:
192,192,19354,128,0,20160:0:0:0:0:
448,192,19455,1,0,0:0:0:0:
64,192,19656,1,0,0:0:0:0:
320,192,19757,1,8,0:0:0:0:
448,192,19757,1,0,0:0:0:0:
64,192,19958,1,0,0:0:0:0:
320,192,20059,1,8,0:0:0:0:
64,192,20160,128,2,20965:0:0:0:0:
448,192,20160,1,0,0:0:0:0:
320,192,20260,1,8,0:0:0:0:
192,192,20462,1,0,0:0:0:0:
320,192,20562,1,8,0:0:0:0:
448,192,20562,1,0,0:0:0:0:
192,192,20764,1,0,0:0:0:0:
320,192,20965,1,2,0:0:0:0:
448,192,20965,128,0,21770:0:0:0:0:
192,192,21066,1,0,0:0:0:0:
320,192,21267,1,0,0:0:0:0:
64,192,21368,1,8,0:0:0:0:
192,192,21368,1,0,0:0:0:0:
320,192,21569,1,0,0:0:0:0:
64,192,21770,128,2,21972:0:0:0:0:
192,192,21770,1,0,0:0:0:0:
320,192,21871,1,0,0:0:0:0:
448,192,21972,128,0,22173:0:0:0:0:
320,192,22072,1,0,0:0:0:0:
64,192,22173,1,8,0:0:0:0:
192,192,22173,128,0,22374:0:0:0:0:
320,192,22374,128,0,22576:0:0:0:0:
64,192,22576,1,2,0:0:0:0:
448,192,22576,128,0,23381:0:0:0:0:
192,192,22676,1,0,0:0:0:0:
320,192,22878,1,0,0:0:0:0:
64,192,22978,1,8,0:0:0:0:
192,192,22978,1,0,0:0:0:0:
320,192,23180,1,0,0:0:0:0:
192,192,23280,1,8,0:0:0:0:
64,192,23381,128,2,23784:0:0:0:0:
320,192,23381,1,0,0:0:0:0:
192,192,23482,1,8,0:0:0:0:
320,192,23683,1,0,0:0:0:0:
192,192,23784,1,8,0:0:0:0:
448,192,23784,128,0,24186:0:0:0:0:
64,192,23985,1,8,0:0:0:0:
320,192,24086,1,8,0:0:0:0:
64,192,24186,1,2,0:0:0:0:
192,192,24186,1,4,0:0:0:0:
320,192,24388,1,2,0:0:0:0:
192,192,24488,1,2,0:0:0:0:
64,192,24589,1,8,0:0:0:0:
448,192,24589,1,4,0:0:0:0:
320,192,24790,1,2,0:0:0:0:
192,192,24992,1,2,0:0:0:0:
448,192,24992,1,0,0:0:0:0:
64,192,25092,1,0,0:0:0:0:
192,192,25294,1,0,0:0:0:0:
320,192,25395,1,8,0:0:0:0:
448,192,25395,1,0,0:0:0:0:
64,192,25596,1,0,0:0:0:0:
192,192,25797,1,2,0:0:0:0:
320,192,25797,1,0,0:0:0:0:
448,192,25898,1,0,0:0:0:0:
320,192,26099,1,0,0:0:0:0:
64,192,26200,1,8,0:0:0:0:
192,192,26200,1,0,0:0:0:0:
320,192,26401,1,0,0:0:0:0:
64,192,26603,1,2,0:0:0:0:
448,192,26603,1,0,0:0:0:0:
320,192,26703,1,0,0:0:0:0:
64,192,26905,1,0,0:0:0:0:
192,192,27005,1,8,0:0:0:0:
320,192,27005,1,0,0:0:0:0:
448,192,27106,1,8,0:0:0:0:
64,192,27207,1,8,0:0:0:0:
320,192,27307,1,8,0:0:0:0:
64,192,27408,1,2,0:0:0:0:
192,192,27408,1,4,0:0:0:0:
448,192,27408,1,0,0:0:0:0:
64,192,27609,1,0,0:0:0:0:
320,192,27609,1,0,0:0:0:0:
192,192,27811,1,2,0:0:0:0:
448,192,27811,1,0,0:0:0:40:Tom3.wav
320,192,28012,1,0,0:0:0:0:
448,192,28012,1,0,0:0:0:0:
64,192,28213,1,2,0:0:0:0:
192,192,28213,1,0,0:0:0:40:Tom3.wav
64,192,28415,1,8,0:0:0:0:
320,192,28415,1,0,0:0:0:0:
192,192,28616,1,10,0:0:0:0:
320,192,28616,1,0,0:0:0:40:Tom3.wav
192,192,28817,1,8,0:0:0:0:
448,192,28817,1,0,0:0:0:0:
64,192,29019,1,2,0:0:0:0:
448,192,29019,1,8,0:0:0:0:
320,192,29119,1,8,0:0:0:0:
64,192,29220,1,8,0:0:0:0:
192,192,29321,1,8,0:0:0:0:
448,192,29421,1,10,0:0:0:0:
320,192,29522,1,8,0:0:0:0:
64,192,29623,1,8,0:0:0:0:
192,192,29723,1,8,0:0:0:0:
448,192,29824,1,10,0:0:0:0:
320,192,29925,1,8,0:0:0:0:
64,192,30025,1,8,0:0:0:0:
192,192,30126,1,8,0:0:0:0:
448,192,30227,1,10,0:0:0:0:
320,192,30327,1,8,0:0:0:0:
64,192,30428,1,8,0:0:0:0:
192,192,30529,1,8,0:0:0:0:
320,192,30629,1,8,0:0:0:0:
448,192,30629,1,0,0:0:0:40:Tom3.wav
64,192,30931,1,8,0:0:0:0:
320,192,30931,1,0,0:0:0:40:Tom3.wav
192,192,31233,1,8,0:0:0:0:
448,192,31233,1,0,0:0:0:40:Tom3.wav
64,192,31435,1,8,0:0:0:0:
192,192,31435,1,0,0:0:0:40:Tom3.wav
64,192,31737,1,8,0:0:0:0:
448,192,31737,1,0,0:0:0:40:Tom3.wav
192,192,32039,1,8,0:0:0:0:
320,192,32039,1,0,0:0:0:40:Tom3.wav
320,192,32240,1,8,0:0:0:0:
448,192,32240,1,4,0:0:0:0:
64,192,32441,1,2,0:0:0:0:
192,192,32542,1,8,0:0:0:0:
448,192,32542,1,0,0:0:0:0:
320,192,32743,1,2,0:0:0:0:
64,192,32844,1,8,0:0:0:0:
192,192,32844,1,0,0:0:0:0:
448,192,32945,1,2,0:0:0:0:
64,192,33046,1,8,0:0:0:0:
64,192,33146,1,8,0:0:0:0:
320,192,33247,1,0,0:0:0:40:Tom1.wav
192,192,33348,1,0,0:0:0:40:Tom2.wav
64,192,33448,1,12,0:0:0:0:
448,192,33448,1,0,0:0:0:40:Tom3.wav
448,192,33650,1,0,0:0:0:0:
64,192,33851,1,2,0:0:0:0:
192,192,33851,1,4,0:0:0:0:
320,192,33851,1,0,0:0:0:0:
64,192,34253,1,2,0:0:0:0:
448,192,34253,1,0,0:0:0:0:
192,192,34455,1,0,0:0:0:0:
320,192,34656,1,2,0:0:0:0:
448,192,34656,1,0,0:0:0:0:
192,192,34857,1,0,0:0:0:0:
64,192,35059,1,2,0:0:0:0:
320,192,35059,1,0,0:0:0:0:
448,192,35260,1,0,0:0:0:0:
64,192,35461,1,2,0:0:0:0:
192,192,35461,1,0,0:0:0:0:
192,192,35763,1,0,0:0:0:0:
64,192,35864,1,2,0:0:0:0:
448,192,35864,1,0,0:0:0:0:
320,192,36065,1,0,0:0:0:0:
64,192,36267,1,2,0:0:0:0:
192,192,36267,1,0,0:0:0:0:
320,192,36468,1,0,0:0:0:0:
64,192,36669,1,2,0:0:0:0:
448,192,36669,1,0,0:0:0:0:
192,192,36871,1,0,0:0:0:0:
320,192,37072,1,2,0:0:0:0:
448,192,37072,1,0,0:0:0:0:
192,192,37173,1,0,0:0:0:0:
448,192,37273,1,0,0:0:0:0:
64,192,37475,1,2,0:0:0:0:
448,192,37475,1,0,0:0:0:0:
192,192,37575,1,0,0:0:0:0:
320,192,37676,1,0,0:0:0:0:
64,192,37777,1,0,0:0:0:0:
192,192,37877,1,2,0:0:0:0:
320,192,37877,1,0,0:0:0:0:
448,192,38079,1,0,0:0:0:0:
320,192,38179,1,0,0:0:0:0:
64,192,38280,1,2,0:0:0:0:
192,192,38280,1,0,0:0:0:0:
320,192,38381,1,0,0:0:0:0:
192,192,38481,1,0,0:0:0:0:
64,192,38582,1,0,0:0:0:0:
320,192,38683,1,2,0:0:0:0:
448,192,38683,1,0,0:0:0:0:
192,192,38884,1,0,0:0:0:0:
320,192,38985,1,0,0:0:0:0:
64,192,39085,1,2,0:0:0:0:
448,192,39085,1,0,0:0:0:0:
320,192,39287,1,0,0:0:0:0:
64,192,39387,1,0,0:0:0:0:
192,192,39488,1,2,0:0:0:0:
448,192,39488,1,0,0:0:0:0:
320,192,39689,1,2,0:0:0:0:
192,192,39790,1,2,0:0:0:0:
64,192,39891,1,2,0:0:0:0:
448,192,39891,128,4,40293:0:0:0:0:
192,192,40092,128,0,40293:0:0:0:0:
64,192,40293,1,4,0:0:0:0:
320,192,40293,1,2,0:0:0:0:
64,192,40495,1,2,0:0:0:0:
192,192,40696,1,8,0:0:0:0:
448,192,40696,1,0,0:0:0:0:
320,192,40897,1,0,0:0:0:0:
64,192,40998,1,8,0:0:0:0:
448,192,40998,1,0,0:0:0:0:
192,192,41099,1,2,0:0:0:0:
192,192,41300,1,2,0:0:0:0:
320,192,41502,1,8,0:0:0:0:
448,192,41502,1,0,0:0:0:0:
64,192,41703,1,0,0:0:0:0:
192,192,41904,1,2,0:0:0:0:
320,192,41904,1,0,0:0:0:0:
320,192,42106,1,2,0:0:0:0:
64,192,42307,1,8,0:0:0:0:
448,192,42307,1,0,0:0:0:0:
192,192,42508,1,0,0:0:0:0:
320,192,42609,1,8,0:0:0:0:
448,192,42609,1,0,0:0:0:0:
64,192,42710,1,2,0:0:0:0:
64,192,42911,1,2,0:0:0:0:
192,192,43112,1,8,0:0:0:0:
448,192,43112,1,0,0:0:0:0:
320,192,43314,1,8,0:0:0:0:
64,192,43414,1,8,0:0:0:0:
192,192,43515,1,2,0:0:0:0:
320,192,43515,1,4,0:0:0:0:
448,192,43515,1,0,0:0:0:0:
448,192,43716,1,2,0:0:0:0:
64,192,43918,1,8,0:0:0:0:
192,192,43918,1,0,0:0:0:0:
320,192,44119,1,0,0:0:0:0:
64,192,44320,1,2,0:0:0:0:
192,192,44320,1,4,0:0:0:0:
448,192,44320,1,0,0:0:0:0:
192,192,44522,1,2,0:0:0:0:
320,192,44723,1,8,0:0:0:0:
448,192,44723,1,0,0:0:0:0:
64,192,44924,1,0,0:0:0:0:
192,192,45126,1,8,0:0:0:0:
448,192,45126,1,0,0:0:0:0:
64,192,45327,1,0,0:0:0:0:
192,192,45428,1,2,0:0:0:0:
320,192,45528,1,8,0:0:0:0:
448,192,45528,1,0,0:0:0:0:
192,192,45730,1,2,0:0:0:0:
64,192,45931,1,8,0:0:0:0:
448,192,45931,1,0,0:0:0:0:
320,192,46132,1,8,0:0:0:0:
192,192,46233,1,8,0:0:0:0:
64,192,46334,1,2,0:0:0:0:
448,192,46334,1,0,0:0:0:40:Tom1.wav
320,192,46434,1,0,0:0:0:40:Tom2.wav
192,192,46535,1,0,0:0:0:40:Tom3.wav
64,192,46636,1,0,0:0:0:40:Tom3.wav
192,192,46736,1,4,0:0:0:0:
320,192,46736,1,2,0:0:0:0:
448,192,46736,1,0,0:0:0:0:
320,192,46938,128,2,47139:0:0:0:0:
64,192,47139,128,8,47340:0:0:0:0:
448,192,47139,1,0,0:0:0:0:
192,192,47340,1,0,0:0:0:0:
320,192,47441,1,8,0:0:0:0:
448,192,47441,1,0,0:0:0:0:
192,192,47542,128,2,47743:0:0:0:0:
448,192,47743,128,2,47944:0:0:0:0:
64,192,47944,1,8,0:0:0:0:
320,192,47944,128,0,48146:0:0:0:0:
192,192,48146,1,0,0:0:0:0:
64,192,48347,1,2,0:0:0:0:
448,192,48347,1,0,0:0:0:0:
448,192,48548,128,2,48750:0:0:0:0:
64,192,48750,128,8,48951:0:0:0:0:
192,192,48750,1,0,0:0:0:0:
320,192,48951,1,0,0:0:0:0:
192,192,49052,1,8,0:0:0:0:
448,192,49153,1,2,0:0:0:0:
64,192,49253,1,8,0:0:0:0:
320,192,49354,128,2,49555:0:0:0:0:
64,192,49555,128,8,49757:0:0:0:0:
192,192,49555,1,0,0:0:0:0:
448,192,49757,128,0,49958:0:0:0:0:
192,192,49958,1,2,0:0:0:0:
320,192,49958,1,0,0:0:0:0:
192,192,50159,1,2,0:0:0:0:
64,192,50361,128,8,50562:0:0:0:0:
448,192,50361,1,0,0:0:0:0:
320,192,50562,1,0,0:0:0:0:
192,192,50663,1,8,0:0:0:0:
320,192,50763,1,2,0:0:0:0:
448,192,50763,1,0,0:0:0:0:
448,192,50965,128,2,51166:0:0:0:0:
64,192,51166,128,8,51367:0:0:0:0:
192,192,51166,1,0,0:0:0:0:
320,192,51367,128,0,51569:0:0:0:0:
192,192,51569,128,2,51770:0:0:0:0:
448,192,51569,1,0,0:0:0:0:
64,192,51770,128,2,51971:0:0:0:0:
320,192,51971,1,8,0:0:0:0:
448,192,51971,128,0,52173:0:0:0:0:
64,192,52173,1,0,0:0:0:0:
320,192,52273,1,8,0:0:0:0:
192,192,52374,1,2,0:0:0:0:
448,192,52475,1,8,0:0:0:0:
320,192,52575,128,2,52777:0:0:0:0:
64,192,52777,1,8,0:0:0:0:
192,192,52777,1,0,0:0:0:0:
448,192,52978,1,8,0:0:0:0:
64,192,53079,1,8,0:0:0:0:
192,192,53179,1,2,0:0:0:0:
320,192,53179,1,4,0:0:0:0:
448,192,53179,1,0,0:0:0:0:
64,192,53381,1,0,0:0:0:0:
320,192,53481,1,2,0:0:0:0:
192,192,53582,1,8,0:0:0:0:
448,192,53582,1,0,0:0:0:0:
64,192,53783,1,2,0:0:0:0:
320,192,53985,1,0,0:0:0:0:
192,192,54186,1,2,0:0:0:0:
320,192,54287,1,0,0:0:0:0:
64,192,54387,1,8,0:0:0:0:
448,192,54387,1,0,0:0:0:0:
192,192,54589,1,2,0:0:0:0:
192,192,54790,1,2,0:0:0:0:
320,192,54790,1,0,0:0:0:0:
448,192,54991,1,0,0:0:0:0:
320,192,55092,1,2,0:0:0:0:
64,192,55193,1,8,0:0:0:0:
192,192,55193,1,0,0:0:0:0:
320,192,55394,1,2,0:0:0:0:
64,192,55595,1,0,0:0:0:0:
448,192,55797,1,2,0:0:0:0:
192,192,55998,1,8,0:0:0:0:
320,192,55998,1,0,0:0:0:0:
64,192,56199,1,8,0:0:0:0:
320,192,56300,1,8,0:0:0:0:
64,192,56401,1,2,0:0:0:0:
192,192,56401,1,4,0:0:0:0:
448,192,56401,1,0,0:0:0:0:
192,192,56602,1,0,0:0:0:0:
320,192,56804,1,8,0:0:0:0:
448,192,56804,1,0,0:0:0:40:Tom3.wav
320,192,57005,1,2,0:0:0:0:
448,192,57005,1,0,0:0:0:0:
64,192,57206,1,8,0:0:0:0:
192,192,57206,1,0,0:0:0:40:Tom3.wav
64,192,57408,1,2,0:0:0:0:
192,192,57408,1,0,0:0:0:40:Tom3.wav
192,192,57609,1,8,0:0:0:0:
448,192,57609,1,0,0:0:0:40:Tom3.wav
192,192,57810,1,2,0:0:0:0:
448,192,57810,1,0,0:0:0:40:Tom3.wav
64,192,58012,1,2,0:0:0:0:
320,192,58012,1,4,0:0:0:0:
448,192,58012,1,0,0:0:0:0:
64,192,58213,1,0,0:0:0:0:
192,192,58414,1,10,0:0:0:0:
448,192,58414,1,0,0:0:0:40:Tom3.wav
192,192,58616,1,10,0:0:0:0:
448,192,58616,1,0,0:0:0:40:Tom3.wav
64,192,58817,1,10,0:0:0:0:
320,192,58817,1,0,0:0:0:40:Tom3.wav
64,192,59018,1,10,0:0:0:0:
320,192,59018,1,0,0:0:0:40:Tom3.wav
64,192,59220,1,10,0:0:0:0:
192,192,59220,1,0,0:0:0:40:Tom3.wav
64,192,59421,1,10,0:0:0:0:
192,192,59421,1,0,0:0:0:40:Tom3.wav
192,192,59622,1,4,0:0:0:0:
320,192,59622,1,2,0:0:0:0:
448,192,59622,1,0,0:0:0:0:
64,192,59824,1,8,0:0:0:0:
192,192,59924,1,8,0:0:0:0:
448,192,60025,1,0,0:0:0:40:Tom1.wav
320,192,60126,1,0,0:0:0:40:Tom2.wav
64,192,60226,1,4,0:0:0:0:
192,192,60226,1,0,0:0:0:40:Tom3.wav
448,192,60226,1,0,0:0:0:0:
320,192,60428,1,0,0:0:0:40:Tom2.wav
448,192,60528,1,0,0:0:0:40:Tom2.wav
192,192,60629,1,0,0:0:0:40:Tom3.wav
64,192,60730,1,0,0:0:0:40:Tom3.wav
192,192,60830,1,4,0:0:0:0:
320,192,60830,1,0,0:0:0:40:Tom3.wav
448,192,60830,1,0,0:0:0:0:
64,192,61032,1,8,0:0:0:0:
320,192,61132,1,8,0:0:0:0:
64,192,61233,1,10,0:0:0:0:
448,192,61233,1,0,0:0:0:40:Tom3.wav
64,192,61535,1,10,0:0:0:0:
448,192,61535,1,0,0:0:0:40:Tom3.wav
64,192,61837,1,10,0:0:0:0:
448,192,61837,1,0,0:0:0:40:Tom3.wav
192,192,62038,1,0,0:0:0:0:
320,192,62139,1,0,0:0:0:0:
448,192,62240,1,8,0:0:0:0:
64,192,62340,1,8,0:0:0:0:
320,192,62441,1,8,0:0:0:0:
192,192,62542,1,8,0:0:0:0:
64,192,62642,1,8,0:0:0:0:
448,192,62743,1,8,0:0:0:0:
64,192,62844,128,4,64454:0:0:0:0:
192,192,62844,1,2,0:0:0:0:
320,192,62844,1,0,0:0:0:0:
448,192,63146,1,0,0:0:0:0:
192,192,63246,1,8,0:0:0:0:
320,192,63246,1,0,0:0:0:0:
448,192,63448,1,0,0:0:0:0:
320,192,63649,1,2,0:0:0:0:
448,192,63649,1,0,0:0:0:0:
192,192,63750,1,0,0:0:0:0:
320,192,63951,1,0,0:0:0:0:
192,192,64052,1,8,0:0:0:0:
448,192,64052,1,0,0:0:0:0:
320,192,64253,1,0,0:0:0:0:
192,192,64454,1,2,0:0:0:0:
448,192,64454,128,0,65260:0:0:0:0:
320,192,64555,1,0,0:0:0:0:
64,192,64756,1,0,0:0:0:0:
192,192,64857,1,8,0:0:0:0:
320,192,64857,1,0,0:0:0:0:
64,192,65058,1,0,0:0:0:0:
192,192,65159,1,8,0:0:0:0:
64,192,65260,1,2,0:0:0:0:
320,192,65260,128,0,66065:0:0:0:0:
192,192,65360,1,8,0:0:0:0:
448,192,65562,1,0,0:0:0:0:
64,192,65662,1,8,0:0:0:0:
192,192,65662,1,0,0:0:0:0:
448,192,65864,1,0,0:0:0:0:
64,192,66065,128,2,66870:0:0:0:0:
192,192,66065,1,0,0:0:0:0:
448,192,66166,1,0,0:0:0:0:
320,192,66367,1,0,0:0:0:0:
192,192,66468,1,8,0:0:0:0:
448,192,66468,1,0,0:0:0:0:
320,192,66669,1,0,0:0:0:0:
192,192,66870,1,2,0:0:0:0:
448,192,66870,128,0,67072:0:0:0:0:
320,192,66971,1,0,0:0:0:0:
192,192,67072,128,0,67273:0:0:0:0:
64,192,67172,1,0,0:0:0:0:
320,192,67273,128,8,67474:0:0:0:0:
448,192,67273,1,0,0:0:0:0:
64,192,67474,128,0,67676:0:0:0:0:
192,192,67676,1,2,0:0:0:0:
320,192,67676,128,0,68481:0:0:0:0:
448,192,67776,1,0,0:0:0:0:
64,192,67978,1,0,0:0:0:0:
192,192,68078,1,8,0:0:0:0:
448,192,68078,1,0,0:0:0:0:
64,192,68280,1,0,0:0:0:0:
192,192,68380,1,8,0:0:0:0:
64,192,68481,1,2,0:0:0:0:
448,192,68481,128,0,68884:0:0:0:0:
192,192,68582,1,8,0:0:0:0:
320,192,68783,1,0,0:0:0:0:
64,192,68884,128,8,69286:0:0:0:0:
192,192,68884,1,0,0:0:0:0:
320,192,69085,1,8,0:0:0:0:
192,192,69186,1,8,0:0:0:0:
320,192,69286,128,4,70897:0:0:0:0:
448,192,69286,1,2,0:0:0:0:
192,192,69588,1,0,0:0:0:0:
64,192,69689,1,8,0:0:0:0:
448,192,69689,1,4,0:0:0:0:
192,192,69890,1,0,0:0:0:0:
64,192,70092,1,2,0:0:0:0:
448,192,70092,1,0,0:0:0:0:
192,192,70192,1,0,0:0:0:0:
448,192,70394,1,0,0:0:0:0:
64,192,70495,1,8,0:0:0:0:
192,192,70495,1,0,0:0:0:0:
448,192,70696,1,0,0:0:0:0:
64,192,70897,1,2,0:0:0:0:
192,192,70897,128,0,71703:0:0:0:0:
448,192,70998,1,0,0:0:0:0:
320,192,71199,1,0,0:0:0:0:
64,192,71300,1,8,0:0:0:0:
448,192,71300,1,0,0:0:0:0:
320,192,71501,1,0,0:0:0:0:
64,192,71703,128,2,72508:0:0:0:0:
448,192,71703,1,0,0:0:0:0:
320,192,71803,1,8,0:0:0:0:
192,192,72005,1,0,0:0:0:0:
320,192,72105,1,8,0:0:0:0:
448,192,72105,1,0,0:0:0:0:
192,192,72307,1,0,0:0:0:0:
320,192,72508,128,2,73313:0:0:0:0:
448,192,72508,1,0,0:0:0:0:
192,192,72609,1,0,0:0:0:0:
64,192,72810,1,0,0:0:0:0:
192,192,72911,1,8,0:0:0:0:
448,192,72911,1,0,0:0:0:0:
64,192,73112,1,0,0:0:0:0:
192,192,73313,128,2,74119:0:0:0:0:
448,192,73313,1,0,0:0:0:0:
64,192,73515,1,0,0:0:0:0:
320,192,73716,1,8,0:0:0:0:
448,192,73716,1,0,0:0:0:0:
64,192,73817,1,0,0:0:0:0:
448,192,74018,1,0,0:0:0:0:
64,192,74119,1,0,0:0:0:40:Tom3.wav
320,192,74119,1,0,0:0:0:0:
192,192,74421,1,0,0:0:0:40:Tom3.wav
448,192,74421,1,0,0:0:0:0:
64,192,74521,1,2,0:0:0:0:
320,192,74723,1,0,0:0:0:40:Tom3.wav
448,192,74723,1,0,0:0:0:0:
64,192,74924,1,8,0:0:0:0:
192,192,74924,1,0,0:0:0:0:
320,192,75125,1,8,0:0:0:0:
192,192,75226,1,8,0:0:0:0:
320,192,75327,1,0,0:0:0:40:Tom1.wav
448,192,75327,1,0,0:0:0:0:
64,192,75427,1,0,0:0:0:40:Tom2.wav
448,192,75528,1,0,0:0:0:40:Tom3.wav
192,192,75629,1,0,0:0:0:40:Tom3.wav
64,192,75729,1,4,0:0:0:0:
320,192,75729,1,2,0:0:0:0:
448,192,75729,128,0,77340:0:0:0:0:
192,192,76031,1,0,0:0:0:0:
64,192,76132,1,8,0:0:0:0:
320,192,76132,1,0,0:0:0:0:
192,192,76333,1,0,0:0:0:0:
64,192,76535,1,2,0:0:0:0:
320,192,76535,1,0,0:0:0:0:
192,192,76635,1,0,0:0:0:0:
64,192,76837,1,0,0:0:0:0:
192,192,76937,1,8,0:0:0:0:
320,192,76937,1,0,0:0:0:0:
64,192,77139,1,0,0:0:0:0:
192,192,77340,1,2,0:0:0:0:
320,192,77340,128,0,78146:0:0:0:0:
64,192,77441,1,0,0:0:0:0:
448,192,77642,1,0,0:0:0:0:
64,192,77743,1,8,0:0:0:0:
192,192,77743,1,0,0:0:0:0:
448,192,77944,1,0,0:0:0:0:
64,192,78045,1,8,0:0:0:0:
192,192,78146,128,2,78951:0:0:0:0:
448,192,78146,1,0,0:0:0:0:
64,192,78246,1,8,0:0:0:0:
320,192,78448,1,0,0:0:0:0:
64,192,78548,1,8,0:0:0:0:
448,192,78548,1,0,0:0:0:0:
320,192,78750,1,0,0:0:0:0:
64,192,78951,128,2,79756:0:0:0:0:
448,192,78951,1,0,0:0:0:0:
320,192,79052,1,0,0:0:0:0:
448,192,79253,1,0,0:0:0:0:
192,192,79354,1,8,0:0:0:0:
320,192,79354,1,0,0:0:0:0:
448,192,79555,1,0,0:0:0:0:
192,192,79756,1,2,0:0:0:0:
320,192,79756,128,0,79958:0:0:0:0:
448,192,79857,1,0,0:0:0:0:
192,192,79958,128,0,80159:0:0:0:0:
64,192,80058,1,0,0:0:0:0:
320,192,80159,1,8,0:0:0:0:
448,192,80159,128,0,80360:0:0:0:0:
64,192,80360,128,0,80562:0:0:0:0:
192,192,80562,1,2,0:0:0:0:
320,192,80562,128,0,81367:0:0:0:0:
448,192,80662,1,0,0:0:0:0:
64,192,80864,1,0,0:0:0:0:
192,192,80964,1,8,0:0:0:0:
448,192,80964,1,0,0:0:0:0:
64,192,81166,1,0,0:0:0:0:
448,192,81266,1,8,0:0:0:0:
64,192,81367,1,2,0:0:0:0:
192,192,81367,128,0,81770:0:0:0:0:
448,192,81468,1,8,0:0:0:0:
64,192,81669,1,0,0:0:0:0:
320,192,81770,1,8,0:0:0:0:
448,192,81770,1,2,0:0:0:0:
64,192,81870,1,8,0:0:0:0:
448,192,81971,1,8,0:0:0:0:
320,192,82072,1,8,0:0:0:0:
64,192,82172,1,4,0:0:0:0:
192,192,82172,1,2,0:0:0:0:
192,192,82374,1,2,0:0:0:0:
320,192,82374,1,0,0:0:0:0:
64,192,82575,1,8,0:0:0:0:
448,192,82575,1,0,0:0:0:0:
320,192,82776,1,0,0:0:0:0:
64,192,82877,1,8,0:0:0:0:
192,192,82877,1,0,0:0:0:0:
448,192,82978,1,2,0:0:0:0:
320,192,83179,1,2,0:0:0:0:
448,192,83179,1,0,0:0:0:0:
64,192,83380,1,8,0:0:0:0:
192,192,83380,1,0,0:0:0:0:
320,192,83582,1,0,0:0:0:0:
64,192,83783,1,2,0:0:0:0:
192,192,83783,1,0,0:0:0:0:
448,192,83783,1,4,0:0:0:0:
192,192,83984,1,2,0:0:0:0:
320,192,83984,1,0,0:0:0:0:
64,192,84186,1,8,0:0:0:0:
448,192,84186,1,0,0:0:0:0:
192,192,84387,1,0,0:0:0:0:
320,192,84488,1,8,0:0:0:0:
448,192,84488,1,0,0:0:0:0:
64,192,84588,1,2,0:0:0:0:
64,192,84790,1,2,0:0:0:0:
192,192,84790,1,0,0:0:0:0:
320,192,84991,1,8,0:0:0:0:
448,192,84991,1,0,0:0:0:0:
448,192,85192,1,8,0:0:0:0:
192,192,85293,1,8,0:0:0:0:
64,192,85394,1,2,0:0:0:0:
320,192,85394,1,4,0:0:0:0:
448,192,85394,1,0,0:0:0:0:
192,192,85595,1,2,0:0:0:0:
320,192,85595,1,0,0:0:0:0:
64,192,85797,1,2,0:0:0:0:
448,192,85797,1,0,0:0:0:0:
64,192,85998,1,8,0:0:0:0:
192,192,85998,1,4,0:0:0:0:
320,192,85998,1,0,0:0:0:0:
320,192,86199,1,2,0:0:0:0:
448,192,86199,1,0,0:0:0:0:
64,192,86401,1,2,0:0:0:0:
192,192,86401,1,0,0:0:0:0:
192,192,86602,1,8,0:0:0:0:
320,192,86602,1,4,0:0:0:0:
448,192,86602,1,0,0:0:0:0:
64,192,86803,1,2,0:0:0:0:
448,192,86803,1,0,0:0:0:0:
64,192,87005,1,8,0:0:0:0:
192,192,87005,1,4,0:0:0:0:
320,192,87005,1,0,0:0:0:0:
192,192,87206,1,2,0:0:0:0:
448,192,87206,1,0,0:0:0:0:
64,192,87407,1,2,0:0:0:0:
320,192,87407,1,0,0:0:0:0:
192,192,87609,1,8,0:0:0:0:
320,192,87609,1,4,0:0:0:0:
448,192,87609,1,0,0:0:0:0:
64,192,87810,1,2,0:0:0:0:
448,192,87810,1,0,0:0:0:0:
192,192,88011,1,2,0:0:0:0:
320,192,88011,1,0,0:0:0:0:
64,192,88213,1,8,0:0:0:0:
192,192,88213,1,4,0:0:0:0:
448,192,88213,1,0,0:0:0:0:
64,192,88414,1,2,0:0:0:0:
320,192,88414,1,0,0:0:0:0:
192,192,88615,1,8,0:0:0:0:
448,192,88615,1,0,0:0:0:40:Tom3.wav
64,192,88917,1,8,0:0:0:0:
320,192,88917,1,0,0:0:0:40:Tom3.wav
64,192,89219,1,8,0:0:0:0:
192,192,89219,1,0,0:0:0:40:Tom3.wav
320,192,89421,1,8,0:0:0:0:
448,192,89421,1,0,0:0:0:40:Tom3.wav
64,192,89723,1,8,0:0:0:0:
448,192,89723,1,0,0:0:0:40:Tom3.wav
64,192,90025,1,8,0:0:0:0:
320,192,90025,1,0,0:0:0:40:Tom3.wav
192,192,90226,1,0,0:0:0:0:
320,192,90327,1,0,0:0:0:0:
64,192,90427,1,0,0:0:0:0:
192,192,90528,1,0,0:0:0:0:
320,192,90629,1,0,0:0:0:0:
448,192,90729,1,0,0:0:0:0:
64,192,90830,1,0,0:0:0:0:
192,192,90931,1,0,0:0:0:0:
64,192,91031,128,2,92843:0:0:0:0:
320,192,91031,1,4,0:0:0:0:
448,192,91031,128,8,92843:0:0:0:0:
320,192,92843,1,0,0:0:0:0:
192,192,92944,1,0,0:0:0:0:
64,192,93045,1,0,0:0:0:0:
448,192,93146,1,0,0:0:0:0:
320,192,93246,1,0,0:0:0:0:
192,192,93347,1,0,0:0:0:0:
