osu file format v14

[General]
AudioFilename: audio.mp3
AudioLeadIn: 0
PreviewTime: 17039
Countdown: 0
SampleSet: Soft
StackLeniency: 0.7
Mode: 3
LetterboxInBreaks: 0
SpecialStyle: 0
WidescreenStoryboard: 0

[Editor]
Bookmarks: 3247,9690,17744,33851,40293,46736,53179,62844,75729,93448
DistanceSpacing: 0.9
BeatDivisor: 4
GridSize: 32
TimelineZoom: 1.599999

[Metadata]
Title:final phase
TitleUnicode:final phase
Artist:Poppin'Party
ArtistUnicode:Poppin'Party
Creator:Roger
Version:Amii's Easy
Source:バンドリ!ガールズバンドパーティ!
Tags:cover opening op video game version anime japanese pop jpop j-pop bandori! bang dream! girls band party! garupa ガルパ popipa ポピパ ポッピン パーティー toyama kasumi 戸山香澄 terakawa aimi 寺川愛美 hanazono tae 花園たえ otsuka sae 大塚紗英 ushigome rimi 牛込りみ nishimoto rimi 西本りみ yamabuki saya saaya 山吹沙綾 ohashi ayaka 大橋彩香 ichigaya arisa 市ヶ谷有咲 itou ayasa 伊藤彩沙 kasai yuta 笠井雄太 Elements Garden とある科学の超電磁砲T to aru toaru kagaku no railgun a certain scientific T season 3 s3 fripSide 八木沼悟志 Yaginuma Satoshi ][ -GH- ][ Volta Amiichii
BeatmapID:2538258
BeatmapSetID:1207984

[Difficulty]
HPDrainRate:7
CircleSize:4
OverallDifficulty:7
ApproachRate:0
SliderMultiplier:1.4
SliderTickRate:1

[Events]
//Background and Video events
0,0,"Amii-Lv1.jpg",0,0
//Break Periods
//Storyboard Layer 0 (Background)
//Storyboard Layer 1 (Fail)
//Storyboard Layer 2 (Pass)
//Storyboard Layer 3 (Foreground)
//Storyboard Layer 4 (Overlay)
//Storyboard Sound Samples

[TimingPoints]
3248,402.684563758389,4,2,1,50,1,0
16536,-100,4,2,1,15,0,0
16838,-100,4,2,1,27,0,0
17341,-100,4,2,1,39,0,0
17744,402.684563758389,4,2,1,50,1,1
33851,402.684563758389,4,2,1,50,1,0
62038,-100,4,2,1,15,0,0
62441,-100,4,2,1,37,0,0
62844,402.684563758389,4,2,1,50,1,1
90226,-100,4,2,1,50,0,0
91031,-100,4,2,1,50,0,1
93448,-100,4,2,1,50,0,0

[HitObjects]
64,192,3248,5,2,0:0:0:0:
448,192,3248,1,4,0:0:0:0:
320,192,3550,1,0,0:0:0:0:
192,192,3852,1,0,0:0:0:0:
448,192,4053,1,0,0:0:0:0:
64,192,4355,1,0,0:0:0:0:
320,192,4657,1,0,0:0:0:0:
192,192,4858,1,0,0:0:0:0:
448,192,5160,1,0,0:0:0:0:
64,192,5462,1,0,0:0:0:0:
320,192,5664,1,0,0:0:0:0:
192,192,6066,1,0,0:0:0:0:
320,192,6268,1,2,0:0:0:0:
64,192,6469,1,2,0:0:0:0:
448,192,6469,1,4,0:0:0:0:
192,192,6771,1,0,0:0:0:0:
320,192,7073,1,0,0:0:0:0:
64,192,7274,1,0,0:0:0:0:
448,192,7576,1,0,0:0:0:0:
192,192,7878,1,0,0:0:0:0:
320,192,8080,1,0,0:0:0:0:
64,192,8382,1,0,0:0:0:0:
448,192,8684,1,2,0:0:0:0:
192,192,8885,1,10,0:0:0:0:
320,192,9288,1,10,0:0:0:0:
64,192,9690,1,2,0:0:0:0:
448,192,9690,1,4,0:0:0:0:
192,192,10093,1,8,0:0:0:0:
320,192,10496,1,2,0:0:0:0:
64,192,10899,1,8,0:0:0:0:
448,192,11301,1,2,0:0:0:0:
192,192,11704,1,8,0:0:0:0:
320,192,12107,128,2,12509:0:0:0:0:
64,192,12509,128,8,12912:0:0:0:0:
320,192,12912,1,2,0:0:0:0:
448,192,12912,1,0,0:0:0:40:Tom3.wav
64,192,13315,1,10,0:0:0:0:
192,192,13315,1,0,0:0:0:40:Tom3.wav
192,192,13717,1,10,0:0:0:0:
320,192,13717,1,0,0:0:0:40:Tom3.wav
320,192,14120,1,10,0:0:0:0:
448,192,14120,1,0,0:0:0:40:Tom3.wav
64,192,14523,128,8,14925:0:0:0:0:
192,192,14523,1,2,0:0:0:0:
320,192,14925,128,10,15328:0:0:0:0:
192,192,15328,128,10,15731:0:0:0:0:
448,192,15731,128,10,16133:0:0:0:0:
64,192,16133,128,0,17744:0:0:0:0:
320,192,16939,1,8,0:0:0:0:
320,192,17341,1,8,0:0:0:0:
192,192,17744,1,4,0:0:0:0:
448,192,17744,1,2,0:0:0:0:
320,192,18146,1,8,0:0:0:0:
64,192,18549,1,2,0:0:0:0:
448,192,18952,1,8,0:0:0:0:
192,192,19354,1,2,0:0:0:0:
320,192,19757,1,8,0:0:0:0:
64,192,20160,1,2,0:0:0:0:
448,192,20562,1,8,0:0:0:0:
192,192,20965,1,2,0:0:0:0:
448,192,21368,1,8,0:0:0:0:
320,192,21770,1,2,0:0:0:0:
192,192,22173,1,8,0:0:0:0:
64,192,22576,1,2,0:0:0:0:
320,192,22978,1,8,0:0:0:0:
192,192,23381,1,2,0:0:0:0:
448,192,23784,128,8,24186:0:0:0:0:
64,192,24186,1,2,0:0:0:0:
192,192,24186,1,4,0:0:0:0:
320,192,24589,1,8,0:0:0:0:
448,192,24589,1,4,0:0:0:0:
192,192,24992,1,2,0:0:0:0:
320,192,25395,1,8,0:0:0:0:
64,192,25797,1,2,0:0:0:0:
192,192,26200,1,8,0:0:0:0:
448,192,26603,1,2,0:0:0:0:
320,192,27005,128,8,27408:0:0:0:0:
64,192,27408,1,2,0:0:0:0:
448,192,27408,1,4,0:0:0:0:
64,192,27811,1,2,0:0:0:0:
192,192,27811,1,0,0:0:0:40:Tom3.wav
192,192,28213,1,2,0:0:0:0:
320,192,28213,1,0,0:0:0:40:Tom3.wav
320,192,28616,1,10,0:0:0:0:
448,192,28616,1,0,0:0:0:40:Tom3.wav
64,192,29019,128,2,29421:0:0:0:0:
448,192,29019,1,8,0:0:0:0:
320,192,29421,128,10,29824:0:0:0:0:
192,192,29824,128,10,30227:0:0:0:0:
448,192,30227,128,10,30629:0:0:0:0:
64,192,30629,1,8,0:0:0:0:
320,192,30931,1,8,0:0:0:0:
192,192,31233,1,8,0:0:0:0:
448,192,31435,1,8,0:0:0:0:
320,192,31737,1,8,0:0:0:0:
64,192,32039,1,8,0:0:0:0:
448,192,32240,1,8,0:0:0:0:
320,192,32240,1,4,0:0:0:0:
192,192,32542,1,8,0:0:0:0:
64,192,32844,1,8,0:0:0:0:
448,192,33046,128,8,33448:0:0:0:0:
64,192,33448,1,12,0:0:0:0:
192,192,33448,1,0,0:0:0:40:Tom3.wav
64,192,33851,1,2,0:0:0:0:
448,192,33851,1,4,0:0:0:0:
320,192,34253,1,2,0:0:0:0:
192,192,34656,1,2,0:0:0:0:
448,192,35059,1,2,0:0:0:0:
64,192,35461,1,2,0:0:0:0:
192,192,35864,1,2,0:0:0:0:
448,192,36267,1,2,0:0:0:0:
320,192,36669,1,2,0:0:0:0:
64,192,37072,1,2,0:0:0:0:
448,192,37475,1,2,0:0:0:0:
192,192,37877,1,2,0:0:0:0:
320,192,38280,1,2,0:0:0:0:
448,192,38683,1,2,0:0:0:0:
64,192,39085,1,2,0:0:0:0:
448,192,39488,1,2,0:0:0:0:
64,192,39891,128,2,40293:0:0:0:0:
192,192,39891,1,4,0:0:0:0:
320,192,40293,1,4,0:0:0:0:
448,192,40293,1,2,0:0:0:0:
192,192,40696,1,8,0:0:0:0:
448,192,41099,1,2,0:0:0:0:
64,192,41502,1,8,0:0:0:0:
320,192,41904,1,2,0:0:0:0:
192,192,42307,1,8,0:0:0:0:
448,192,42710,1,2,0:0:0:0:
64,192,43112,1,8,0:0:0:0:
192,192,43515,1,2,0:0:0:0:
320,192,43515,1,4,0:0:0:0:
448,192,43918,1,8,0:0:0:0:
64,192,44320,1,2,0:0:0:0:
320,192,44320,1,4,0:0:0:0:
192,192,44723,1,8,0:0:0:0:
320,192,45126,1,8,0:0:0:0:
448,192,45126,1,0,0:0:0:0:
64,192,45528,1,8,0:0:0:0:
192,192,45528,1,0,0:0:0:0:
320,192,45931,1,8,0:0:0:0:
448,192,45931,1,0,0:0:0:0:
192,192,46334,128,2,46736:0:0:0:0:
64,192,46736,1,4,0:0:0:0:
448,192,46736,1,2,0:0:0:0:
320,192,47139,1,8,0:0:0:0:
192,192,47542,1,2,0:0:0:0:
448,192,47944,1,8,0:0:0:0:
64,192,48347,1,2,0:0:0:0:
192,192,48750,1,8,0:0:0:0:
448,192,49153,1,2,0:0:0:0:
320,192,49555,1,8,0:0:0:0:
192,192,49958,1,2,0:0:0:0:
448,192,50361,1,8,0:0:0:0:
64,192,50763,1,2,0:0:0:0:
320,192,51166,1,8,0:0:0:0:
448,192,51569,1,2,0:0:0:0:
320,192,51971,1,8,0:0:0:0:
192,192,52374,1,2,0:0:0:0:
64,192,52777,1,8,0:0:0:0:
320,192,53179,1,2,0:0:0:0:
448,192,53179,1,4,0:0:0:0:
64,192,53481,1,2,0:0:0:0:
320,192,53783,1,2,0:0:0:0:
320,192,54186,1,2,0:0:0:0:
64,192,54387,1,8,0:0:0:0:
448,192,54589,1,2,0:0:0:0:
192,192,54790,1,2,0:0:0:0:
320,192,55092,1,2,0:0:0:0:
64,192,55394,1,2,0:0:0:0:
64,192,55797,1,2,0:0:0:0:
448,192,55998,1,8,0:0:0:0:
320,192,56199,1,8,0:0:0:0:
64,192,56401,1,2,0:0:0:0:
192,192,56401,1,4,0:0:0:0:
320,192,56804,1,8,0:0:0:0:
192,192,57206,1,8,0:0:0:0:
448,192,57609,1,8,0:0:0:0:
64,192,58012,1,2,0:0:0:0:
320,192,58012,1,4,0:0:0:0:
192,192,58414,1,10,0:0:0:0:
448,192,58817,1,10,0:0:0:0:
64,192,59220,1,10,0:0:0:0:
320,192,59622,1,4,0:0:0:0:
448,192,59622,1,2,0:0:0:0:
64,192,59824,128,8,60226:0:0:0:0:
192,192,60226,1,4,0:0:0:0:
448,192,60226,1,0,0:0:0:40:Tom3.wav
320,192,60428,128,0,60830:0:0:0:40:Tom2.wav
64,192,60830,1,4,0:0:0:0:
192,192,60830,1,0,0:0:0:40:Tom3.wav
448,192,61032,1,8,0:0:0:0:
192,192,61233,1,10,0:0:0:0:
320,192,61535,1,10,0:0:0:0:
192,192,61837,1,10,0:0:0:0:
448,192,62441,128,8,62844:0:0:0:0:
64,192,62844,1,4,0:0:0:0:
192,192,62844,1,2,0:0:0:0:
320,192,63246,1,8,0:0:0:0:
192,192,63649,1,2,0:0:0:0:
448,192,64052,1,8,0:0:0:0:
64,192,64454,1,2,0:0:0:0:
320,192,64857,1,8,0:0:0:0:
192,192,65260,1,2,0:0:0:0:
320,192,65662,1,8,0:0:0:0:
448,192,66065,1,2,0:0:0:0:
64,192,66468,1,8,0:0:0:0:
320,192,66870,1,2,0:0:0:0:
192,192,67273,1,8,0:0:0:0:
64,192,67676,1,2,0:0:0:0:
320,192,68078,1,8,0:0:0:0:
192,192,68481,1,2,0:0:0:0:
448,192,68884,1,8,0:0:0:0:
64,192,69286,1,4,0:0:0:0:
192,192,69286,1,2,0:0:0:0:
320,192,69689,1,8,0:0:0:0:
448,192,69689,1,4,0:0:0:0:
192,192,70092,1,2,0:0:0:0:
320,192,70495,1,8,0:0:0:0:
64,192,70897,1,2,0:0:0:0:
448,192,71300,1,8,0:0:0:0:
192,192,71703,1,2,0:0:0:0:
320,192,72105,1,8,0:0:0:0:
64,192,72508,1,2,0:0:0:0:
448,192,72911,1,8,0:0:0:0:
192,192,73313,1,2,0:0:0:0:
320,192,73716,1,8,0:0:0:0:
448,192,74119,1,0,0:0:0:40:Tom3.wav
192,192,74421,1,0,0:0:0:40:Tom3.wav
64,192,74723,1,0,0:0:0:40:Tom3.wav
448,192,74924,1,8,0:0:0:0:
192,192,75125,1,8,0:0:0:0:
320,192,75327,128,0,75729:0:0:0:40:Tom1.wav
64,192,75729,1,4,0:0:0:0:
192,192,75729,1,2,0:0:0:0:
448,192,76132,1,8,0:0:0:0:
64,192,76535,1,2,0:0:0:0:
320,192,76937,1,8,0:0:0:0:
192,192,77340,1,2,0:0:0:0:
448,192,77743,1,8,0:0:0:0:
64,192,78146,1,2,0:0:0:0:
320,192,78548,1,8,0:0:0:0:
448,192,78951,1,2,0:0:0:0:
64,192,79354,1,8,0:0:0:0:
320,192,79756,1,2,0:0:0:0:
192,192,80159,1,8,0:0:0:0:
64,192,80562,1,2,0:0:0:0:
448,192,80964,1,8,0:0:0:0:
192,192,81367,1,2,0:0:0:0:
320,192,81770,128,10,82172:0:0:0:0:
64,192,82172,1,4,0:0:0:0:
448,192,82172,1,2,0:0:0:0:
192,192,82374,1,2,0:0:0:0:
320,192,82575,1,8,0:0:0:0:
448,192,82978,1,2,0:0:0:0:
64,192,83179,1,2,0:0:0:0:
320,192,83380,1,8,0:0:0:0:
64,192,83783,1,2,0:0:0:0:
448,192,83783,1,4,0:0:0:0:
192,192,83984,1,2,0:0:0:0:
448,192,84186,1,8,0:0:0:0:
320,192,84588,1,2,0:0:0:0:
192,192,84790,1,2,0:0:0:0:
448,192,84991,1,8,0:0:0:0:
64,192,85394,1,2,0:0:0:0:
192,192,85394,1,4,0:0:0:0:
192,192,85998,1,8,0:0:0:0:
448,192,85998,1,4,0:0:0:0:
320,192,86602,1,8,0:0:0:0:
448,192,86602,1,4,0:0:0:0:
64,192,87005,1,8,0:0:0:0:
192,192,87005,1,4,0:0:0:0:
192,192,87609,1,8,0:0:0:0:
320,192,87609,1,4,0:0:0:0:
320,192,88213,1,8,0:0:0:0:
448,192,88213,1,4,0:0:0:0:
64,192,88615,1,8,0:0:0:0:
448,192,88917,1,8,0:0:0:0:
64,192,89219,1,8,0:0:0:0:
320,192,89421,1,8,0:0:0:0:
192,192,89723,1,8,0:0:0:0:
64,192,90025,1,8,0:0:0:0:
448,192,90226,128,0,91031:0:0:0:0:
64,192,91031,128,10,92843:0:0:0:0:
192,192,91031,1,4,0:0:0:0:
448,192,92843,128,0,93246:0:0:0:0:
192,192,93246,1,0,0:0:0:0:
