osu file format v14

[General]
AudioFilename: audio.mp3
AudioLeadIn: 0
PreviewTime: 61733
Countdown: 1
SampleSet: Soft
StackLeniency: 0.7
Mode: 0
LetterboxInBreaks: 0
WidescreenStoryboard: 1

[Editor]
DistanceSpacing: 0.9
BeatDivisor: 4
GridSize: 16
TimelineZoom: 1

[Metadata]
Title:Tokimeki Experience! (TV Size)
TitleUnicode:ときめきエクスペリエンス! (TV Size)
Artist:Poppin'Party
ArtistUnicode:Poppin'Party
Creator:Nitrous
Version:Normal
Source:BanG Dream!
Tags:バンドリ!ガールズバンドパーティ! bandori Girls Band Party garupa opening Toyama Kasumi Hanazono Tae Ushigome Rimi Yamabuki Saaya Ichigaya Arisa Aimi Otsuka Sae Nishimoto Rimi Ohashi Ayaka Itou Ayasa 愛美 大塚紗英 牛込 りみ 山吹 沙綾 市ヶ谷 有咲 山吹 沙綾 市ヶ谷 有咲 花園 たえ 戸山 香澄 牛込 りみ Underdogs Kibbleru
BeatmapID:1399604
BeatmapSetID:658952

[Difficulty]
HPDrainRate:4
CircleSize:3.3
OverallDifficulty:4
ApproachRate:4
SliderMultiplier:1.1
SliderTickRate:1

[Events]
//Background and Video events
0,0,"bg.jpg",0,0
Video,0,"op.mp4"
//Break Periods
//Storyboard Layer 0 (Background)
//Storyboard Layer 1 (Fail)
//Storyboard Layer 2 (Pass)
//Storyboard Layer 3 (Foreground)
//Storyboard Sound Samples

[TimingPoints]
-350,333.333333333333,4,2,1,70,1,0
6316,-100,4,2,1,80,0,0
28983,-100,4,2,1,60,0,0
39649,-100,4,2,1,70,0,0
45649,-100,4,2,0,70,0,0
46316,-100,4,2,1,70,0,0
46983,-100,4,2,0,70,0,0
47649,-100,4,2,1,70,0,0
62316,-100,4,2,1,80,0,1
72483,-100,4,2,1,80,0,0
72816,-100,4,2,1,80,0,1
82316,-100,4,2,1,80,0,0
83649,-100,4,2,1,80,0,1
86316,-100,4,2,1,80,0,0
87983,-100,4,2,1,80,0,1
88066,-100,4,2,1,80,0,0
89399,-100,4,2,1,5,0,0

[Colours]
Combo1 : 255,39,79
Combo2 : 64,87,227
Combo3 : 68,197,39
Combo4 : 255,132,0

[HitObjects]
92,195,983,6,0,B|112:155|183:139|221:170|221:170|211:131|226:97,1,220,4|0,0:0|0:0,0:0:0:0:
315,140,1983,1,0,0:0:0:0:
381,67,2316,2,0,P|415:141|367:224,1,165,4|4,0:0|3:0,0:0:0:0:
291,256,3149,2,0,L|296:330,1,55,12|4,3:0|3:0,0:0:0:0:
199,338,3649,6,0,P|179:285|192:224,1,110,4|0,0:0|0:0,0:0:0:0:
259,165,4316,2,0,P|267:111|247:60,1,110,4|0,0:0|0:0,0:0:0:0:
160,12,4983,2,0,L|44:17,1,110,4|0,0:0|0:0,0:0:0:0:
13,108,5649,2,0,L|129:103,1,110,8|8,0:0|0:0,0:0:0:0:
222,103,6316,6,0,B|237:160|237:160|226:225,1,110,4|8,0:0|0:0,0:0:0:0:
202,252,6816,2,0,P|231:216|340:220,1,165,2|8,0:0|0:0,0:0:0:0:
435,247,7649,2,0,B|423:195|423:195|432:131,1,110,4|8,0:0|0:0,0:0:0:0:
468,106,8149,2,0,P|391:128|298:95,1,165,2|8,0:0|0:0,0:0:0:0:
229,49,8983,6,0,P|214:101|233:165,1,110,4|8,0:0|0:0,0:0:0:0:
269,178,9483,2,0,L|266:256,1,55,2|0,0:0|0:0,0:0:0:0:
218,243,9816,1,0,3:0:0:0:
218,243,9983,2,0,L|221:321,1,55,4|8,3:0|3:0,0:0:0:0:
192,339,10316,5,8,0:0:0:0:
192,339,10983,2,0,B|232:333|232:333|283:344,2,82.5,0|0|0,0:0|0:0|0:0,0:0:0:0:
149,364,11649,6,0,P|164:308|145:256,1,110,4|8,0:0|0:0,0:0:0:0:
118,220,12149,2,0,L|245:211,1,110,2|0,0:0|0:0,0:0:0:0:
271,235,12649,1,8,0:0:0:0:
316,255,12816,2,0,P|289:182|321:99,1,165,4|4,0:0|0:0,0:0:0:0:
317,103,13983,1,2,0:0:0:0:
230,55,14316,6,0,B|175:46|175:46|117:55,1,110,12|0,0:0|3:0,0:0:0:0:
120,153,14983,2,0,B|175:162|175:162|233:153,1,110,0|0,3:0|3:3,0:0:0:0:
317,103,15649,6,0,P|331:160|308:221,1,110,4|8,0:0|0:0,0:0:0:0:
292,251,16149,1,0,0:0:0:0:
258,287,16316,2,0,L|137:285,1,110,2|8,0:0|0:0,0:0:0:0:
107,312,16816,2,0,P|133:234|102:155,1,165,2|8,0:0|0:0,0:0:0:0:
49,78,17649,2,0,B|102:64|102:64|168:75,1,110,2|8,0:0|0:0,0:0:0:0:
242,124,18316,6,0,L|354:123,1,110,2|8,0:0|0:0,0:0:0:0:
442,158,18983,2,0,L|496:165,2,55,2|0|8,0:0|0:0|0:0,0:0:0:0:
403,189,19483,2,0,P|439:264|401:336,1,165,2|8,0:0|0:0,0:0:0:0:
367,363,20149,2,0,L|243:356,1,110,0|0,0:0|0:0,0:0:0:0:
207,353,20649,1,8,0:0:0:0:
114,317,20983,6,0,L|110:196,1,110,4|8,0:0|0:0,0:0:0:0:
72,174,21483,1,0,0:0:0:0:
34,142,21649,2,0,L|-23:142,2,55,2|0|8,0:0|0:0|0:0,0:0:0:0:
52,90,22149,2,0,P|82:99|158:9,1,165,4|8,0:0|0:0,0:0:0:0:
248,77,22983,2,0,L|246:22,2,55,8|0|0,0:0|0:0|3:0,0:0:0:0:
293,108,23483,1,8,3:0:0:0:
293,108,23649,6,0,L|295:218,1,110,4|0,0:0|3:0,0:0:0:0:
296,273,24149,1,0,3:0:0:0:
202,331,24483,2,0,B|145:317|145:317|87:330,1,110,4|0,0:0|0:0,0:0:0:0:
51,361,24983,2,0,P|69:302|52:257,1,110,4|0,0:0|3:0,0:0:0:0:
18,215,25483,1,0,3:0:0:0:
61,114,25816,2,0,B|179:115,1,110,4|0,0:0|0:0,0:0:0:0:
226,112,26316,6,0,P|209:164|223:217,1,110,4|8,0:0|0:0,0:0:0:0:
252,262,26816,1,0,3:0:0:0:
353,218,27149,2,0,P|370:163|352:103,1,110,4|0,0:0|0:0,0:0:0:0:
329,66,27649,2,0,L|448:63,1,110,12|8,0:0|0:0,0:0:0:0:
494,61,28149,1,0,3:0:0:0:
454,163,28483,2,0,B|443:216|443:216|454:280,1,110,4|0,0:0|0:0,0:0:0:0:
492,308,28983,6,0,P|442:293|381:307,1,110,4|8,0:0|0:0,0:0:0:0:
279,330,29649,2,0,L|283:384,2,55,2|2|0,0:0|0:0|0:0,0:0:0:0:
223,327,30149,2,0,P|252:244|221:170,1,165,8|8,0:0|0:0,0:0:0:0:
142,103,30983,2,0,B|87:113|87:113|29:101,1,110,2|8,0:0|0:0,0:0:0:0:
90,21,31649,6,0,B|143:8|143:8|212:26,1,110,2|8,0:0|0:0,0:0:0:0:
272,85,32316,2,0,L|340:77,2,55,2|2|0,0:0|0:0|0:0,0:0:0:0:
266,139,32816,2,0,P|227:105|122:130,1,165,8|8,0:0|0:0,0:0:0:0:
87,161,33483,1,0,0:0:0:0:
51,195,33649,2,0,L|48:82,1,110,8|8,0:0|0:0,0:0:0:0:
129,27,34316,6,0,P|185:17|245:23,1,110,2|8,0:0|0:0,0:0:0:0:
323,71,34983,2,0,B|313:126|313:126|322:183,1,110,2|8,0:0|0:0,0:0:0:0:
381,258,35649,1,2,0:0:0:0:
322,337,35983,2,0,L|205:337,1,110,8|2,0:0|0:0,0:0:0:0:
117,364,36649,1,8,0:0:0:0:
38,303,36983,6,0,P|24:248|41:186,1,110,2|8,0:0|0:0,0:0:0:0:
77,107,37649,2,0,L|72:53,2,55,2|2|8,0:0|0:0|0:0,0:0:0:0:
126,107,38149,2,0,L|123:279,1,165,4|8,0:0|0:0,0:0:0:0:
203,330,38983,2,0,L|200:389,2,55,2|8|8,0:0|0:0|0:0,0:0:0:0:
249,312,39483,1,0,0:0:0:0:
294,294,39649,6,0,P|308:242|296:180,1,110,4|8,0:0|0:0,0:0:0:0:
200,198,40316,2,0,P|191:144|205:91,1,110,8|8,0:0|0:0,0:0:0:0:
284,35,40983,2,0,B|334:24|334:24|393:32,1,110,8|8,0:0|0:0,0:0:0:0:
471,91,41649,2,0,L|508:47,2,55,8|0|8,0:0|3:0|0:0,0:0:0:0:
379,128,42316,6,0,P|365:182|379:243,1,110,8|8,0:0|0:0,0:0:0:0:
474,233,42983,2,0,P|483:286|469:339,1,110,8|8,0:0|0:0,0:0:0:0:
375,367,43649,2,0,L|259:361,1,110,8|8,0:0|0:0,0:0:0:0:
206,281,44316,2,0,L|139:285,2,55,8|0|8,0:0|3:0|0:0,0:0:0:0:
242,247,44816,1,0,0:0:0:0:
274,209,44983,6,0,P|287:161|266:101,1,110,8|8,0:0|0:0,0:0:0:0:
236,67,45483,1,0,0:0:0:0:
195,38,45649,2,0,L|129:37,2,55,8|8|8,1:2|1:2|1:2,0:0:0:0:
291,14,46316,2,0,L|413:16,1,110,8|8,0:0|0:0,0:0:0:0:
485,67,46983,2,0,L|486:133,2,55,8|8|8,1:2|1:2|1:2,0:0:0:0:
394,104,47649,6,0,B|381:158|381:158|394:220,1,110,4|2,0:0|0:0,0:0:0:0:
408,258,48149,2,0,P|363:239|286:257,1,110,4|2,3:0|0:0,0:0:0:0:
261,272,48649,1,4,3:0:0:0:
173,317,48983,1,2,0:0:0:0:
173,317,49149,2,0,L|165:196,1,110,4|0,3:0|3:0,0:0:0:0:
129,173,49649,2,0,L|66:177,2,55,4|0|8,3:0|0:0|0:0,0:0:0:0:
171,83,50316,6,0,P|219:60|291:75,1,110,4|2,0:0|0:0,0:0:0:0:
319,85,50816,2,0,L|321:200,1,110,4|2,3:0|0:0,0:0:0:0:
363,219,51316,1,4,3:0:0:0:
311,303,51649,1,2,0:0:0:0:
311,303,51816,2,0,B|253:292|253:292|188:304,1,110,4|0,3:0|3:0,0:0:0:0:
158,322,52316,2,0,L|161:390,2,55,0|0|8,3:0|0:0|0:0,0:0:0:0:
64,289,52983,6,0,L|62:173,1,110,4|4,0:0|3:0,0:0:0:0:
35,137,53483,2,0,P|89:149|146:133,1,110,8|4,0:0|3:0,0:0:0:0:
184,111,53983,1,8,0:0:0:0:
258,176,54316,1,4,3:0:0:0:
258,176,54483,2,0,L|370:173,1,110,8|0,0:0|3:0,0:0:0:0:
414,155,54983,2,0,L|405:90,2,55,8|0|8,0:0|0:0|0:0,0:0:0:0:
495,210,55649,5,4,0:0:0:0:
439,292,55983,1,2,0:0:0:0:
439,292,56149,2,0,L|316:289,1,110,8|2,0:0|0:0,0:0:0:0:
289,318,56649,1,8,0:0:0:0:
198,276,56983,1,4,0:0:0:0:
198,276,57149,2,0,P|184:220|198:162,1,110,8|2,0:0|0:0,0:0:0:0:
228,133,57649,2,0,L|299:133,2,55,8|0|0,0:0|3:0|3:0,0:0:0:0:
280,48,58316,6,0,B|332:41|332:41|392:49,1,110,4|8,0:0|0:0,0:0:0:0:
474,99,58983,2,0,L|473:163,1,55,8|2,0:0|0:0,0:0:0:0:
400,222,59483,2,0,L|273:218,1,110,4|0,0:0|0:0,0:0:0:0:
248,245,59983,1,8,0:0:0:0:
157,204,60316,2,0,L|157:142,2,55,2|0|8,0:0|0:0|0:0,0:0:0:0:
69,251,60983,6,0,L|69:306,2,55,8|8|8,0:0|0:0|0:0,0:0:0:0:
27,224,61483,1,12,0:0:0:0:
86,144,61816,2,0,L|84:79,2,55,0|0|0,0:0|0:0|0:0,0:0:0:0:
115,183,62316,6,0,P|149:162|230:169,1,110,4|8,0:0|0:0,0:0:0:0:
309,198,62983,1,2,0:0:0:0:
354,179,63149,2,0,L|356:123,1,55,0|8,0:0|0:0,0:0:0:0:
379,80,63483,2,0,P|325:89|260:60,1,110,2|0,0:0|0:0,0:0:0:0:
232,44,63983,1,8,0:0:0:0:
142,86,64316,2,0,L|145:148,1,55,2|0,0:0|0:0,0:0:0:0:
192,154,64649,2,0,L|189:216,1,55,8|0,0:0|0:0,0:0:0:0:
170,255,64983,6,0,P|214:237|290:249,1,110,2|8,0:0|0:0,0:0:0:0:
370,267,65649,2,0,L|373:142,1,110,2|8,0:0|0:0,0:0:0:0:
335,123,66149,1,0,0:0:0:0:
299,87,66316,2,0,P|239:101|183:78,1,110,2|8,0:0|0:0,0:0:0:0:
146,72,66816,1,0,3:0:0:0:
110,107,66983,2,0,L|110:174,1,55,2|0,0:0|0:0,0:0:0:0:
152,187,67316,2,0,L|148:259,1,55,8|0,0:0|0:0,0:0:0:0:
114,278,67649,5,4,0:0:0:0:
188,343,67983,2,0,L|312:337,1,110,8|2,0:0|0:0,0:0:0:0:
393,363,68649,1,8,0:0:0:0:
458,288,68983,2,0,L|461:225,1,55,2|0,0:0|0:0,0:0:0:0:
496,198,69316,2,0,P|436:208|375:186,1,110,8|0,0:0|3:0,0:0:0:0:
347,169,69816,1,2,0:0:0:0:
305,142,69983,2,0,L|246:139,1,55,8|0,0:0|0:0,0:0:0:0:
212,106,70316,6,0,L|212:224,1,110,4|8,0:0|0:0,0:0:0:0:
182,255,70816,1,4,0:0:0:0:
160,299,70983,2,0,P|212:283|271:300,1,110,2|8,0:0|0:0,0:0:0:0:
359,324,71649,2,0,L|355:384,2,55,8|4|4,0:0|3:0|3:0,0:0:0:0:
404,304,72149,1,4,0:0:0:0:
459,222,72483,2,0,L|455:162,1,55,8|0,0:0|0:0,0:0:0:0:
477,122,72816,6,0,P|425:138|353:117,1,110,4|0,0:0|0:0,0:0:0:0:
326,107,73316,1,8,0:0:0:0:
238,152,73649,2,0,L|241:217,1,55,2|0,0:0|0:0,0:0:0:0:
267,248,73983,1,8,0:0:0:0:
292,290,74149,2,0,P|239:271|163:289,1,110,2|0,0:0|0:0,0:0:0:0:
141,297,74649,1,8,0:0:0:0:
57,243,74983,6,0,L|55:189,1,55,2|0,0:0|0:0,0:0:0:0:
103,176,75316,2,0,L|106:115,1,55,8|0,0:0|0:0,0:0:0:0:
78,79,75649,2,0,P|132:95|194:78,1,110,2|8,0:0|0:0,0:0:0:0:
274,44,76316,2,0,P|327:33|379:48,1,110,2|8,0:0|0:0,0:0:0:0:
421,74,76816,1,2,0:0:0:0:
460,104,76983,2,0,L|459:217,1,110,2|8,0:0|0:0,0:0:0:0:
430,254,77483,1,0,3:0:0:0:
398,291,77649,2,0,L|335:288,1,55,2|0,0:0|0:0,0:0:0:0:
322,242,77983,2,0,L|259:245,1,55,8|0,0:0|0:0,0:0:0:0:
223,268,78316,6,0,P|241:209|224:151,1,110,4|8,0:0|0:0,0:0:0:0:
192,130,78816,2,0,L|319:129,1,110,2|0,0:0|0:0,0:0:0:0:
346,107,79316,1,8,0:0:0:0:
438,142,79649,2,0,L|434:206,1,55,4|0,0:0|0:0,0:0:0:0:
465,235,79983,1,8,0:0:0:0:
489,277,80149,2,0,P|443:259|374:271,1,110,2|0,0:0|0:0,0:0:0:0:
342,292,80649,1,8,0:0:0:0:
249,255,80983,6,0,B|260:202|260:202|246:140,1,110,4|8,0:0|0:0,0:0:0:0:
221,105,81483,1,2,0:0:0:0:
187,68,81649,2,0,L|125:66,1,55,8|0,0:0|3:0,0:0:0:0:
111,111,81983,2,0,L|45:106,1,55,0|2,3:0|0:0,0:0:0:0:
9,124,82316,2,0,L|1:61,2,55,8|8|8,0:0|0:0|0:0,0:0:0:0:
56,210,82983,2,0,L|53:300,2,82.5,0|0|0,0:0|0:0|0:0,0:0:0:0:
102,192,83649,6,0,P|126:214|209:204,1,110,4|8,0:0|0:0,0:0:0:0:
240,184,84149,1,2,0:0:0:0:
322,238,84483,1,2,0:0:0:0:
414,203,84816,2,0,L|425:87,1,110,4|0,0:0|0:0,0:0:0:0:
387,60,85316,1,8,0:0:0:0:
290,79,85649,2,0,L|291:20,2,55,2|0|0,0:0|0:0|3:0,0:0:0:0:
252,111,86149,1,0,3:0:0:0:
212,141,86316,6,0,L|210:211,1,55,8|8,0:0|0:0,0:0:0:0:
328,286,86983,2,0,L|330:216,1,55,8|8,0:0|0:0,0:0:0:0:
427,217,87483,2,0,L|424:98,1,110,12|0,0:0|3:0,0:0:0:0:
388,72,87983,1,4,0:0:0:0:
256,192,88149,12,0,89399,0:0:0:0:
