osu file format v14

[General]
AudioFilename: audio.mp3
AudioLeadIn: 0
PreviewTime: 61733
Countdown: 1
SampleSet: Soft
StackLeniency: 0.7
Mode: 0
LetterboxInBreaks: 0
WidescreenStoryboard: 1

[Editor]
DistanceSpacing: 0.4
BeatDivisor: 4
GridSize: 16
TimelineZoom: 2.2

[Metadata]
Title:Tokimeki Experience! (TV Size)
TitleUnicode:ときめきエクスペリエンス! (TV Size)
Artist:Poppin'Party
ArtistUnicode:Poppin'Party
Creator:Nitrous
Version:Kibbleru's Expert
Source:BanG Dream!
Tags:バンドリ!ガールズバンドパーティ! bandori Girls Band Party garupa opening Toyama Kasumi Hanazono Tae Ushigome Rimi Yamabuki Saaya Ichigaya Arisa Aimi Otsuka Sae Nishimoto Rimi Ohashi Ayaka Itou Ayasa 愛美 大塚紗英 牛込 りみ 山吹 沙綾 市ヶ谷 有咲 山吹 沙綾 市ヶ谷 有咲 花園 たえ 戸山 香澄 牛込 りみ Underdogs Kibbleru
BeatmapID:1412578
BeatmapSetID:658952

[Difficulty]
HPDrainRate:6
CircleSize:4
OverallDifficulty:8.5
ApproachRate:9.2
SliderMultiplier:1.84
SliderTickRate:1

[Events]
//Background and Video events
0,0,"bg.jpg",0,0
Video,0,"op.mp4"
//Break Periods
//Storyboard Layer 0 (Background)
//Storyboard Layer 1 (Fail)
//Storyboard Layer 2 (Pass)
//Storyboard Layer 3 (Foreground)
//Storyboard Sound Samples

[TimingPoints]
-350,333.333333333333,4,2,1,70,1,0
483,-166.666666666667,4,2,1,70,0,0
4983,-133.333333333333,4,2,1,70,0,0
6316,-100,4,2,1,80,0,0
24483,-166.666666666667,4,2,1,80,0,0
24983,-100,4,2,1,80,0,0
25816,-166.666666666667,4,2,1,80,0,0
26316,-100,4,2,1,80,0,0
27149,-166.666666666667,4,2,1,80,0,0
27649,-100,4,2,1,80,0,0
28983,-142.857142857143,4,2,1,60,0,0
39649,-100,4,2,1,70,0,0
45649,-100,4,2,0,70,0,0
46316,-100,4,2,1,70,0,0
46983,-100,4,2,0,70,0,0
47649,-125,4,2,1,70,0,0
56649,-100,4,2,1,70,0,0
57816,-83.3333333333333,4,2,1,70,0,0
59483,-100,4,2,1,70,0,0
62316,-100,4,2,1,80,0,1
68983,-142.857142857143,4,2,1,80,0,1
69316,-90.909090909091,4,2,1,80,0,1
69649,-142.857142857143,4,2,1,80,0,1
69982,-90.909090909091,4,2,1,80,0,1
70316,-100,4,2,1,80,0,1
72149,-166.666666666667,4,2,1,80,0,1
72483,-166.666666666667,4,2,1,80,0,0
72816,-100,4,2,1,80,0,1
82316,-100,4,2,1,80,0,0
82983,-100,4,2,1,80,0,0
83649,-100,4,2,1,80,0,1
86316,-100,4,2,1,80,0,0
87483,-83.3333333333333,4,2,1,80,0,0
87983,-100,4,2,1,80,0,1
88066,-100,4,2,1,80,0,0
89399,-100,4,2,1,5,0,0

[Colours]
Combo1 : 255,39,79
Combo2 : 64,87,227
Combo3 : 68,197,39
Combo4 : 255,132,0

[HitObjects]
232,218,483,6,0,L|239:151,2,55.1999983154297,0|0|0,0:0|0:0|0:0,0:0:0:0:
285,110,983,2,0,B|246:110|218:84|218:84|260:147|288:260|252:298|208:289|161:267|171:203|240:219,1,386.399988208008,4|0,0:0|0:0,0:0:0:0:
354,180,2316,6,0,L|357:235,2,55.1999983154297,4|0|0,0:0|0:0|0:0,0:0:0:0:
126,95,2816,2,0,L|122:150,2,55.1999983154297,4|0|12,3:0|0:0|3:0,0:0:0:0:
301,4,3316,1,4,3:0:0:0:
342,90,3483,1,0,0:0:0:0:
249,92,3649,6,0,P|232:144|235:199,1,110.399996630859,4|0,0:0|0:0,0:0:0:0:
410,223,4316,2,0,P|423:183|423:134,2,82.7999974731446,4|0|0,0:0|0:0|0:0,0:0:0:0:
439,314,4983,6,0,P|392:267|320:258,1,138.000005264282,4|0,0:0|0:0,0:0:0:0:
251,318,5483,1,0,0:0:0:0:
63,143,5649,5,8,0:0:0:0:
75,126,5733,1,8,0:0:0:0:
90,111,5815,1,8,0:0:0:0:
107,100,5899,1,0,0:0:0:0:
126,92,5983,1,8,0:0:0:0:
147,87,6066,1,8,0:0:0:0:
167,87,6149,1,8,0:0:0:0:
188,90,6233,1,0,0:0:0:0:
207,97,6316,6,0,P|195:139|194:188,1,92,4|0,0:0|0:0,0:0:0:0:
301,165,6649,1,8,0:0:0:0:
329,357,6816,2,0,P|265:293|175:293,1,184,2|0,0:0|0:0,0:0:0:0:
4,140,7316,2,0,P|50:144|94:132,1,92,8|0,0:0|0:0,0:0:0:0:
273,24,7649,5,4,0:0:0:0:
162,210,7816,1,0,0:0:0:0:
40,46,7983,1,8,0:0:0:0:
296,126,8149,2,0,P|210:107|171:27,1,184,2|0,0:0|0:0,0:0:0:0:
394,70,8649,2,0,P|405:109|404:160,1,92,8|0,0:0|0:0,0:0:0:0:
322,233,8983,5,4,0:0:0:0:
394,70,9149,1,0,0:0:0:0:
498,227,9316,1,8,0:0:0:0:
296,124,9483,1,2,0:0:0:0:
277,122,9566,1,0,0:0:0:0:
258,120,9649,1,0,0:0:0:0:
406,176,9816,5,0,3:0:0:0:
289,21,9983,1,4,3:0:0:0:
197,198,10149,1,8,3:0:0:0:
394,70,10316,1,8,0:0:0:0:
296,124,11649,5,4,0:0:0:0:
254,307,11816,1,0,0:0:0:0:
449,247,11983,1,8,0:0:0:0:
336,350,12149,2,0,L|347:205,1,138,2|0,0:0|0:0,0:0:0:0:
346,212,12483,2,0,P|301:220|255:221,1,92,0|8,0:0|0:0,0:0:0:0:
132,80,12816,6,0,B|232:58|203:136|303:118,1,184,4|0,0:0|0:0,0:0:0:0:
375,55,13316,1,4,0:0:0:0:
159,165,13983,1,2,0:0:0:0:
159,164,14316,6,0,P|156:187|153:210,3,46,12|0|0|0,0:0|0:0|0:0|3:0,0:0:0:0:
335,334,14649,2,0,P|331:311|329:288,3,46,0|0|0|0,3:0|0:0|0:0|3:0,0:0:0:0:
391,218,14983,5,0,3:0:0:0:
353,193,15066,1,0,0:0:0:0:
307,190,15149,1,0,3:0:0:0:
267,211,15233,1,0,3:3:0:0:
242,249,15316,1,0,3:3:0:0:
217,287,15399,1,0,0:0:0:0:
177,308,15483,1,0,3:0:0:0:
131,305,15566,1,0,3:0:0:0:
93,280,15649,5,4,0:0:0:0:
329,288,15816,1,0,0:0:0:0:
140,108,15983,2,0,P|153:153|155:199,1,92,8|0,0:0|0:0,0:0:0:0:
313,377,16316,2,0,P|315:331|328:287,1,92,2|0,0:0|0:0,0:0:0:0:
212,312,16649,1,8,0:0:0:0:
452,104,16816,6,0,P|363:95|299:157,1,184,2|0,0:0|0:0,0:0:0:0:
413,347,17316,1,8,0:0:0:0:
185,142,17483,1,0,0:0:0:0:
187,160,17566,1,0,0:0:0:0:
189,178,17649,1,2,0:0:0:0:
401,195,17816,5,0,0:0:0:0:
236,51,17983,1,8,0:0:0:0:
191,272,18149,1,0,0:0:0:0:
292,296,18316,6,0,L|287:158,1,138,2|0,0:0|0:0,0:0:0:0:
287,158,18649,2,0,P|241:162|195:161,1,92,8|0,0:0|0:0,0:0:0:0:
16,137,18983,5,2,0:0:0:0:
167,257,19149,1,0,0:0:0:0:
237,71,19316,1,8,0:0:0:0:
107,354,19483,6,0,P|171:292|261:294,1,184,2|0,0:0|0:0,0:0:0:0:
140,149,19983,1,8,0:0:0:0:
355,359,20149,2,0,P|357:314|362:268,1,92,0|2,0:0|0:0,0:0:0:0:
230,90,20483,5,0,0:0:0:0:
240,110,20566,1,0,0:0:0:0:
243,131,20649,2,0,P|243:153|240:176,1,46,8|0,0:0|0:0,0:0:0:0:
457,224,20816,2,0,P|456:246|459:269,1,46,0|0,0:0|0:0,0:0:0:0:
498,108,20983,6,0,P|409:103|349:169,1,184,4|8,0:0|0:0,0:0:0:0:
313,359,21483,1,0,0:0:0:0:
313,359,21566,1,0,0:0:0:0:
313,359,21649,1,2,0:0:0:0:
457,224,21816,1,0,0:0:0:0:
283,89,21983,1,8,0:0:0:0:
277,256,22149,6,0,P|322:265|367:271,1,92,4|0,0:0|0:0,0:0:0:0:
166,222,22483,1,0,0:0:0:0:
189,337,22649,6,0,P|144:326|98:321,1,92,8|0,0:0|0:0,0:0:0:0:
80,320,22899,1,8,0:0:0:0:
61,322,22983,2,0,P|54:276|53:230,1,92,8|0,0:0|0:0,0:0:0:0:
123,130,23316,1,0,3:0:0:0:
35,65,23483,1,8,3:0:0:0:
233,113,23649,6,0,P|284:110|366:178,1,138,4|0,0:0|0:0,0:0:0:0:
382,173,23983,2,0,P|384:128|400:81,1,92,0|0,3:0|3:0,0:0:0:0:
480,149,24316,1,2,0:0:0:0:
282,328,24483,6,0,P|280:272|264:220,1,110.399996630859,4|0,0:0|0:0,0:0:0:0:
32,265,24983,6,0,B|103:251|92:301|163:291,1,138,4|0,0:0|0:0,0:0:0:0:
184,278,25316,2,0,P|179:323|166:373,1,92,0|0,3:0|3:0,0:0:0:0:
146,189,25649,1,2,0:0:0:0:
264,220,25816,6,0,P|252:164|257:110,1,110.399996630859,4|0,0:0|0:0,0:0:0:0:
400,43,26316,6,0,P|361:98|358:167,1,138,4|8,0:0|0:0,0:0:0:0:
366,180,26649,1,8,0:0:0:0:
426,272,26816,2,0,P|471:260|517:260,1,92,0|2,3:0|0:0,0:0:0:0:
255,110,27149,6,0,P|194:106|144:81,1,110.399996630859,4|0,0:0|0:0,0:0:0:0:
150,84,27566,1,8,0:0:0:0:
150,84,27649,6,0,P|131:122|128:172,1,92,12|8,0:0|0:0,0:0:0:0:
143,193,27899,1,8,0:0:0:0:
143,193,27983,1,8,0:0:0:0:
293,260,28149,1,0,3:0:0:0:
293,260,28483,6,0,B|201:231|210:316|119:288,1,184,4|0,0:0|0:0,0:0:0:0:
34,319,28899,1,0,0:0:0:0:
34,319,28983,6,0,P|31:286|27:254,1,64.399998034668,4|0,0:0|0:0,0:0:0:0:
143,193,29316,2,0,P|145:160|149:128,1,64.399998034668,8|0,0:0|0:0,0:0:0:0:
59,87,29649,1,2,0:0:0:0:
239,169,29816,1,2,0:0:0:0:
139,28,29983,1,0,0:0:0:0:
356,204,30149,6,0,P|293:203|239:169,1,128.799996069336,8|0,0:0|0:0,0:0:0:0:
323,114,30649,2,0,P|371:113|417:101,1,96.599997052002,8|0,0:0|0:0,0:0:0:0:
417,101,30983,2,0,P|417:68|423:37,1,64.399998034668,2|0,0:0|0:0,0:0:0:0:
453,192,31316,2,0,P|452:224|446:255,1,64.399998034668,8|0,0:0|0:0,0:0:0:0:
371,292,31649,6,0,P|433:301|482:345,2,128.799996069336,2|8|2,0:0|0:0|0:0,0:0:0:0:
286,332,32483,1,0,0:0:0:0:
285,331,32816,6,0,P|279:299|278:267,1,64.399998034668,8|0,0:0|0:0,0:0:0:0:
344,194,33149,1,0,0:0:0:0:
190,299,33316,1,8,0:0:0:0:
371,292,33483,1,0,0:0:0:0:
136,189,33649,6,0,L|215:196,1,64.399998034668,8|0,0:0|0:0,0:0:0:0:
507,238,33983,2,0,L|442:232,1,64.399998034668,8|0,0:0|0:0,0:0:0:0:
310,35,34316,6,0,P|318:65|319:98,1,64.399998034668,2|0,0:0|0:0,0:0:0:0:
222,83,34649,2,0,P|170:46|106:40,1,128.799996069336,8|2,0:0|0:0,0:0:0:0:
131,221,35149,1,0,0:0:0:0:
72,149,35316,2,0,P|102:137|138:133,1,64.399998034668,8|0,0:0|0:0,0:0:0:0:
231,201,35649,6,0,P|224:232|222:265,1,64.399998034668,2|0,0:0|0:0,0:0:0:0:
328,347,35983,2,0,L|322:250,1,96.599997052002,8|0,0:0|0:0,0:0:0:0:
322,250,36316,2,0,P|353:258|385:263,1,64.399998034668,2|0,0:0|0:0,0:0:0:0:
231,201,36649,2,0,P|199:192|168:188,1,64.399998034668,8|0,0:0|0:0,0:0:0:0:
300,34,36983,5,2,0:0:0:0:
300,34,37149,1,0,0:0:0:0:
300,34,37316,2,0,P|325:76|314:167,1,128.799996069336,8|2,0:0|0:0,0:0:0:0:
328,314,37816,2,0,P|324:283|323:250,1,64.399998034668,2|8,0:0|0:0,0:0:0:0:
95,137,38149,6,0,P|158:132|214:101,1,128.799996069336,4|0,0:0|0:0,0:0:0:0:
214,101,38649,2,0,P|209:135|199:163,1,64.399998034668,8|0,0:0|0:0,0:0:0:0:
423,278,38983,2,0,P|427:243|437:215,1,64.399998034668,2|8,0:0|0:0,0:0:0:0:
445,205,39233,1,8,0:0:0:0:
454,196,39316,1,8,0:0:0:0:
292,225,39483,1,8,0:0:0:0:
292,225,39566,1,8,0:0:0:0:
292,225,39649,6,0,P|229:253|161:256,1,138,4|0,0:0|0:0,0:0:0:0:
161,256,39983,2,0,P|151:301|148:347,1,92,8|0,0:0|0:0,0:0:0:0:
424,367,40316,2,0,P|399:328|380:286,1,92,8|0,0:0|0:0,0:0:0:0:
374,53,40649,2,0,P|417:70|463:77,1,92,8|0,0:0|0:0,0:0:0:0:
271,150,40983,6,0,P|206:127|137:120,1,138,8|0,0:0|0:0,0:0:0:0:
137,120,41316,2,0,P|126:75|125:29,1,92,8|0,0:0|0:0,0:0:0:0:
222,264,41649,2,0,P|232:308|233:354,1,92,8|0,0:0|3:0,0:0:0:0:
379,198,41983,2,0,P|380:152|390:107,1,92,8|0,0:0|0:0,0:0:0:0:
2,142,42316,6,0,P|70:139|137:120,1,138,8|0,0:0|0:0,0:0:0:0:
137,119,42649,2,0,P|144:74|158:30,1,92,8|0,0:0|0:0,0:0:0:0:
116,296,42983,2,0,P|72:311|28:322,1,92,8|0,0:0|0:0,0:0:0:0:
274,224,43316,2,0,P|309:253|340:287,1,92,8|0,0:0|0:0,0:0:0:0:
489,43,43649,6,0,P|422:26|354:37,1,138,8|0,0:0|0:0,0:0:0:0:
354,36,43983,2,0,P|362:81|366:127,1,92,8|0,0:0|0:0,0:0:0:0:
195,288,44316,2,0,P|187:242|182:196,1,92,8|0,0:0|3:0,0:0:0:0:
261,129,44649,1,8,0:0:0:0:
275,231,44816,1,0,0:0:0:0:
99,213,44983,6,0,B|191:182|181:257|275:231,1,184,8|8,0:0|0:0,0:0:0:0:
275,231,45483,1,0,0:0:0:0:
442,23,45649,5,8,1:2:0:0:
245,136,45816,1,8,1:2:0:0:
468,298,45983,1,8,1:2:0:0:
511,201,46316,6,0,P|422:204|366:273,1,184,8|8,0:0|0:0,0:0:0:0:
211,110,46983,5,8,1:2:0:0:
468,298,47149,1,8,1:2:0:0:
145,221,47316,1,8,1:2:0:0:
273,304,47649,6,0,P|266:267|263:231,1,73.6,4|0,0:0|0:0,0:0:0:0:
266,220,47899,1,0,0:0:0:0:
270,209,47983,1,2,0:0:0:0:
89,57,48149,2,0,P|161:59|214:108,1,147.2,4|2,3:0|0:0,0:0:0:0:
214,108,48649,2,0,P|251:107|287:101,1,73.6,4|0,3:0|0:0,0:0:0:0:
384,66,48983,5,2,0:0:0:0:
120,149,49149,1,4,3:0:0:0:
206,207,49316,1,0,0:0:0:0:
302,9,49483,1,0,3:0:0:0:
296,18,49566,1,0,3:0:0:0:
292,28,49649,2,0,P|287:64|286:101,1,73.6,4|0,3:0|0:0,0:0:0:0:
222,314,49983,2,0,P|220:258|205:206,1,110.4,8|0,0:0|0:0,0:0:0:0:
206,207,50316,6,0,P|171:207|113:199,1,73.6,4|0,0:0|0:0,0:0:0:0:
121,201,50566,1,0,0:0:0:0:
110,198,50649,1,2,0:0:0:0:
286,101,50816,2,0,P|322:96|415:156,1,147.2,4|2,3:0|0:0,0:0:0:0:
412,152,51316,2,0,P|400:186|396:223,1,73.6,4|0,3:0|0:0,0:0:0:0:
330,360,51649,5,2,0:0:0:0:
494,207,51816,1,4,3:0:0:0:
412,152,51983,1,0,0:0:0:0:
267,267,52149,1,0,3:0:0:0:
281,268,52233,1,0,3:0:0:0:
294,268,52316,2,0,P|330:264|366:255,1,73.6,0|0,3:0|0:0,0:0:0:0:
181,178,52649,2,0,P|134:159|69:155,1,110.4,8|0,0:0|3:0,0:0:0:0:
74,155,52983,6,0,P|79:191|77:228,1,73.6,4|0,0:0|0:0,0:0:0:0:
77,242,53233,1,0,0:0:0:0:
73,256,53316,1,4,3:0:0:0:
185,325,53483,2,0,L|180:177,1,147.2,8|4,0:0|3:0,0:0:0:0:
180,177,53983,2,0,P|216:184|253:186,1,73.6,8|0,0:0|0:0,0:0:0:0:
102,249,54316,5,4,3:0:0:0:
233,96,54483,1,8,0:0:0:0:
326,269,54649,1,2,0:0:0:0:
94,31,54816,1,0,3:0:0:0:
102,42,54899,1,0,3:0:0:0:
106,56,54983,2,0,P|110:92|110:129,1,73.6,8|0,0:0|0:0,0:0:0:0:
229,304,55316,2,0,P|229:249|247:197,1,110.4,8|0,0:0|0:0,0:0:0:0:
247,197,55649,6,0,P|283:194|320:189,1,73.6,4|0,0:0|0:0,0:0:0:0:
512,118,55983,1,2,0:0:0:0:
395,262,56149,1,8,0:0:0:0:
272,99,56316,1,0,0:0:0:0:
420,162,56483,1,2,0:0:0:0:
282,306,56649,6,0,P|282:260|276:214,1,92,8|0,0:0|0:0,0:0:0:0:
414,70,56983,2,0,P|413:115|419:161,1,92,4|8,0:0|0:0,0:0:0:0:
186,267,57316,1,0,0:0:0:0:
507,224,57482,1,2,0:0:0:0:
311,112,57649,1,8,0:0:0:0:
507,115,57816,5,0,3:0:0:0:
507,115,57899,1,0,3:0:0:0:
507,115,57983,2,0,P|479:118|452:124,1,55.1999983154297,0|0,3:0|0:0,0:0:0:0:
235,176,58149,2,0,P|207:172|180:166,1,55.1999983154297,0|0,3:0|3:0,0:0:0:0:
384,38,58316,6,0,B|347:83|347:83|360:189,1,165.599994946289,4|0,0:0|0:0,0:0:0:0:
391,284,58649,2,0,L|335:287,1,55.1999983154297,8|0,0:0|0:0,0:0:0:0:
245,293,58816,1,0,0:0:0:0:
452,123,58983,5,8,0:0:0:0:
370,378,59149,1,2,0:0:0:0:
217,198,59483,6,0,B|311:175|293:252|390:232,1,184,4|0,0:0|0:0,0:0:0:0:
119,251,59983,2,0,P|117:206|108:160,1,92,8|0,0:0|0:0,0:0:0:0:
373,89,60316,2,0,P|368:111|365:134,2,46,2|0|0,0:0|0:0|0:0,0:0:0:0:
426,224,60649,1,8,0:0:0:0:
244,41,60816,5,0,3:0:0:0:
245,54,60899,1,0,3:0:0:0:
246,67,60983,1,8,0:0:0:0:
158,342,61149,1,8,0:0:0:0:
426,224,61316,1,8,0:0:0:0:
147,64,61483,1,12,0:0:0:0:
471,126,62316,6,0,P|373:124|318:208,1,184,4|8,0:0|0:0,0:0:0:0:
55,49,62816,2,0,P|99:60|145:62,1,92,0|2,0:0|0:0,0:0:0:0:
243,15,63149,5,0,0:0:0:0:
89,159,63316,1,8,0:0:0:0:
198,249,63483,2,0,P|198:203|194:157,1,92,2|0,0:0|0:0,0:0:0:0:
146,63,63816,5,0,0:0:0:0:
300,213,63983,1,8,0:0:0:0:
350,85,64149,1,0,0:0:0:0:
347,100,64233,1,0,0:0:0:0:
347,115,64316,1,2,0:0:0:0:
443,14,64483,5,0,0:0:0:0:
251,97,64649,1,8,0:0:0:0:
422,213,64816,1,0,0:0:0:0:
34,49,64983,6,0,P|99:28|168:28,1,138,2|0,0:0|0:0,0:0:0:0:
168,28,65316,2,0,P|157:72|154:118,1,92,8|0,0:0|3:0,0:0:0:0:
224,338,65649,5,2,0:0:0:0:
66,163,65816,1,0,0:0:0:0:
251,97,65983,1,8,0:0:0:0:
185,244,66149,5,0,0:0:0:0:
189,225,66233,1,0,0:0:0:0:
193,207,66316,1,2,0:0:0:0:
121,331,66483,1,0,0:0:0:0:
287,245,66649,1,8,0:0:0:0:
80,123,66816,1,0,3:0:0:0:
80,123,66899,1,0,3:0:0:0:
80,123,66983,6,0,P|87:168|89:214,1,92,2|0,0:0|0:0,0:0:0:0:
378,300,67316,2,0,P|385:254|387:208,1,92,8|0,0:0|0:0,0:0:0:0:
504,28,67649,6,0,P|414:23|350:85,1,184,4|8,0:0|0:0,0:0:0:0:
281,237,68149,1,0,3:0:0:0:
279,218,68233,1,0,3:0:0:0:
277,199,68316,1,2,0:0:0:0:
453,127,68483,1,0,0:0:0:0:
190,231,68649,1,8,0:0:0:0:
369,73,68816,1,0,3:0:0:0:
369,73,68899,1,0,3:0:0:0:
369,73,68983,6,0,P|361:104|359:136,1,64.399998034668,2|0,0:0|0:0,0:0:0:0:
426,298,69316,2,0,P|377:241|303:231,1,151.800004632569,8|0,0:0|3:0,0:0:0:0:
212,281,69649,6,0,P|204:249|202:217,1,64.399998034668,0|2,3:0|0:0,0:0:0:0:
236,79,69983,2,0,P|178:127|104:128,1,151.800004632569,8|0,0:0|0:0,0:0:0:0:
25,68,70316,6,0,P|15:113|12:158,1,92,4|0,0:0|0:0,0:0:0:0:
140,35,70649,1,8,0:0:0:0:
269,203,70816,2,0,P|259:158|256:113,1,92,4|2,0:0|0:0,0:0:0:0:
140,35,71149,1,0,0:0:0:0:
360,143,71316,1,8,0:0:0:0:
141,252,71483,1,0,0:0:0:0:
340,42,71649,5,8,0:0:0:0:
107,153,71816,1,4,3:0:0:0:
124,146,71899,1,4,3:0:0:0:
142,145,71983,1,4,3:0:0:0:
340,42,72149,6,0,P|326:81|323:128,1,82.7999974731446,4|0,0:0|0:0,0:0:0:0:
237,261,72483,2,0,P|234:233|228:203,1,55.1999983154297,8|0,0:0|0:0,0:0:0:0:
56,15,72816,6,0,P|145:10|209:72,1,184,4|0,0:0|0:0,0:0:0:0:
119,235,73316,1,8,0:0:0:0:
314,21,73483,1,0,0:0:0:0:
314,21,73566,1,0,0:0:0:0:
314,21,73649,1,2,0:0:0:0:
105,108,73816,5,0,0:0:0:0:
221,297,73983,1,8,0:0:0:0:
338,124,74149,2,0,P|292:119|247:108,1,92,2|0,0:0|0:0,0:0:0:0:
113,353,74483,5,0,0:0:0:0:
198,199,74649,1,8,0:0:0:0:
314,365,74816,1,0,3:0:0:0:
311,351,74899,1,0,3:0:0:0:
311,337,74983,1,2,0:0:0:0:
85,148,75149,5,0,0:0:0:0:
221,297,75316,1,8,0:0:0:0:
266,92,75483,1,0,0:0:0:0:
151,219,75649,6,0,P|195:207|246:202,1,92,2|0,0:0|0:0,0:0:0:0:
492,258,75983,2,0,B|401:231|406:308|314:281,1,184,8|2,0:0|0:0,0:0:0:0:
460,351,76483,1,0,0:0:0:0:
347,183,76649,2,0,P|345:137|338:91,1,92,8|2,0:0|0:0,0:0:0:0:
80,43,76983,5,2,0:0:0:0:
252,143,77149,1,0,0:0:0:0:
79,235,77316,1,8,0:0:0:0:
159,114,77483,1,0,3:0:0:0:
158,132,77566,1,0,3:0:0:0:
157,150,77649,1,2,0:0:0:0:
240,41,77816,1,0,0:0:0:0:
79,234,77983,6,0,P|152:182|241:194,1,184,8|4,0:0|0:0,0:0:0:0:
241,194,78483,2,0,P|231:239|228:285,1,92,0|8,0:0|0:0,0:0:0:0:
512,232,78816,2,0,B|424:202|429:279|335:250,1,184,2|0,0:0|0:0,0:0:0:0:
481,319,79316,1,8,0:0:0:0:
359,63,79649,6,0,P|369:107|372:153,1,92,4|0,0:0|0:0,0:0:0:0:
292,232,79983,1,8,0:0:0:0:
105,71,80149,2,0,P|195:65|267:120,1,184,2|0,0:0|0:0,0:0:0:0:
182,310,80649,2,0,P|180:264|175:218,1,92,8|0,0:0|0:0,0:0:0:0:
172,204,80899,1,0,0:0:0:0:
166,191,80983,5,4,0:0:0:0:
297,315,81149,1,0,0:0:0:0:
109,376,81316,1,8,0:0:0:0:
372,133,81483,5,2,0:0:0:0:
86,262,81649,1,8,0:0:0:0:
412,371,81816,1,0,3:0:0:0:
412,371,81899,1,0,3:0:0:0:
411,371,81983,2,0,P|413:325|422:279,1,92,0|2,3:0|0:0,0:0:0:0:
66,138,82316,5,8,0:0:0:0:
297,315,82483,1,8,0:0:0:0:
338,33,82649,1,8,0:0:0:0:
441,74,83649,5,4,0:0:0:0:
292,227,83816,1,0,0:0:0:0:
147,109,83983,1,8,0:0:0:0:
179,317,84149,6,0,P|179:271|175:225,1,92,2|0,0:0|0:0,0:0:0:0:
338,33,84483,2,0,P|337:78|341:124,1,92,2|0,0:0|0:0,0:0:0:0:
449,288,84816,6,0,P|381:228|291:226,1,184,4|0,0:0|0:0,0:0:0:0:
54,117,85316,2,0,P|100:116|146:108,1,92,8|0,0:0|0:0,0:0:0:0:
335,35,85649,5,2,0:0:0:0:
182,203,85816,1,0,0:0:0:0:
84,21,85983,2,0,P|61:18|38:14,2,46,0|0|0,3:0|3:0|3:0,0:0:0:0:
246,80,86316,5,8,0:0:0:0:
246,80,86483,1,8,0:0:0:0:
82,211,86983,5,8,0:0:0:0:
82,211,87149,1,8,0:0:0:0:
426,211,87483,6,0,B|347:192|353:262|268:243,1,165.599994946289,12|0,0:0|0:0,0:0:0:0:
171,265,87816,2,0,P|176:237|179:210,1,55.1999983154297,0|0,3:0|3:0,0:0:0:0:
132,122,87983,1,4,0:0:0:0:
256,192,88066,12,0,89399,0:0:0:0:
