osu file format v14

[General]
AudioFilename: audio.mp3
AudioLeadIn: 0
PreviewTime: 61733
Countdown: 1
SampleSet: Soft
StackLeniency: 0.7
Mode: 0
LetterboxInBreaks: 0
WidescreenStoryboard: 1

[Editor]
DistanceSpacing: 1.3
BeatDivisor: 4
GridSize: 16
TimelineZoom: 2.2

[Metadata]
Title:Tokimeki Experience! (TV Size)
TitleUnicode:ときめきエクスペリエンス! (TV Size)
Artist:Poppin'Party
ArtistUnicode:Poppin'Party
Creator:Nitrous
Version:Underdogs' Insane
Source:BanG Dream!
Tags:バンドリ!ガールズバンドパーティ! bandori Girls Band Party garupa opening Toyama Kasumi Hanazono Tae Ushigome Rimi Yamabuki Saaya Ichigaya Arisa Aimi Otsuka Sae Nishimoto Rimi Ohashi Ayaka Itou Ayasa 愛美 大塚紗英 牛込 りみ 山吹 沙綾 市ヶ谷 有咲 山吹 沙綾 市ヶ谷 有咲 花園 たえ 戸山 香澄 牛込 りみ Underdogs Kibbleru
BeatmapID:1399400
BeatmapSetID:658952

[Difficulty]
HPDrainRate:5
CircleSize:4
OverallDifficulty:7
ApproachRate:8.8
SliderMultiplier:1.5
SliderTickRate:1

[Events]
//Background and Video events
0,0,"bg.jpg",0,0
Video,0,"op.mp4"
//Break Periods
//Storyboard Layer 0 (Background)
//Storyboard Layer 1 (Fail)
//Storyboard Layer 2 (Pass)
//Storyboard Layer 3 (Foreground)
//Storyboard Sound Samples

[TimingPoints]
-350,333.333333333333,4,2,1,70,1,0
983,-133.333333333333,4,2,1,70,0,0
6316,-100,4,2,1,80,0,0
28983,-125,4,2,1,60,0,0
39649,-100,4,2,1,70,0,0
45649,-100,4,2,0,70,0,0
46316,-100,4,2,1,70,0,0
46983,-100,4,2,0,70,0,0
47649,-100,4,2,1,70,0,0
62316,-83.3333333333333,4,2,1,80,0,1
72483,-83.3333333333333,4,2,1,80,0,0
72816,-83.3333333333333,4,2,1,80,0,1
82316,-83.3333333333333,4,2,1,80,0,0
83649,-83.3333333333333,4,2,1,80,0,1
86316,-83.3333333333333,4,2,1,80,0,0
87983,-83.3333333333333,4,2,1,80,0,1
88066,-83.3333333333333,4,2,1,80,0,0
89399,-83.3333333333333,4,2,1,5,0,0

[Colours]
Combo1 : 255,39,79
Combo2 : 64,87,227
Combo3 : 68,197,39
Combo4 : 255,132,0

[HitObjects]
85,225,983,6,0,P|67:187|154:217,1,225.000008583069,4|0,0:0|0:0,0:0:0:0:
169,361,1983,2,0,L|176:294,1,56.2500021457673,0|0,0:0|0:0,0:0:0:0:
285,321,2316,2,0,L|269:197,1,112.500004291535,4|0,0:0|0:0,0:0:0:0:
243,114,2816,2,0,P|296:111|354:157,1,112.500004291535,4|12,3:0|3:0,0:0:0:0:
354,248,3316,1,4,3:0:0:0:
270,206,3483,1,0,0:0:0:0:
344,142,3649,6,0,B|350:111|350:111|343:73,1,56.2500021457673,4|0,0:0|0:0,0:0:0:0:
258,23,3983,2,0,B|252:54|252:54|259:92,1,56.2500021457673,0|0,0:0|0:0,0:0:0:0:
184,156,4316,2,0,L|85:150,2,84.3750032186509,4|0|0,0:0|0:0|0:0,0:0:0:0:
185,258,4983,6,0,P|165:218|203:140,1,112.500004291535,4|0,0:0|0:0,0:0:0:0:
342,233,5483,1,0,0:0:0:0:
258,326,5649,2,0,L|255:374,2,28.1250010728836,8|8|8,0:0|0:0|0:0,0:0:0:0:
241,207,5983,1,8,0:0:0:0:
362,322,6149,1,8,0:0:0:0:
446,198,6316,6,0,L|434:115,1,75,4|0,0:0|0:0,0:0:0:0:
341,36,6649,1,8,0:0:0:0:
332,174,6816,2,0,P|287:185|213:117,1,150,2|0,0:0|0:0,0:0:0:0:
103,60,7316,2,0,L|18:65,1,75,8|0,0:0|0:0,0:0:0:0:
126,263,7649,6,0,L|229:274,1,75,4|0,0:0|0:0,0:0:0:0:
310,344,7983,1,8,0:0:0:0:
447,246,8149,2,0,L|436:91,1,150,2|0,0:0|0:0,0:0:0:0:
314,42,8649,2,0,L|300:122,1,75,8|0,0:0|0:0,0:0:0:0:
225,267,8983,6,0,L|212:193,1,75,4|0,0:0|0:0,0:0:0:0:
334,236,9316,1,8,0:0:0:0:
271,343,9483,2,0,P|217:357|146:299,1,150,2|0,0:0|3:0,0:0:0:0:
21,244,9983,1,4,3:0:0:0:
132,284,10149,1,8,3:0:0:0:
151,132,10316,5,8,0:0:0:0:
160,140,11649,5,4,0:0:0:0:
289,124,11816,1,0,0:0:0:0:
422,106,11983,1,8,0:0:0:0:
422,106,12149,2,0,L|344:51,1,75,2|0,0:0|0:0,0:0:0:0:
337,228,12483,2,0,L|423:187,1,75,0|8,0:0|0:0,0:0:0:0:
269,66,12816,6,0,P|233:131|265:199,1,150,4|0,0:0|0:0,0:0:0:0:
405,196,13316,1,4,0:0:0:0:
77,269,13983,1,2,0:0:0:0:
77,269,14316,2,0,P|129:263|186:304,1,112.5,12|0,0:0|3:0,0:0:0:0:
220,337,14649,6,0,B|206:293|206:293|226:209,1,112.5,0|0,3:0|3:0,0:0:0:0:
246,211,14983,2,0,L|234:149,2,37.5,0|0|0,3:0|0:0|3:0,0:0:0:0:
352,291,15316,1,0,3:3:0:0:
388,298,15399,1,0,3:0:0:0:
424,291,15482,1,0,3:0:0:0:
455,270,15566,1,0,3:0:0:0:
468,242,15649,6,0,L|463:146,1,75,4|0,0:0|0:0,0:0:0:0:
379,70,15983,2,0,L|375:144,1,75,8|0,0:0|0:0,0:0:0:0:
291,226,16316,2,0,L|205:214,2,75,2|0|8,0:0|0:0|0:0,0:0:0:0:
176,285,16816,6,0,P|143:243|184:141,1,150,2|0,0:0|0:0,0:0:0:0:
240,35,17316,2,0,L|232:115,1,75,8|0,0:0|0:0,0:0:0:0:
257,221,17649,1,2,0:0:0:0:
257,221,17816,1,0,0:0:0:0:
157,148,17983,2,0,P|122:135|79:134,1,75,8|0,0:0|0:0,0:0:0:0:
84,133,18316,6,0,L|239:109,2,150,2|8|2,0:0|0:0|0:0,0:0:0:0:
40,229,19149,1,0,0:0:0:0:
145,274,19316,1,8,0:0:0:0:
85,355,19483,6,0,B|183:365|183:365|232:329,1,150,2|0,0:0|0:0,0:0:0:0:
285,231,19983,1,8,0:0:0:0:
369,324,20149,2,0,L|366:377,2,37.5,0|0|2,0:0|0:0|0:0,0:0:0:0:
474,253,20483,1,0,0:0:0:0:
424,145,20649,2,0,L|433:51,1,75,8|0,0:0|0:0,0:0:0:0:
306,33,20983,6,0,P|259:41|229:139,1,150,4|8,0:0|0:0,0:0:0:0:
300,216,21483,1,0,0:0:0:0:
296,104,21649,2,0,L|137:83,1,150,2|8,0:0|0:0,0:0:0:0:
51,215,22149,6,0,L|210:194,1,150,4|0,0:0|0:0,0:0:0:0:
286,249,22649,1,8,0:0:0:0:
197,360,22816,1,0,0:0:0:0:
197,360,22899,1,8,0:0:0:0:
197,360,22983,2,0,L|190:271,1,75,8|0,0:0|0:0,0:0:0:0:
291,323,23316,2,0,L|284:234,1,75,0|8,3:0|3:0,0:0:0:0:
370,147,23649,6,0,P|403:190|369:277,1,150,4|0,0:0|3:0,0:0:0:0:
292,110,24149,2,0,P|317:78|359:66,1,75,0|2,3:0|0:0,0:0:0:0:
323,206,24483,2,0,P|259:205|192:135,1,150,4|0,0:0|0:0,0:0:0:0:
56,63,24983,5,4,0:0:0:0:
84,161,25149,1,0,0:0:0:0:
169,65,25316,1,0,3:0:0:0:
199,148,25483,2,0,L|199:236,1,75,0|2,3:0|0:0,0:0:0:0:
257,332,25816,2,0,P|321:343|381:269,1,150,4|0,0:0|0:0,0:0:0:0:
306,148,26316,6,0,L|301:270,1,112.5,4|8,0:0|0:0,0:0:0:0:
301,260,26649,1,8,0:0:0:0:
404,207,26816,2,0,P|448:208|485:222,1,75,0|2,3:0|0:0,0:0:0:0:
372,104,27149,2,0,P|332:75|221:115,1,150,4|0,0:0|0:0,0:0:0:0:
223,109,27566,1,8,0:0:0:0:
208,129,27649,6,0,L|198:48,1,75,12|8,0:0|0:0,0:0:0:0:
198,54,27899,2,0,L|172:88,1,37.5,8|8,0:0|0:0,0:0:0:0:
123,179,28149,1,0,3:0:0:0:
123,178,28483,2,0,B|249:159|249:159|299:189,1,150,4|0,0:0|0:0,0:0:0:0:
140,287,28983,6,0,P|112:239|132:165,1,120,4|8,0:0|0:0,0:0:0:0:
200,91,29483,1,0,0:0:0:0:
79,46,29649,2,0,L|-5:52,2,60,2|2|0,0:0|0:0|0:0,0:0:0:0:
200,91,30149,6,0,P|238:99|313:51,1,120,8|0,0:0|0:0,0:0:0:0:
421,52,30649,2,0,L|412:126,1,60,8|0,0:0|0:0,0:0:0:0:
328,185,30983,1,2,0:0:0:0:
328,185,31149,1,0,0:0:0:0:
316,55,31316,1,8,0:0:0:0:
415,111,31483,1,0,0:0:0:0:
233,122,31649,6,0,P|179:115|117:171,1,120,2|8,0:0|0:0,0:0:0:0:
190,352,32316,1,2,0:0:0:0:
247,279,32483,1,0,0:0:0:0:
201,198,32649,1,2,0:0:0:0:
190,349,32816,6,0,P|251:368|321:329,1,120,8|0,0:0|0:0,0:0:0:0:
385,271,33316,2,0,L|464:284,1,60,8|0,0:0|0:0,0:0:0:0:
335,106,33649,1,8,0:0:0:0:
508,179,33983,1,8,0:0:0:0:
275,171,34316,6,0,P|253:133|268:52,1,120,2|8,0:0|0:0,0:0:0:0:
358,196,34816,1,0,3:0:0:0:
241,259,34983,2,0,L|163:244,1,60,2|0,0:0|0:0,0:0:0:0:
88,197,35316,2,0,P|90:155|114:124,1,60,8|0,0:0|0:0,0:0:0:0:
100,291,35649,6,0,P|55:286|0:217,1,120,2|8,0:0|0:0,0:0:0:0:
88,197,36149,1,0,0:0:0:0:
193,281,36316,2,0,L|199:365,1,60
283,245,36649,1,8,0:0:0:0:
202,163,36816,1,0,0:0:0:0:
361,172,36983,6,0,L|356:93,1,60,2|0,0:0|0:0,0:0:0:0:
436,48,37316,2,0,L|443:125,1,60,8|0,0:0|0:0,0:0:0:0:
452,221,37649,1,2,0:0:0:0:
362,260,37816,1,2,0:0:0:0:
375,168,37983,1,8,0:0:0:0:
356,353,38149,6,0,P|306:338|269:258,1,120,4|0,0:0|0:0,0:0:0:0:
153,200,38649,2,0,L|229:205,1,60,8|0,0:0|0:0,0:0:0:0:
331,105,38983,2,0,L|255:110,1,60,2|8,0:0|0:0,0:0:0:0:
271,108,39233,1,8,0:0:0:0:
271,108,39316,1,8,0:0:0:0:
401,222,39483,1,8,0:0:0:0:
412,27,39649,6,0,L|240:30,1,150,4|8,0:0|0:0,0:0:0:0:
0,149,40316,2,0,L|172:152,1,150,8|8,0:0|0:0,0:0:0:0:
410,212,40983,1,8,0:0:0:0:
186,235,41316,1,8,0:0:0:0:
282,49,41649,1,8,0:0:0:0:
349,319,41983,2,0,L|259:315,1,75,8|0,0:0|0:0,0:0:0:0:
103,110,42316,6,0,P|153:92|234:169,1,150,8|8,0:0|0:0,0:0:0:0:
192,296,42983,1,8,0:0:0:0:
143,242,43149,1,0,0:0:0:0:
162,172,43316,1,8,0:0:0:0:
229,143,43483,1,0,0:0:0:0:
296,207,43649,6,0,B|401:200|401:200|424:143,1,150,8|8,0:0|0:0,0:0:0:0:
290,30,44316,2,0,B|185:37|185:37|162:94,1,150,8|8,0:0|0:0,0:0:0:0:
179,182,44816,1,0,0:0:0:0:
127,287,44983,6,0,L|41:278,1,75,8|0,0:0|0:0,0:0:0:0:
281,343,45316,2,0,L|195:334,1,75,8|0,0:0|0:0,0:0:0:0:
96,335,45649,1,8,1:2:0:0:
154,247,45816,1,8,1:2:0:0:
207,342,45983,2,0,L|281:349,1,75,8|0,1:2|0:0,0:0:0:0:
414,299,46316,6,0,P|392:252|283:251,1,150,8|8,0:0|0:0,0:0:0:0:
97,97,46983,1,8,1:2:0:0:
72,184,47149,1,8,1:2:0:0:
220,176,47316,2,0,L|211:90,1,75,8|0,0:2|0:0,0:0:0:0:
11,254,47649,6,0,P|48:276|144:244,1,150,4|2,0:0|0:0,0:0:0:0:
130,70,48149,2,0,P|92:91|72:190,1,150,4|2,3:0|0:0,0:0:0:0:
229,260,48649,2,0,P|229:216|153:149,1,150,4|2,3:0|0:0,0:0:0:0:
11,254,49149,6,0,P|47:276|144:243,1,150,4|0,3:0|3:0,0:0:0:0:
241,168,49649,2,0,L|237:89,1,75,4|0,3:0|0:0,0:0:0:0:
360,60,49983,2,0,L|356:134,1,75,8|0,0:0|0:0,0:0:0:0:
334,258,50316,5,4,0:0:0:0:
334,258,50649,1,2,0:0:0:0:
334,258,50816,2,0,B|300:294|300:294|403:332,1,150,4|2,3:0|0:0,0:0:0:0:
247,172,51316,2,0,B|295:183|295:183|276:75,1,150,4|2,3:0|0:0,0:0:0:0:
192,279,51816,6,0,B|177:231|177:231|93:301,1,150,4|0,3:0|3:0,0:0:0:0:
100,295,52233,1,0,3:0:0:0:
100,295,52316,1,0,3:0:0:0:
199,368,52483,1,0,0:0:0:0:
106,320,52649,1,8,0:0:0:0:
370,289,52983,5,4,0:0:0:0:
462,79,53316,1,4,3:0:0:0:
360,120,53483,2,0,P|319:132|262:50,1,150,8|4,0:0|3:0,0:0:0:0:
313,205,53983,2,0,P|247:182|193:114,1,150,8|4,0:0|3:0,0:0:0:0:
23,110,54483,6,0,L|106:120,1,75,8|2,0:0|0:0,0:0:0:0:
156,212,54816,1,0,3:0:0:0:
54,191,54983,1,8,0:0:0:0:
54,191,55149,1,0,0:0:0:0:
151,56,55316,1,8,0:0:0:0:
126,323,55649,6,0,B|186:314|186:314|286:329,1,150,4|2,0:0|0:0,0:0:0:0:
389,268,56149,1,8,0:0:0:0:
284,206,56316,1,0,0:0:0:0:
363,358,56483,1,2,0:0:0:0:
470,255,56649,2,0,L|452:171,1,75,8|0,0:0|0:0,0:0:0:0:
299,73,56983,6,0,P|343:93|443:26,1,150,4|0,0:0|0:0,0:0:0:0:
224,30,57483,1,2,0:0:0:0:
307,173,57649,1,8,0:0:0:0:
121,135,57816,2,0,L|130:84,1,37.5,0|0,3:0|3:0,0:0:0:0:
80,212,57983,2,0,L|50:169,1,37.5,0|0,3:0|0:0,0:0:0:0:
85,292,58149,2,0,L|34:283,1,37.5,0|0,3:0|3:0,0:0:0:0:
95,368,58316,6,0,P|140:349|156:257,1,150,4|8,0:0|0:0,0:0:0:0:
91,89,58816,1,0,0:0:0:0:
331,147,58983,1,8,0:0:0:0:
155,164,59149,1,2,0:0:0:0:
392,106,59483,6,0,P|404:158|330:221,1,150,4|0,0:0|0:0,0:0:0:0:
241,40,59983,2,0,L|227:126,1,75,8|0,0:0|0:0,0:0:0:0:
85,98,60316,2,0,L|99:184,1,75,2|0,0:0|0:0,0:0:0:0:
261,267,60649,1,8,0:0:0:0:
53,278,60816,1,0,3:0:0:0:
53,278,60899,1,0,3:0:0:0:
53,278,60983,5,8,0:0:0:0:
169,96,61149,1,8,0:0:0:0:
173,276,61316,1,8,0:0:0:0:
24,149,61483,1,12,0:0:0:0:
345,48,62316,6,0,P|334:118|348:150,1,89.9999972534181,4|0,0:0|0:0,0:0:0:0:
408,302,62649,2,0,P|419:232|405:200,1,89.9999972534181,8|0,0:0|0:0,0:0:0:0:
401,205,62899,1,0,0:0:0:0:
393,198,62983,1,2,0:0:0:0:
235,202,63149,1,0,0:0:0:0:
327,353,63316,2,0,L|313:253,1,89.9999972534181,8|2,0:0|0:0,0:0:0:0:
164,259,63649,6,0,P|200:290|245:295,1,89.9999972534181,0|0,0:0|0:0,0:0:0:0:
310,148,63983,2,0,P|274:117|229:112,1,89.9999972534181,8|0,0:0|0:0,0:0:0:0:
206,112,64233,1,0,0:0:0:0:
179,114,64316,2,0,L|190:20,1,89.9999972534181,2|0,0:0|0:0,0:0:0:0:
92,91,64649,1,8,0:0:0:0:
272,98,64816,1,0,0:0:0:0:
65,176,64983,6,0,B|63:226|63:226|81:259|81:259|82:323,1,134.999995880127,2|0,0:0|0:0,0:0:0:0:
101,333,65316,2,0,P|118:325|202:342,1,89.9999972534181,8|0,0:0|3:0,0:0:0:0:
272,376,65649,1,2,0:0:0:0:
345,308,65816,1,0,0:0:0:0:
313,211,65983,1,8,0:0:0:0:
217,248,66149,1,0,0:0:0:0:
401,217,66316,6,0,P|381:162|267:135,1,179.999994506836,2|8,0:0|0:0,0:0:0:0:
112,226,66816,1,0,3:0:0:0:
112,226,66899,1,0,3:0:0:0:
112,226,66983,2,0,L|212:224,1,89.9999972534181,2|0,0:0|0:0,0:0:0:0:
156,81,67316,2,0,L|56:79,1,89.9999972534181,8|0,0:0|0:0,0:0:0:0:
41,202,67649,6,0,P|41:250|155:288,1,179.999994506836,4|8,0:0|0:0,0:0:0:0:
186,87,68149,1,0,3:0:0:0:
186,87,68233,1,0,3:0:0:0:
186,87,68316,1,2,0:0:0:0:
142,178,68483,1,0,0:0:0:0:
252,240,68649,2,0,L|346:220,1,89.9999972534181,8|0,0:0|3:0,0:0:0:0:
397,327,68983,5,2,0:0:0:0:
397,327,69149,1,0,0:0:0:0:
340,221,69316,2,0,L|363:126,1,89.9999972534181,8|0,0:0|0:0,0:0:0:0:
470,244,69649,1,0,3:0:0:0:
470,244,69816,1,2,0:0:0:0:
361,133,69983,2,0,L|341:44,1,89.9999972534181,8|0,0:0|0:0,0:0:0:0:
126,152,70316,6,0,B|167:169|167:169|240:147,1,89.9999972534181,4|0,0:0|0:0,0:0:0:0:
217,43,70649,1,0,0:0:0:0:
65,99,70816,2,0,P|42:158|124:242,1,179.999994506836,4|2,0:0|0:0,0:0:0:0:
188,156,71316,1,8,0:0:0:0:
219,329,71483,1,0,0:0:0:0:
376,279,71649,5,8,0:0:0:0:
422,144,71816,1,4,3:0:0:0:
422,144,71899,1,4,3:0:0:0:
422,144,71983,1,4,3:0:0:0:
278,246,72149,5,4,0:0:0:0:
334,53,72483,5,8,0:0:0:0:
134,288,72816,6,0,P|77:267|74:159,1,179.999994506836,4|0,0:0|0:0,0:0:0:0:
175,60,73316,1,8,0:0:0:0:
138,213,73483,1,0,0:0:0:0:
138,213,73566,1,0,0:0:0:0:
138,213,73649,1,2,0:0:0:0:
9,72,73816,2,0,L|103:84,1,89.9999972534181,0|8,0:0|0:0,0:0:0:0:
218,168,74149,6,0,B|259:132|259:132|240:-3,1,179.999994506836
136,148,74649,1,8,0:0:0:0:
205,265,74816,1,0,3:0:0:0:
205,265,74899,1,0,3:0:0:0:
205,265,74983,1,2,0:0:0:0:
326,182,75149,1,0,0:0:0:0:
418,337,75316,2,0,P|363:342|321:324,1,89.9999972534181,8|0,0:0|0:0,0:0:0:0:
205,265,75649,6,0,B|84:254|84:254|23:291,1,179.999994506836,2|8,0:0|0:0,0:0:0:0:
167,356,76149,1,0,0:0:0:0:
298,257,76316,1,2,0:0:0:0:
285,167,76482,1,0,0:0:0:0:
196,79,76649,1,8,0:0:0:0:
183,169,76815,1,2,0:0:0:0:
329,81,76983,6,0,B|390:109|441:73|441:73|457:115|495:129,1,179.999994506836,2|8,0:0|0:0,0:0:0:0:
418,266,77483,1,0,3:0:0:0:
418,266,77566,1,0,3:0:0:0:
418,266,77649,2,0,L|414:159,1,89.9999972534181,2|0,0:0|0:0,0:0:0:0:
282,171,77983,1,8,0:0:0:0:
283,215,78066,1,0,0:0:0:0:
285,260,78149,1,0,0:0:0:0:
287,305,78232,1,0,0:0:0:0:
292,348,78316,6,0,L|195:330,1,89.9999972534181,4|0,0:0|0:0,0:0:0:0:
43,251,78649,1,8,0:0:0:0:
99,335,78816,2,0,P|139:285|102:168,1,179.999994506836,2|0,0:0|0:0,0:0:0:0:
86,36,79316,2,0,P|126:73|172:81,1,89.9999972534181,8|0,0:0|0:0,0:0:0:0:
317,134,79649,6,0,P|264:150|235:185,1,89.9999972534181,4|0,0:0|0:0,0:0:0:0:
271,313,79983,1,8,0:0:0:0:
393,224,80149,2,0,B|424:156|424:156|408:38,1,179.999994506836,2|0,0:0|0:0,0:0:0:0:
230,109,80649,2,0,L|336:139,1,89.9999972534181,8|0,0:0|0:0,0:0:0:0:
291,308,80983,5,4,0:0:0:0:
184,232,81149,1,0,0:0:0:0:
313,208,81316,1,8,0:0:0:0:
192,329,81483,1,2,0:0:0:0:
93,222,81649,2,0,L|101:113,1,89.9999972534181,8|0,0:0|3:0,0:0:0:0:
99,132,81899,1,0,3:0:0:0:
99,132,81983,1,0,3:0:0:0:
219,64,82149,1,2,0:0:0:0:
312,225,82316,5,8,0:0:0:0:
439,200,82483,1,8,0:0:0:0:
344,49,82649,1,8,0:0:0:0:
343,48,82983,2,0,L|486:33,2,134.999995880127
119,75,83649,6,0,L|214:94,1,89.9999972534181,4|0,0:0|0:0,0:0:0:0:
207,92,83899,1,0,0:0:0:0:
207,92,83983,1,8,0:0:0:0:
277,211,84149,1,2,0:0:0:0:
283,232,84483,1,2,0:0:0:0:
294,257,84816,6,0,L|112:252,1,179.999994506836,4|0,0:0|0:0,0:0:0:0:
159,353,85316,2,0,L|261:349,1,89.9999972534181,8|0,0:0|0:0,0:0:0:0:
205,158,85649,2,0,L|109:160,1,89.9999972534181,2|0,0:0|0:0,0:0:0:0:
159,359,85983,2,0,L|261:355,1,89.9999972534181,0|0,3:0|3:0,0:0:0:0:
205,169,86316,5,8,0:0:0:0:
115,170,86482,1,8,0:0:0:0:
120,150,86983,5,8,0:0:0:0:
210,151,87149,1,8,0:0:0:0:
383,58,87483,6,0,B|412:104|412:104|377:233,1,179.999994506836,12|0,0:0|3:0,0:0:0:0:
379,225,87899,1,0,3:0:0:0:
379,225,87983,1,4,0:0:0:0:
256,192,88149,12,0,89399,0:0:0:0:
