osu file format v14

[General]
AudioFilename: audio.mp3
AudioLeadIn: 0
PreviewTime: 61733
Countdown: 1
SampleSet: Soft
StackLeniency: 0.7
Mode: 0
LetterboxInBreaks: 0
WidescreenStoryboard: 1

[Editor]
DistanceSpacing: 1.3
BeatDivisor: 4
GridSize: 16
TimelineZoom: 2.2

[Metadata]
Title:Tokimeki Experience! (TV Size)
TitleUnicode:ときめきエクスペリエンス! (TV Size)
Artist:Poppin'Party
ArtistUnicode:Poppin'Party
Creator:Nitrous
Version:Insane
Source:BanG Dream!
Tags:バンドリ!ガールズバンドパーティ! bandori Girls Band Party garupa opening Toyama Kasumi Hanazono Tae Ushigome Rimi Yamabuki Saaya Ichigaya Arisa Aimi Otsuka Sae Nishimoto Rimi Ohashi Ayaka Itou Ayasa 愛美 大塚紗英 牛込 りみ 山吹 沙綾 市ヶ谷 有咲 山吹 沙綾 市ヶ谷 有咲 花園 たえ 戸山 香澄 牛込 りみ Underdogs Kibbleru
BeatmapID:1396591
BeatmapSetID:658952

[Difficulty]
HPDrainRate:6
CircleSize:4.2
OverallDifficulty:8.5
ApproachRate:9
SliderMultiplier:1.6
SliderTickRate:1

[Events]
//Background and Video events
0,0,"bg.jpg",0,0
Video,0,"op.mp4"
//Break Periods
//Storyboard Layer 0 (Background)
//Storyboard Layer 1 (Fail)
//Storyboard Layer 2 (Pass)
//Storyboard Layer 3 (Foreground)
//Storyboard Sound Samples

[TimingPoints]
-350,333.333333333333,4,2,1,70,1,0
483,-125,4,2,1,70,0,0
6316,-100,4,2,1,80,0,0
28983,-100,4,2,1,60,0,0
39649,-100,4,2,1,70,0,0
45649,-100,4,2,0,70,0,0
46316,-100,4,2,1,70,0,0
46983,-100,4,2,0,70,0,0
47649,-100,4,2,1,70,0,0
62316,-90.9090909090909,4,2,1,80,0,1
72483,-90.9090909090909,4,2,1,80,0,0
72816,-90.9090909090909,4,2,1,80,0,1
82316,-90.9090909090909,4,2,1,80,0,0
82983,-100,4,2,1,80,0,0
83649,-90.9090909090909,4,2,1,80,0,1
86316,-100,4,2,1,80,0,0
87983,-100,4,2,1,80,0,1
88066,-100,4,2,1,80,0,0
89399,-100,4,2,1,5,0,0

[Colours]
Combo1 : 255,39,79
Combo2 : 64,87,227
Combo3 : 68,197,39
Combo4 : 255,132,0

[HitObjects]
173,62,483,6,0,P|168:98|174:126,2,64
118,194,983,2,0,B|155:227|212:221|244:181|244:181|225:222|239:270|278:294,1,256,4|0,0:0|0:0,0:0:0:0:
317,157,1816,6,0,P|319:189|312:220,2,64
265,285,2316,2,0,B|296:304|348:305|370:272|370:272|355:309|364:349,1,192,4|4,0:0|3:0,0:0:0:0:
363,346,3149,1,12,3:0:0:0:
312,220,3316,2,0,P|339:200|375:193,1,64,4|0,3:0|0:0,0:0:0:0:
265,285,3649,6,0,L|137:280,1,128,4|0,0:0|0:0,0:0:0:0:
248,133,4316,2,0,L|376:138,1,128,4|0,0:0|0:0,0:0:0:0:
375,137,4816,1,0,0:0:0:0:
366,329,4983,6,0,P|306:333|263:274,1,128,4|0,0:0|0:0,0:0:0:0:
419,274,5483,1,0,0:0:0:0:
316,110,5649,1,8,0:0:0:0:
286,121,5732,1,8,0:0:0:0:
254,124,5815,1,8,0:0:0:0:
223,117,5898,1,0,0:0:0:0:
194,104,5982,1,8,0:0:0:0:
164,93,6065,1,8,0:0:0:0:
132,91,6148,1,8,0:0:0:0:
101,98,6232,1,0,0:0:0:0:
72,112,6316,6,0,P|62:152|69:194,1,80,4|0,0:0|0:0,0:0:0:0:
131,270,6649,1,8,0:0:0:0:
302,152,6816,2,0,B|192:144|192:144|133:159,1,160,2|0,0:0|0:0,0:0:0:0:
219,225,7316,2,0,L|298:230,1,80,8|0,0:0|0:0,0:0:0:0:
249,74,7649,6,0,L|170:69,1,80,4|0,0:0|0:0,0:0:0:0:
80,94,7983,1,8,0:0:0:0:
175,224,8149,2,0,B|188:191|170:150|170:150|151:108|175:52,1,160,2|0,0:0|0:0,0:0:0:0:
318,34,8649,2,0,P|280:22|233:28,1,80,8|0,0:0|0:0,0:0:0:0:
381,110,8983,6,0,P|419:122|466:116,1,80,4|0,0:0|0:0,0:0:0:0:
426,29,9316,1,8,0:0:0:0:
273,101,9483,2,0,B|281:142|281:142|276:182,1,80,2|0,0:0|0:0,0:0:0:0:
199,54,9816,1,0,3:0:0:0:
66,123,9983,2,0,B|149:120,1,80,4|8,3:0|3:0,0:0:0:0:
16,213,10316,5,8,0:0:0:0:
16,213,10983,2,0,P|99:194|133:208,2,120
202,319,11649,6,0,B|194:281|194:281|201:237,1,80,4|0,0:0|0:0,0:0:0:0:
254,158,11983,1,8,0:0:0:0:
142,73,12149,2,0,L|228:69,1,80,2|0,0:0|0:0,0:0:0:0:
104,152,12483,2,0,L|18:156,1,80,0|8,0:0|0:0,0:0:0:0:
227,223,12816,6,0,B|236:171|236:171|214:117|214:117|222:63,1,160,4|0,0:0|0:0,0:0:0:0:
297,265,13316,2,0,B|256:328|161:309|151:242|151:242|163:288|165:338|105:357,1,320,4|2,0:0|0:0,0:0:0:0:
227,223,14316,6,0,L|221:140,1,80,12|0,0:0|0:0,0:0:0:0:
296,70,14566,1,0,3:0:0:0:
296,70,14649,2,0,L|302:153,1,80,0|0,3:0|0:0,0:0:0:0:
301,149,14899,1,0,3:0:0:0:
301,149,14983,1,0,3:0:0:0:
220,48,15149,1,0,3:0:0:0:
220,48,15233,1,0,3:3:0:0:
220,48,15316,1,0,3:3:0:0:
376,45,15483,1,0,3:0:0:0:
376,45,15566,1,0,3:0:0:0:
376,45,15649,6,0,L|388:211,1,160,4|8,0:0|0:0,0:0:0:0:
319,288,16149,1,0,0:0:0:0:
238,204,16316,2,0,P|270:181|319:178,1,80,2|0,0:0|0:0,0:0:0:0:
408,223,16649,1,8,0:0:0:0:
168,283,16816,6,0,B|114:273|114:273|60:285|60:285|2:273,1,160,2|0,0:0|0:0,0:0:0:0:
117,350,17316,2,0,L|208:366,1,80,8|0,0:0|0:0,0:0:0:0:
137,201,17649,2,0,L|46:185,1,80,2|0,0:0|0:0,0:0:0:0:
230,134,17983,1,8,0:0:0:0:
72,106,18316,6,0,L|254:138,1,160,2|8,0:0|0:0,0:0:0:0:
331,97,18816,1,0,0:0:0:0:
302,264,18983,2,0,P|298:225|308:176,1,80,2|0,0:0|0:0,0:0:0:0:
409,158,19316,1,8,0:0:0:0:
375,338,19483,6,0,B|300:311|300:311|221:327,1,160,2|0,0:0|0:0,0:0:0:0:
169,191,19983,2,0,L|155:280,1,80,8|0,0:0|0:0,0:0:0:0:
328,232,20316,2,0,L|274:159,1,80,2|0,0:0|0:0,0:0:0:0:
262,320,20649,1,8,0:0:0:0:
280,167,20983,6,0,B|259:215|259:215|276:275|276:275|259:330,1,160,4|8,0:0|0:0,0:0:0:0:
262,318,21483,1,0,0:0:0:0:
344,220,21649,2,0,P|377:202|425:199,1,80,2|0,0:0|0:0,0:0:0:0:
406,287,21983,1,8,0:0:0:0:
190,276,22149,6,0,P|114:264|93:179,1,160,4|0,0:0|0:0,0:0:0:0:
266,239,22649,2,0,L|262:331,1,80,8|0,0:0|0:0,0:0:0:0:
262,318,22899,1,8,0:0:0:0:
262,318,22983,1,8,0:0:0:0:
201,181,23149,1,0,0:0:0:0:
346,218,23316,2,0,L|444:212,1,80,0|8,3:0|3:0,3:0:0:0:
289,54,23649,6,0,B|279:100|279:100|288:136,1,80,4|0,0:0|0:0,0:0:0:0:
430,105,23983,2,0,B|440:59|440:59|431:23,1,80,0|0,3:0|3:0,0:0:0:0:
366,153,24316,1,2,0:0:0:0:
83,95,24483,2,0,P|102:66|232:49,1,160,4|0,0:0|0:0,0:0:0:0:
178,202,24983,6,0,P|167:159|185:112,1,80,4|0,0:0|0:0,0:0:0:0:
310,219,25316,2,0,P|321:262|303:309,1,80,0|0,3:0|3:0,0:0:0:0:
248,165,25649,1,2,0:0:0:0:
486,68,25816,2,0,B|376:48|376:48|309:55,1,160,4|0,0:0|0:0,0:0:0:0:
421,187,26316,6,0,L|517:182,1,80,4|0,0:0|0:0,0:0:0:0:
500,182,26566,1,8,0:0:0:0:
500,182,26649,1,8,0:0:0:0:
328,231,26816,2,0,L|232:236,1,80,0|2,3:0|0:0,0:0:0:0:
57,103,27149,2,0,P|70:65|184:38,1,160,4|0,0:0|0:0,0:0:0:0:
175,33,27566,1,8,0:0:0:0:
175,33,27649,5,12,0:0:0:0:
105,167,27816,1,8,0:0:0:0:
105,167,27899,1,8,0:0:0:0:
105,167,27983,1,8,0:0:0:0:
279,150,28149,2,0,B|284:109|284:109|275:69,1,80,0|2,3:0|0:0,0:0:0:0:
171,260,28483,2,0,B|217:279|217:279|329:272,1,160,4|0,0:0|0:0,0:0:0:0:
205,62,28983,6,0,P|212:104|204:148,1,80,4|0,0:0|0:0,0:0:0:0:
91,143,29316,2,0,P|84:101|92:57,1,80,8|0,0:0|0:0,0:0:0:0:
149,191,29649,1,2,0:0:0:0:
25,194,29816,2,0,L|28:281,1,80,2|0,0:0|0:0,0:0:0:0:
149,191,30149,6,0,B|135:249|135:249|158:302|158:302|143:365,1,160,8|0,0:0|0:0,0:0:0:0:
218,241,30649,2,0,L|299:234,1,80,8|0,0:0|0:0,0:0:0:0:
79,309,30983,2,0,L|-2:302,1,80,2|0,0:0|0:0,0:0:0:0:
69,184,31316,2,0,L|150:191,1,80,8|0,0:0|0:0,0:0:0:0:
317,317,31649,6,0,P|327:282|324:239,1,80,2|0,0:0|0:0,0:0:0:0:
278,99,31983,1,8,0:0:0:0:
228,270,32149,1,0,3:0:0:0:
228,270,32233,1,0,3:0:0:0:
228,270,32316,2,0,L|149:262,1,80,2|0,0:0|0:0,0:0:0:0:
195,113,32649,1,2,0:0:0:0:
303,292,32816,6,0,P|406:264|417:220,1,160,8|0,0:0|0:0,0:0:0:0:
303,292,33316,2,0,P|295:331|304:369,1,80,8|0,0:0|0:0,0:0:0:0:
417,224,33649,2,0,L|512:221,1,80,8|0,0:0|0:0,0:0:0:0:
335,144,33983,2,0,L|240:147,1,80,8|0,0:0|0:0,0:0:0:0:
419,18,34316,6,0,P|434:59|428:108,1,80,2|0,0:0|0:0,0:0:0:0:
336,259,34649,1,8,0:0:0:0:
486,189,34816,1,0,3:0:0:0:
486,189,34899,1,0,3:0:0:0:
486,189,34983,2,0,L|399:184,1,80,2|0,0:0|0:0,0:0:0:0:
256,263,35316,2,0,L|343:258,1,80,8|0,0:0|0:0,0:0:0:0:
170,218,35649,6,0,B|162:178|162:178|168:138,1,80,2|0,0:0|0:0,0:0:0:0:
321,35,35983,2,0,B|329:75|329:75|323:115,1,80,8|0,0:0|0:0,0:0:0:0:
249,221,36316,2,0,L|149:216,1,80,2|0,0:0|0:0,0:0:0:0:
351,185,36649,1,8,0:0:0:0:
330,280,36816,1,0,0:0:0:0:
243,115,36983,6,0,L|333:113,1,80,2|0,0:0|0:0,0:0:0:0:
140,69,37316,2,0,L|50:71,1,80,8|0,0:0|0:0,0:0:0:0:
151,173,37649,1,2,0:0:0:0:
151,173,37816,2,0,P|133:213|132:252,1,80,2|8,0:0|0:0,0:0:0:0:
228,33,38149,6,0,B|276:22|276:22|403:32,1,160,4|0,0:0|0:0,0:0:0:0:
465,99,38649,2,0,L|459:188,1,80,8|0,0:0|0:0,0:0:0:0:
394,264,38983,1,2,0:0:0:0:
279,155,39149,1,8,0:0:0:0:
279,155,39233,1,8,0:0:0:0:
279,155,39316,1,8,0:0:0:0:
242,141,39399,1,0,0:0:0:0:
203,149,39482,1,8,0:0:0:0:
175,177,39566,1,8,0:0:0:0:
168,216,39649,6,0,L|77:213,1,80,4|0,0:0|0:0,0:0:0:0:
250,308,39983,2,0,B|258:271|258:271|251:229,1,80,8|0,0:0|0:0,0:0:0:0:
89,134,40316,2,0,B|81:171|81:171|88:213,1,80,8|0,0:0|0:0,0:0:0:0:
238,66,40649,2,0,L|329:63,1,80,8|0,0:0|0:0,0:0:0:0:
168,131,40983,6,0,L|77:134,1,80,8|0,0:0|0:0,0:0:0:0:
263,236,41316,2,0,P|271:194|262:151,1,80,8|0,0:0|0:0,0:0:0:0:
177,305,41649,1,8,0:0:0:0:
296,338,41816,1,0,3:0:0:0:
296,338,41899,1,0,3:0:0:0:
296,338,41983,2,0,L|400:334,1,80,8|0,0:0|0:0,0:0:0:0:
177,305,42316,6,0,L|73:309,1,80,8|0,0:0|0:0,0:0:0:0:
184,160,42649,2,0,L|288:156,1,80,8|0,0:0|0:0,0:0:0:0:
467,151,42983,2,0,P|475:111|464:69,1,80,8|0,0:0|0:0,0:0:0:0:
368,228,43316,2,0,P|360:268|371:310,1,80,8|0,0:0|0:0,0:0:0:0:
467,151,43649,6,0,B|428:143|428:143|386:148,1,80,8|0,0:0|0:0,0:0:0:0:
205,208,43983,2,0,B|244:216|244:216|286:211,1,80,8|0,0:0|0:0,0:0:0:0:
142,142,44316,1,8,0:0:0:0:
110,259,44483,1,0,3:0:0:0:
110,259,44566,1,0,3:0:0:0:
110,259,44649,2,0,L|116:338,1,80,8|0,0:0|0:0,0:0:0:0:
234,126,44983,6,0,B|222:86|222:86|228:47,1,80,8|0,0:0|0:0,0:0:0:0:
331,179,45316,2,0,B|340:224|340:224|337:258,1,80,8|0,0:0|0:0,0:0:0:0:
328,66,45649,2,0,L|324:15,1,40,8|0,1:2|0:0,0:0:0:0:
414,195,45816,2,0,L|417:236,1,40,8|0,1:2|0:0,0:0:0:0:
234,126,45983,2,0,B|192:122|192:122|146:128,1,80,8|0,1:2|0:0,0:0:0:0:
285,277,46316,6,0,B|327:283|327:283|373:275,1,80,8|0,0:0|0:0,0:0:0:0:
165,260,46649,2,0,P|139:294|134:338,1,80,8|0,0:0|0:0,0:0:0:0:
308,173,46983,2,0,L|305:124,1,40,8|0,1:2|0:0,0:0:0:0:
215,324,47149,2,0,L|218:373,1,40,8|0,1:2|0:0,0:0:0:0:
331,285,47316,2,0,L|424:282,1,80,8|0,1:2|0:0,0:0:0:0:
158,102,47649,6,0,P|78:73|75:49,1,120,4|0,0:0|0:0,0:0:0:0:
74,50,47983,1,2,0:0:0:0:
203,178,48149,2,0,B|285:158|285:158|328:164,1,120,4|0,3:0|0:0,0:0:0:0:
320,162,48483,1,2,0:0:0:0:
183,287,48649,2,0,P|125:248|128:193,1,120,4|0,3:0|0:0,0:0:0:0:
123,203,48983,5,2,0:0:0:0:
280,292,49149,2,0,L|278:375,1,80,4|0,3:0|0:0,0:0:0:0:
320,173,49483,1,0,3:0:0:0:
320,173,49566,1,0,3:0:0:0:
320,173,49649,2,0,L|238:170,1,80,4|0,3:0|0:0,0:0:0:0:
424,234,49983,2,0,L|506:237,1,80,8|0,0:0|0:0,0:0:0:0:
347,55,50316,6,0,L|214:51,1,120,4|0,0:0|0:0,0:0:0:0:
227,51,50649,1,2,0:0:0:0:
322,176,50816,1,4,3:0:0:0:
451,89,50983,1,0,0:0:0:0:
424,225,51149,1,2,0:0:0:0:
250,220,51316,1,4,3:0:0:0:
389,135,51483,1,0,0:0:0:0:
356,294,51649,5,2,0:0:0:0:
246,139,51816,1,4,3:0:0:0:
424,225,51983,1,0,0:0:0:0:
261,311,52149,1,0,3:0:0:0:
261,311,52233,1,0,3:0:0:0:
261,311,52316,2,0,L|175:311,1,80,0|0,3:0|0:0,0:0:0:0:
334,213,52649,1,8,0:0:0:0:
209,54,52816,1,0,3:0:0:0:
209,54,52899,1,0,3:0:0:0:
209,54,52983,6,0,P|190:97|243:169,1,120,4|0,0:0|0:0,0:0:0:0:
220,158,53316,1,4,3:0:0:0:
407,54,53483,2,0,B|321:27|321:27|278:33,1,120,8|0,0:0|0:0,0:0:0:0:
291,31,53816,1,4,3:0:0:0:
307,242,53983,2,0,L|298:118,1,120,8|0,0:0|0:0,0:0:0:0:
298,122,54316,5,4,3:0:0:0:
409,178,54483,1,8,0:0:0:0:
307,242,54649,1,2,0:0:0:0:
139,198,54816,1,0,3:0:0:0:
139,198,54899,1,0,3:0:0:0:
139,198,54983,2,0,P|179:183|233:190,1,80,8|0,0:0|0:0,0:0:0:0:
92,268,55316,2,0,P|52:283|-2:276,1,80,8|0,0:0|0:0,0:0:0:0:
127,36,55649,6,0,B|117:78|117:78|123:126,1,80,4|0,0:0|0:0,0:0:0:0:
215,184,55983,1,2,0:0:0:0:
348,111,56149,2,0,L|263:109,1,80,8|0,0:0|0:0,0:0:0:0:
269,110,56483,1,2,0:0:0:0:
419,171,56649,2,0,L|505:173,1,80,8|0,0:0|0:0,0:0:0:0:
288,262,56983,5,4,0:0:0:0:
107,313,57149,2,0,B|150:320|150:320|196:313,1,80,8|0,0:0|0:0,0:0:0:0:
288,262,57483,1,2,0:0:0:0:
147,112,57649,1,8,0:0:0:0:
219,159,57816,1,0,3:0:0:0:
216,190,57899,1,0,3:0:0:0:
213,222,57982,1,0,3:0:0:0:
183,34,58149,1,0,3:0:0:0:
183,34,58233,1,0,3:0:0:0:
183,34,58316,6,0,L|277:32,1,80,4|0,0:0|0:0,0:0:0:0:
147,112,58649,2,0,L|53:114,1,80,8|0,0:0|0:0,0:0:0:0:
219,159,58983,1,8,0:0:0:0:
355,45,59149,1,2,0:0:0:0:
358,199,59483,6,0,B|348:142|348:142|365:95|365:95|353:39,1,160,4|0,0:0|0:0,0:0:0:0:
431,153,59983,2,0,L|518:148,1,80,8|0,0:0|0:0,0:0:0:0:
279,91,60316,2,0,L|192:96,1,80,2|0,0:0|0:0,0:0:0:0:
306,258,60649,1,8,0:0:0:0:
408,60,60816,1,0,3:0:0:0:
408,60,60899,1,0,3:0:0:0:
408,60,60983,5,8,0:0:0:0:
233,192,61149,1,8,0:0:0:0:
270,41,61316,1,8,0:0:0:0:
405,224,61483,1,12,0:0:0:0:
404,223,61816,2,0,L|407:306,2,80
204,55,62316,6,0,P|89:67|66:121,1,176.000005371094,4|8,0:0|0:0,0:0:0:0:
266,119,62816,1,0,0:0:0:0:
154,212,62983,2,0,P|144:170|153:127,1,88.000002685547,2|0,0:0|0:0,0:0:0:0:
248,264,63316,1,8,0:0:0:0:
480,193,63483,6,0,B|418:203|418:203|361:184|361:184|298:196,1,176.000005371094,2|0,0:0|0:0,0:0:0:0:
345,284,63983,2,0,B|354:332|354:332|346:377,1,88.000002685547,8|0,0:0|0:0,0:0:0:0:
172,308,64316,2,0,B|163:260|163:260|171:215,1,88.000002685547,2|0,0:0|0:0,0:0:0:0:
287,58,64649,2,0,L|375:57,1,88.000002685547,8|0,0:0|0:0,0:0:0:0:
167,117,64983,6,0,L|79:118,1,88.000002685547,2|0,0:0|0:0,0:0:0:0:
199,37,65316,1,8,0:0:0:0:
266,154,65483,1,0,3:0:0:0:
266,154,65566,1,0,3:0:0:0:
266,154,65649,2,0,P|275:202|266:242,1,88.000002685547,2|0,0:0|0:0,0:0:0:0:
167,117,65983,1,8,0:0:0:0:
124,212,66149,1,0,0:0:0:0:
41,75,66316,6,0,L|37:166,1,88.000002685547,2|0,0:0|0:0,0:0:0:0:
86,289,66649,1,8,0:0:0:0:
273,266,66816,1,0,3:0:0:0:
273,266,66899,1,0,3:0:0:0:
273,266,66983,2,0,P|222:255|182:264,1,88.000002685547,2|0,0:0|0:0,0:0:0:0:
340,324,67316,2,0,P|391:335|431:326,1,88.000002685547,8|0,0:0|0:0,0:0:0:0:
181,154,67649,6,0,L|90:152,1,88.000002685547,4|0,0:0|0:0,0:0:0:0:
248,92,67983,1,8,0:0:0:0:
233,312,68149,1,0,3:0:0:0:
233,312,68233,1,0,3:0:0:0:
233,312,68316,2,0,B|223:261|223:261|231:212,1,88.000002685547,2|0,0:0|0:0,0:0:0:0:
339,175,68649,1,8,0:0:0:0:
157,77,68816,1,0,3:0:0:0:
157,77,68899,1,0,3:0:0:0:
157,77,68983,6,0,P|133:52|68:44,1,88.000002685547,2|0,0:0|0:0,0:0:0:0:
142,242,69316,2,0,L|242:222,1,88.000002685547,8|0,0:0|0:0,0:0:0:0:
228,224,69566,1,0,3:0:0:0:
228,224,69649,1,0,3:0:0:0:
72,183,69816,1,2,0:0:0:0:
308,268,69983,2,0,P|317:225|303:171,1,88.000002685547,8|0,0:0|0:0,0:0:0:0:
56,267,70316,6,0,P|80:303|128:332,1,88.000002685547,4|0,0:0|0:0,0:0:0:0:
72,183,70649,1,8,0:0:0:0:
189,157,70816,1,4,0:0:0:0:
123,25,70983,2,0,P|108:65|113:118,1,88.000002685547,2|0,0:0|0:0,0:0:0:0:
146,240,71316,2,0,L|235:237,1,88.000002685547,8|0,0:0|0:0,0:0:0:0:
395,163,71649,5,8,0:0:0:0:
348,271,71816,1,4,3:0:0:0:
349,306,71899,1,4,3:0:0:0:
351,341,71982,1,4,3:0:0:0:
260,112,72149,1,4,0:0:0:0:
260,112,72483,2,0,L|360:94,1,88.000002685547,8|0,0:0|0:0,0:0:0:0:
143,319,72816,6,0,B|158:262|158:262|133:198|133:198|153:136,1,176.000005371094,4|0,0:0|0:0,0:0:0:0:
259,40,73316,2,0,L|159:22,1,88.000002685547,8|0,0:0|0:0,0:0:0:0:
339,26,73649,1,2,0:0:0:0:
286,183,73816,1,0,0:0:0:0:
409,111,73983,1,8,0:0:0:0:
171,99,74149,6,0,P|97:110|54:198,1,176.000005371094,2|0,0:0|0:0,0:0:0:0:
247,118,74649,1,8,0:0:0:0:
149,270,74816,1,0,3:0:0:0:
149,270,74899,1,0,3:0:0:0:
149,270,74983,2,0,B|138:224|138:224|149:174,1,88.000002685547,2|0,0:0|0:0,0:0:0:0:
344,264,75316,2,0,B|355:310|355:310|344:360,1,88.000002685547,8|0,0:0|0:0,0:0:0:0:
247,118,75649,6,0,L|352:111,1,88.000002685547,2|0,0:0|0:0,0:0:0:0:
168,66,75983,2,0,L|63:73,1,88.000002685547,8|0,0:0|0:0,0:0:0:0:
258,35,76316,1,2,0:0:0:0:
166,239,76483,2,0,B|156:197|156:197|162:151,1,88.000002685547,0|8,0:0|0:0,0:0:0:0:
244,296,76816,1,2,0:0:0:0:
452,163,76983,6,0,B|330:128|330:128|268:136,1,176.000005371094,2|8,0:0|0:0,0:0:0:0:
330,304,77483,1,0,3:0:0:0:
330,304,77566,1,0,3:0:0:0:
330,304,77649,2,0,P|340:262|329:214,1,88.000002685547,2|0,0:0|0:0,0:0:0:0:
155,219,77983,2,0,P|145:261|156:309,1,88.000002685547,8|0,0:0|0:0,0:0:0:0:
245,82,78316,6,0,L|153:77,1,88.000002685547,4|0,0:0|0:0,0:0:0:0:
294,153,78649,1,8,0:0:0:0:
172,297,78816,2,0,P|137:309|64:212,1,176.000005371094,2|0,0:0|0:0,0:0:0:0:
247,280,79316,2,0,L|344:270,1,88.000002685547,8|0,0:0|0:0,0:0:0:0:
149,226,79649,6,0,L|52:216,1,88.000002685547,4|0,0:0|0:0,0:0:0:0:
172,297,79983,1,8,0:0:0:0:
234,35,80149,2,0,B|219:88|219:88|239:151|239:151|223:223,1,176.000005371094,2|0,0:0|0:0,0:0:0:0:
315,348,80649,2,0,L|306:256,1,88.000002685547,8|0,0:0|0:0,0:0:0:0:
405,45,80983,6,0,L|396:132,1,88.000002685547,4|0,0:0|0:0,0:0:0:0:
227,204,81316,1,8,0:0:0:0:
303,117,81483,1,2,0:0:0:0:
378,251,81649,1,8,0:0:0:0:
199,331,81816,1,0,3:0:0:0:
199,331,81899,1,0,3:0:0:0:
199,331,81983,1,0,3:0:0:0:
305,221,82149,1,2,0:0:0:0:
40,141,82316,5,8,0:0:0:0:
246,59,82483,1,8,0:0:0:0:
121,300,82649,1,8,0:0:0:0:
121,300,82983,2,0,B|104:218|104:218|120:169,2,120
364,115,83649,6,0,P|342:82|205:80,1,176.000005371094,4|8,0:0|0:0,0:0:0:0:
416,201,84149,2,0,L|511:194,1,88.000002685547,2|0,0:0|0:0,0:0:0:0:
273,146,84483,2,0,L|175:138,1,88.000002685547,2|0,0:0|0:0,0:0:0:0:
335,366,84816,6,0,B|345:314|345:314|323:246|323:246|339:184,1,176.000005371094,4|0,0:0|0:0,0:0:0:0:
235,271,85316,2,0,L|247:371,1,88.000002685547,8|0,0:0|0:0,0:0:0:0:
423,292,85649,2,0,L|435:192,1,88.000002685547,2|0,0:0|0:0,0:0:0:0:
286,73,85983,1,0,3:0:0:0:
243,62,86066,1,0,3:0:0:0:
201,72,86149,1,0,3:0:0:0:
159,84,86232,1,0,3:0:0:0:
117,70,86316,5,8,0:0:0:0:
405,46,86483,1,8,0:0:0:0:
416,67,86983,5,8,0:0:0:0:
75,127,87149,1,8,0:0:0:0:
234,138,87483,6,0,L|59:125,1,160,12|0,0:0|3:0,0:0:0:0:
74,126,87899,1,0,3:0:0:0:
74,126,87983,1,4,0:0:0:0:
256,192,88066,12,0,89399,0:0:0:0:
