osu file format v14

[General]
AudioFilename: audio.mp3
AudioLeadIn: 0
PreviewTime: 61733
Countdown: 1
SampleSet: Soft
StackLeniency: 0.7
Mode: 0
LetterboxInBreaks: 0
WidescreenStoryboard: 1

[Editor]
DistanceSpacing: 1
BeatDivisor: 2
GridSize: 16
TimelineZoom: 1

[Metadata]
Title:Tokimeki Experience! (TV Size)
TitleUnicode:ときめきエクスペリエンス! (TV Size)
Artist:Poppin'Party
ArtistUnicode:Poppin'Party
Creator:Nitrous
Version:Easy
Source:BanG Dream!
Tags:バンドリ!ガールズバンドパーティ! bandori Girls Band Party garupa opening Toyama Kasumi Hanazono Tae Ushigome Rimi Yamabuki Saaya Ichigaya Arisa Aimi Otsuka Sae Nishimoto Rimi Ohashi Ayaka Itou Ayasa 愛美 大塚紗英 牛込 りみ 山吹 沙綾 市ヶ谷 有咲 山吹 沙綾 市ヶ谷 有咲 花園 たえ 戸山 香澄 牛込 りみ Underdogs Kibbleru
BeatmapID:1399603
BeatmapSetID:658952

[Difficulty]
HPDrainRate:2
CircleSize:2.3
OverallDifficulty:3
ApproachRate:4
SliderMultiplier:0.9
SliderTickRate:1

[Events]
//Background and Video events
0,0,"bg.jpg",0,0
Video,0,"op.mp4"
//Break Periods
//Storyboard Layer 0 (Background)
//Storyboard Layer 1 (Fail)
//Storyboard Layer 2 (Pass)
//Storyboard Layer 3 (Foreground)
//Storyboard Sound Samples

[TimingPoints]
-350,333.333333333333,4,2,1,70,1,0
6316,-100,4,2,1,80,0,0
28983,-100,4,2,1,60,0,0
39649,-100,4,2,1,70,0,0
45649,-100,4,2,0,70,0,0
46316,-100,4,2,1,70,0,0
46983,-100,4,2,0,70,0,0
47649,-100,4,2,1,70,0,0
62316,-100,4,2,1,80,0,1
72483,-100,4,2,1,80,0,0
72816,-100,4,2,1,80,0,1
82316,-100,4,2,1,80,0,0
83649,-100,4,2,1,80,0,1
86316,-100,4,2,1,80,0,0
87983,-100,4,2,1,80,0,1
88066,-100,4,2,1,80,0,0
89399,-100,4,2,1,5,0,0

[Colours]
Combo1 : 255,39,79
Combo2 : 64,87,227
Combo3 : 68,197,39
Combo4 : 255,132,0

[HitObjects]
189,164,983,6,0,B|231:147|271:167|271:167|288:120|331:95|391:94|432:146,1,270,4|0,0:0|0:0,0:0:0:0:
356,195,2316,2,0,P|372:252|343:334,2,135,4|4|4,0:0|3:0|3:0,0:0:0:0:
307,119,3649,6,0,B|254:117|254:117|192:77|192:77|127:76,1,180,4|4,0:0|0:0,0:0:0:0:
48,79,4649,1,0,0:0:0:0:
22,165,4983,2,0,P|65:292|114:292,1,180,4|8,0:0|0:0,0:0:0:0:
169,257,5983,1,8,0:0:0:0:
249,297,6316,6,0,B|343:288|343:288|390:258,2,135,4|2|8,0:0|0:0|0:0,0:0:0:0:
169,257,7649,2,0,B|77:251|77:251|19:275,2,135,4|2|8,0:0|0:0|0:0,0:0:0:0:
245,208,8983,6,0,B|238:112|238:112|217:65,1,135,4|2,0:0|0:0,0:0:0:0:
132,73,9816,2,0,L|124:133,1,45,0|4,3:0|3:0,0:0:0:0:
57,176,10316,1,8,0:0:0:0:
57,176,11649,6,0,P|81:148|190:144,1,135,4|2,0:0|0:0,0:0:0:0:
257,169,12483,1,0,0:0:0:0:
321,105,12816,2,0,L|325:259,1,135,4|4,0:0|0:0,0:0:0:0:
183,351,13983,1,2,0:0:0:0:
109,299,14316,6,0,L|7:296,1,90,12|0,0:0|3:0,0:0:0:0:
22,206,14983,2,0,L|124:209,1,90,0|0,3:0|3:3,0:0:0:0:
199,187,15649,6,0,P|208:143|200:96,1,90,4|8,0:0|0:0,0:0:0:0:
135,37,16316,2,0,B|223:26|223:26|273:35,1,135,2|2,0:0|0:0,0:0:0:0:
353,64,17149,2,0,L|357:128,1,45,0|8,0:0|0:0,0:0:0:0:
445,108,17649,2,0,L|443:211,1,90,2|8,0:0|0:0,0:0:0:0:
399,277,18316,6,0,B|352:269|352:269|306:277,1,90,2|8,0:0|0:0,0:0:0:0:
249,342,18983,2,0,P|220:276|247:210,1,135,2|2,0:0|0:0,0:0:0:0:
276,137,19816,2,0,L|271:85,1,45,0|8,0:0|0:0,0:0:0:0:
188,56,20316,2,0,L|172:167,1,90,2|8,0:0|0:0,0:0:0:0:
85,153,20983,6,0,L|93:264,1,90,4|8,0:0|0:0,0:0:0:0:
152,309,21649,2,0,B|196:319|196:319|298:301,1,135,2|4,0:0|0:0,0:0:0:0:
374,290,22483,2,0,L|379:349,1,45,0|8,0:0|0:0,0:0:0:0:
467,346,22983,2,0,L|459:256,1,90,8|0,0:0|3:0,0:0:0:0:
386,203,23649,6,0,B|295:197|295:197|229:214,1,135,4|0,0:0|3:0,0:0:0:0:
170,246,24483,1,4,0:0:0:0:
39,213,24983,2,0,P|19:129|47:82,1,135,4|0,0:0|3:0,0:0:0:0:
98,21,25816,1,4,0:0:0:0:
215,87,26316,6,0,L|361:79,1,135,4|0,0:0|3:0,0:0:0:0:
426,125,27149,1,4,0:0:0:0:
462,254,27649,2,0,P|459:290|376:347,1,135,12|0,0:0|3:0,0:0:0:0:
296,359,28483,1,4,0:0:0:0:
168,313,28983,6,0,B|161:268|161:268|167:220,1,90,4|8,0:0|0:0,0:0:0:0:
210,145,29649,2,0,L|350:135,2,135,2|8|8,0:0|0:0|0:0,0:0:0:0:
155,73,30983,2,0,P|109:66|66:75,1,90,2|8,0:0|0:0,0:0:0:0:
19,150,31649,6,0,L|24:249,1,90,2|8,0:0|0:0,0:0:0:0:
111,260,32316,2,0,L|109:215,1,45,2|0,0:0|0:0,0:0:0:0:
191,178,32816,2,0,P|256:170|313:204,1,135,8|8,0:0|0:0,0:0:0:0:
401,222,33649,2,0,L|403:129,1,90,8|8,0:0|0:0,0:0:0:0:
328,81,34316,5,2,0:0:0:0:
256,134,34649,2,0,P|190:158|100:86,1,180,8|8,0:0|0:0,0:0:0:0:
118,10,35649,1,2,0:0:0:0:
193,60,35983,2,0,B|195:192|195:192|220:250,1,180,8|8,0:0|0:0,0:0:0:0:
254,316,36983,5,2,0:0:0:0:
343,305,37316,2,0,L|484:293,1,135,8|2,0:0|0:0,0:0:0:0:
479,203,38149,2,0,L|338:191,1,135,4|8,0:0|0:0,0:0:0:0:
265,235,38983,2,0,B|256:190|256:190|266:145,1,90,2|8,0:0|0:0,0:0:0:0:
305,66,39649,5,4,0:0:0:0:
225,24,39983,2,0,B|115:16|115:16|32:45,1,180,8|8,0:0|0:0,0:0:0:0:
92,118,40983,2,0,P|126:177|77:287,1,180,8|8,0:0|0:0,0:0:0:0:
33,346,41983,1,8,0:0:0:0:
121,363,42316,6,0,L|301:342,1,180,8|8,0:0|0:0,0:0:0:0:
386,366,43316,1,8,0:0:0:0:
451,303,43649,2,0,B|461:250|461:250|448:192|448:192|468:110,1,180,8|8,0:0|0:0,0:0:0:0:
373,122,44649,1,8,0:0:0:0:
317,52,44983,6,0,P|242:13|158:67,1,180,8|8,0:0|1:2,0:0:0:0:
196,139,45983,1,8,1:2:0:0:
106,127,46316,2,0,B|58:120|58:120|13:126,1,90,8|8,0:0|0:0,0:0:0:0:
14,215,46983,2,0,B|62:222|62:222|107:216,1,90,8|8,1:2|1:2,0:0:0:0:
184,178,47649,5,4,0:0:0:0:
258,126,47983,2,0,B|252:180|252:180|276:244|276:244|258:327,1,180,2|4,0:0|3:0,0:0:0:0:
181,337,48983,2,0,L|72:328,1,90,2|0,0:0|0:0,0:0:0:0:
89,239,49649,2,0,L|198:248,1,90,4|8,3:0|0:0,0:0:0:0:
259,286,50316,5,4,0:0:0:0:
344,259,50649,2,0,P|344:125|297:102,1,180,2|4,0:0|3:0,0:0:0:0:
242,61,51649,2,0,P|195:54|143:63,1,90,2|0,0:0|0:0,0:0:0:0:
149,149,52316,2,0,P|196:156|248:147,1,90,0|8,3:0|0:0,0:0:0:0:
319,111,52983,5,4,0:0:0:0:
378,43,53316,2,0,L|383:241,1,180,4|8,3:0|0:0,0:0:0:0:
292,231,54316,2,0,B|301:278|301:278|291:344,1,90,4|2,3:0|0:0,0:0:0:0:
204,320,54983,2,0,B|195:273|195:273|205:207,1,90,8|8,0:0|0:0,0:0:0:0:
252,157,55649,5,4,0:0:0:0:
315,92,55983,2,0,P|235:122|147:86,1,180,2|8,0:0|0:0,0:0:0:0:
60,79,56983,1,4,0:0:0:0:
8,152,57316,2,0,B|1:196|1:196|12:271,2,90,0|8|0,0:0|0:0|3:0,0:0:0:0:
60,79,58316,6,0,L|162:75,2,90,4|8|8,0:0|0:0|0:0,0:0:0:0:
256,192,59483,12,4,60983,0:0:0:0:
445,293,62316,6,0,P|404:298|339:231,1,135,4|0,0:0|0:0,0:0:0:0:
367,152,63149,1,0,0:0:0:0:
314,78,63483,2,0,B|273:65|273:65|173:74,1,135,2|8,0:0|0:0,0:0:0:0:
102,116,64316,2,0,B|112:160|112:160|102:217,1,90,2|8,0:0|0:0,0:0:0:0:
53,278,64983,6,0,P|95:241|221:260,1,180,2|2,0:0|0:0,0:0:0:0:
288,299,65983,1,8,0:0:0:0:
376,280,66316,2,0,P|384:237|375:189,1,90,2|8,0:0|0:0,0:0:0:0:
295,150,66983,2,0,P|287:105|295:61,1,90,2|8,0:0|0:0,0:0:0:0:
372,16,67649,5,4,0:0:0:0:
378,105,67983,2,0,L|495:99,2,90,8|2|8,0:0|0:0|0:0,0:0:0:0:
294,61,68983,1,2,0:0:0:0:
214,103,69316,2,0,L|108:98,1,90,8|0,0:0|3:0,0:0:0:0:
118,188,69983,1,8,0:0:0:0:
208,192,70316,6,0,P|237:256|204:342,2,135,4|4|8,0:0|0:0|0:0,0:0:0:0:
134,142,71649,2,0,L|274:129,1,135,8|4,0:0|0:0,0:0:0:0:
351,94,72483,1,8,0:0:0:0:
439,109,72816,6,0,P|475:187|433:280,1,180,4|0,0:0|0:0,0:0:0:0:
371,323,73816,1,0,0:0:0:0:
301,265,74149,2,0,B|211:253|211:253|152:264,1,135,2|8,0:0|0:0,0:0:0:0:
92,312,74983,2,0,P|77:267|90:216,1,90,2|8,0:0|0:0,0:0:0:0:
157,173,75649,6,0,P|164:129|149:87,1,90,2|8,0:0|0:0,0:0:0:0:
67,49,76316,2,0,P|59:92|74:134,1,90,2|8,0:0|0:0,0:0:0:0:
157,173,76983,2,0,B|217:157|217:157|272:173|272:173|343:153,1,180,2|2,0:0|0:0,0:0:0:0:
400,100,77983,1,8,0:0:0:0:
471,154,78316,6,0,B|483:246|483:246|464:284,2,135,4|2|8,0:0|0:0|0:0,0:0:0:0:
387,188,79649,2,0,B|295:200|295:200|257:181,2,135,4|2|8,0:0|0:0|0:0,0:0:0:0:
383,97,80983,6,0,B|475:85|475:85|513:104,2,135,4|2|0,0:0|0:0|3:0,0:0:0:0:
298,128,82316,2,0,B|241:117,2,45,8|8|8,0:0|0:0|0:0,0:0:0:0:
298,128,83649,6,0,P|318:194|288:264,1,135,4|2,0:0|0:0,0:0:0:0:
217,296,84483,1,2,0:0:0:0:
274,364,84816,2,0,B|367:365|367:365|414:344,1,135,4|8,0:0|0:0,0:0:0:0:
465,281,85649,2,0,P|474:236|466:185,1,90,2|0,0:0|3:0,0:0:0:0:
390,147,86316,6,0,L|395:82,1,45,8|8,0:0|0:0,0:0:0:0:
267,52,86983,2,0,L|262:117,1,45,8|8,0:0|0:0,0:0:0:0:
303,177,87483,2,0,B|259:189|259:189|216:175|216:175|171:187,1,135,8|4,0:0|0:0,0:0:0:0:
256,192,88149,12,0,89399,0:0:0:0:
