osu file format v14

[General]
AudioFilename: audio.mp3
AudioLeadIn: 0
PreviewTime: 61733
Countdown: 0
SampleSet: Soft
StackLeniency: 0.7
Mode: 2
LetterboxInBreaks: 0
WidescreenStoryboard: 1

[Editor]
DistanceSpacing: 3.4
BeatDivisor: 4
GridSize: 32
TimelineZoom: 1.3

[Metadata]
Title:Tokimeki Experience! (TV Size)
TitleUnicode:ときめきエクスペリエンス! (TV Size)
Artist:Poppin'Party
ArtistUnicode:Poppin'Party
Creator:Dapuluous
Version:Xetopia's Overdose!
Source:BanG Dream!
Tags:バンドリ!ガールズバンドパーティ! bandori Girls Band Party garupa opening Toyama Kasumi Hanazono Tae Ushigome Rimi Yamabuki Saaya Ichigaya Arisa Aimi Otsuka Sae Nishimoto Rimi Ohashi Ayaka Itou Ayasa 愛美 大塚紗英 牛込 りみ 山吹 沙綾 市ヶ谷 有咲 山吹 沙綾 市ヶ谷 有咲 花園 たえ 戸山 香澄 牛込 りみ Xetopia
BeatmapID:1978635
BeatmapSetID:898031

[Difficulty]
HPDrainRate:7
CircleSize:4.4
OverallDifficulty:9.3
ApproachRate:9.3
SliderMultiplier:2.02
SliderTickRate:2

[Events]
//Background and Video events
0,0,"59.jpeg",0,0
Video,0,"op.mp4"
//Break Periods
//Storyboard Layer 0 (Background)
//Storyboard Layer 1 (Fail)
//Storyboard Layer 2 (Pass)
//Storyboard Layer 3 (Foreground)
//Storyboard Sound Samples

[TimingPoints]
-350,333.333333333333,4,2,1,40,1,0
483,-133.333333333333,4,2,1,40,0,0
3316,-111.111111111111,4,2,1,40,0,0
5649,-100,4,2,1,50,0,0
6316,-100,4,2,1,60,0,0
11649,-100,4,2,1,60,0,0
15316,-86.9565217391304,4,2,1,60,0,0
15649,-100,4,2,1,60,0,0
28983,-100,4,2,1,50,0,0
39649,-100,4,2,1,60,0,0
47649,-100,4,2,1,50,0,0
55649,-100,4,2,1,50,0,0
62316,-100,4,2,1,75,0,1
71649,-100,4,2,1,60,0,0
72816,-100,4,2,1,75,0,1
82649,-100,4,2,1,60,0,0
88149,-100,4,2,1,45,0,0
89316,-100,4,2,1,5,0,0

[Colours]
Combo1 : 159,159,255
Combo2 : 255,145,91
Combo3 : 255,255,128
Combo4 : 255,128,128

[HitObjects]
233,30,983,6,0,B|160:50|131:119|178:189|245:182|245:182|333:170|370:238|385:333|244:331,1,530.250020227433,4|0,0:0|0:0,0:0:0:0:
83,281,2316,2,0,L|77:128,1,151.500005779267,4|0,0:0|0:0,0:0:0:0:
253,77,2816,2,0,L|428:81,1,151.500005779267,8|0,0:0|0:0,0:0:0:0:
232,170,3316,2,0,L|131:174,1,90.8999972259522,8|0,0:0|0:0,0:0:0:0:
380,333,3649,6,0,P|436:305|370:235,1,181.799994451904,4|0,0:0|0:0,0:0:0:0:
170,85,4316,2,0,L|316:83,2,136.349995838928,4|0|0,0:0|0:0|0:0,0:0:0:0:
403,176,4983,6,0,L|218:182,1,181.799994451904,4|0,0:0|0:0,0:0:0:0:
315,134,5483,1,0,0:0:0:0:
60,326,5649,1,8,0:0:0:0:
33,273,5732,1,8,0:0:0:0:
53,218,5815,1,8,0:0:0:0:
107,195,5898,1,8,0:0:0:0:
290,334,5983,2,0,L|355:331,1,50.5,8|8,0:0|0:0,0:0:0:0:
172,251,6149,2,0,L|242:249,1,50.5,8|8,0:0|0:0,0:0:0:0:
478,42,6316,6,0,L|276:44,1,202,4|8,0:0|0:0,0:0:0:0:
412,134,6816,2,0,L|303:134,1,101,2|0,0:0|0:0,0:0:0:0:
80,250,7149,1,0,0:0:0:0:
361,328,7316,2,0,L|472:329,1,101,8|0,0:0|0:0,0:0:0:0:
199,282,7649,6,0,P|153:213|233:136,1,202,4|8,0:0|0:0,0:0:0:0:
85,58,8149,2,0,L|206:57,1,101,2|0,0:0|0:0,0:0:0:0:
421,52,8483,1,0,0:0:0:0:
141,199,8649,2,0,L|30:202,1,101,8|0,0:0|0:0,0:0:0:0:
314,44,8983,5,4,0:0:0:0:
383,114,9149,1,0,0:0:0:0:
391,213,9316,1,8,0:0:0:0:
335,294,9482,1,2,0:0:0:0:
239,321,9649,1,0,0:0:0:0:
472,336,9816,1,8,0:0:0:0:
222,211,9983,2,0,L|330:210,1,101,0|0,0:0|0:0,0:0:0:0:
32,337,10316,1,12,0:0:0:0:
268,207,10983,6,0,L|265:52,1,151.5,0|0,0:0|0:0,0:0:0:0:
412,42,11483,1,0,0:0:0:0:
142,51,11649,6,0,L|256:52,1,101,4|0,0:0|0:0,0:0:0:0:
21,122,11983,1,8,0:0:0:0:
248,348,12149,2,0,P|269:307|241:250,1,101,2|0,0:0|0:0,0:0:0:0:
95,189,12483,2,0,L|206:186,1,101,0|8,0:0|0:0,0:0:0:0:
482,105,12816,6,0,L|272:96,1,202,4|0,0:0|0:0,0:0:0:0:
30,105,13316,2,0,P|49:167|247:278,1,303,4|0,0:0|0:0,0:0:0:0:
400,343,13983,2,0,L|404:183,1,151.5,2|0,0:0|0:0,0:0:0:0:
187,78,14316,5,12,0:0:0:0:
292,75,14483,2,0,L|351:76,1,50.5,0|0,0:0|0:0,0:0:0:0:
169,160,14649,1,8,0:0:0:0:
127,184,14732,1,0,0:0:0:0:
127,232,14815,1,0,0:0:0:0:
169,256,14899,1,0,0:0:0:0:
372,351,14983,5,8,0:0:0:0:
364,326,15024,1,0,0:0:0:0:
353,304,15066,1,0,0:0:0:0:
338,284,15107,1,0,0:0:0:0:
320,266,15149,1,0,0:0:0:0:
299,251,15191,1,0,0:0:0:0:
277,240,15232,1,0,0:0:0:0:
28,55,15316,2,0,L|93:54,1,58.0750011076927,8|0,0:0|0:0,0:0:0:0:
246,51,15483,2,0,L|315:50,1,58.0750011076927,8|0,0:0|0:0,0:0:0:0:
490,162,15649,6,0,L|280:158,1,202,4|8,0:0|0:0,0:0:0:0:
183,159,16149,1,0,0:0:0:0:
413,325,16316,2,0,L|309:323,2,101,2|0|8,0:0|0:0|0:0,0:0:0:0:
135,271,16816,6,0,P|84:228|166:151,1,202,2|0,0:0|0:0,0:0:0:0:
314,46,17316,2,0,L|208:49,1,101,8|0,0:0|0:0,0:0:0:0:
365,148,17649,2,0,L|478:153,1,101,2|0,0:0|0:0,0:0:0:0:
198,323,17983,2,0,L|36:330,1,151.5,8|0,0:0|0:0,0:0:0:0:
348,271,18316,6,0,P|404:214|329:144,1,202,2|8,0:0|0:0,0:0:0:0:
229,141,18816,1,0,0:0:0:0:
393,57,18983,2,0,L|291:57,2,101,2|0|8,0:0|0:0|0:0,0:0:0:0:
122,263,19483,6,0,P|188:229|318:197,1,202,2|0,0:0|0:0,0:0:0:0:
79,74,19983,1,8,0:0:0:0:
327,72,20149,2,0,L|332:175,1,101,0|2,0:0|0:0,0:0:0:0:
51,197,20483,1,0,0:0:0:0:
28,209,20524,1,0,0:0:0:0:
20,232,20566,1,0,0:0:0:0:
28,255,20608,1,0,0:0:0:0:
52,267,20649,2,0,L|166:267,1,101,8|0,0:0|0:0,0:0:0:0:
481,154,20983,6,0,L|275:149,1,202,4|8,0:0|0:0,0:0:0:0:
384,86,21483,1,0,0:0:0:0:
158,39,21649,2,0,L|154:143,1,101,2|0,0:0|0:0,0:0:0:0:
390,257,21983,1,8,0:0:0:0:
62,343,22149,6,0,P|128:312|269:274,1,202,4|0,0:0|0:0,0:0:0:0:
22,92,22649,1,8,0:0:0:0:
158,142,22816,1,0,0:0:0:0:
159,192,22899,1,8,0:0:0:0:
160,242,22982,1,8,0:0:0:0:
295,300,23149,1,0,0:0:0:0:
152,302,23316,2,0,L|52:301,1,101,0|0,0:0|0:0,0:0:0:0:
358,184,23649,6,0,P|410:149|343:56,1,202,4|0,0:0|0:0,0:0:0:0:
243,50,24149,1,0,0:0:0:0:
347,55,24316,1,0,0:0:0:0:
53,202,24483,6,0,L|266:202,1,202,12|0,0:0|0:0,0:0:0:0:
97,152,24983,2,0,L|94:46,1,101,8|0,0:0|0:0,0:0:0:0:
247,89,25316,1,0,0:0:0:0:
94,51,25483,2,0,L|88:162,1,101,0|2,0:0|0:0,0:0:0:0:
412,341,25816,6,0,L|207:339,1,202,12|0,0:0|0:0,0:0:0:0:
463,194,26316,2,0,L|356:194,2,101,4|0|8,0:0|0:0|0:0,0:0:0:0:
220,51,26816,2,0,L|101:52,1,101,0|2,0:0|0:0,0:0:0:0:
410,152,27149,6,0,P|476:197|407:273,1,202,4|0,0:0|0:0,0:0:0:0:
362,276,27566,1,8,0:0:0:0:
169,341,27649,1,8,0:0:0:0:
291,275,27816,1,0,0:0:0:0:
292,224,27899,1,0,0:0:0:0:
294,174,27982,1,8,0:0:0:0:
56,182,28149,6,0,L|52:74,1,101,8|0,0:0|0:0,0:0:0:0:
331,50,28483,2,0,L|127:51,1,202,12|0,0:0|0:0,0:0:0:0:
379,171,28983,6,0,L|483:173,1,101,4|0,0:0|0:0,0:0:0:0:
324,108,29316,2,0,L|321:213,1,101,8|0,0:0|0:0,0:0:0:0:
479,331,29649,2,0,L|367:332,2,101,2|2|0,0:0|0:0|0:0,0:0:0:0:
234,292,30149,2,0,P|188:249|268:166,1,202,8|0,0:0|0:0,0:0:0:0:
39,43,30649,6,0,L|35:150,1,101,8|0,0:0|0:0,0:0:0:0:
199,144,30983,2,0,L|306:148,1,101,2|0,0:0|0:0,0:0:0:0:
126,252,31316,2,0,L|25:255,1,101,8|0,0:0|0:0,0:0:0:0:
282,350,31649,6,0,L|391:349,1,101,2|0,0:0|0:0,0:0:0:0:
216,298,31983,1,8,0:0:0:0:
126,256,32149,1,0,0:0:0:0:
95,163,32316,1,2,0:0:0:0:
140,76,32483,1,0,0:0:0:0:
235,49,32649,1,0,0:0:0:0:
470,248,32816,6,0,L|253:243,1,202,8|0,0:0|0:0,0:0:0:0:
119,241,33316,2,0,L|224:242,1,101,8|0,0:0|0:0,0:0:0:0:
471,339,33649,1,8,0:0:0:0:
47,304,33983,2,0,L|45:145,1,151.5,8|0,0:0|0:0,0:0:0:0:
268,64,34316,6,0,P|327:94|262:184,1,202,2|8,0:0|0:0,0:0:0:0:
166,188,34816,1,0,0:0:0:0:
307,308,34983,2,0,L|193:307,1,101,2|0,0:0|0:0,0:0:0:0:
449,184,35316,1,8,0:0:0:0:
225,118,35483,2,0,L|437:118,1,202,0|0,0:0|0:0,0:0:0:0:
187,52,35983,6,0,L|86:52,1,101,8|0,0:0|0:0,0:0:0:0:
267,137,36316,2,0,P|301:150|252:273,1,202,2|8,0:0|0:0,0:0:0:0:
32,279,36816,1,0,0:0:0:0:
320,80,36983,6,0,L|432:80,1,101,2|0,0:0|0:0,0:0:0:0:
260,177,37316,2,0,L|255:278,1,101,8|0,0:0|0:0,0:0:0:0:
491,324,37649,2,0,L|387:322,2,101,2|2|8,0:0|0:0|0:0,0:0:0:0:
210,343,38149,6,0,P|165:298|245:208,1,202,4|0,0:0|0:0,0:0:0:0:
79,57,38649,2,0,L|74:162,1,101,8|0,0:0|0:0,0:0:0:0:
211,157,38983,1,2,0:0:0:0:
74,157,39149,2,0,L|72:209,1,50.5,8|8,0:0|0:0,0:0:0:0:
284,347,39316,2,0,L|220:345,1,50.5
91,341,39483,2,0,L|31:339,1,50.5,8|8,0:0|0:0,0:0:0:0:
321,237,39649,6,0,L|434:235,1,101,4|0,0:0|0:0,0:0:0:0:
263,188,39983,2,0,L|146:183,1,101,8|0,0:0|0:0,0:0:0:0:
417,336,40316,2,0,L|421:236,1,101,8|0,0:0|0:0,0:0:0:0:
267,278,40649,1,8,0:0:0:0:
383,276,40816,1,0,0:0:0:0:
103,53,40983,6,0,L|95:164,1,101,8|0,0:0|0:0,0:0:0:0:
265,217,41316,2,0,L|156:212,2,101,8|0|8,0:0|0:0|0:0,0:0:0:0:
19,200,41816,1,0,0:0:0:0:
255,333,41983,2,0,L|153:328,1,101,8|0,0:0|0:0,0:0:0:0:
426,235,42316,6,0,L|429:134,1,101,8|0,0:0|0:0,0:0:0:0:
277,84,42649,2,0,L|381:82,1,101,8|0,0:0|0:0,0:0:0:0:
138,197,42983,2,0,L|244:197,1,101,8|0,0:0|0:0,0:0:0:0:
385,195,43316,2,0,L|506:194,1,101,8|0,0:0|0:0,0:0:0:0:
210,313,43649,6,0,L|101:309,1,101,8|0,0:0|0:0,0:0:0:0:
257,237,43983,2,0,L|262:136,1,101,8|0,0:0|0:0,0:0:0:0:
32,62,44316,2,0,L|149:62,1,101,8|0,0:0|0:0,0:0:0:0:
357,66,44649,1,8,0:0:0:0:
229,65,44816,1,0,0:0:0:0:
470,169,44983,6,0,L|475:272,1,101,12|0,0:0|0:0,0:0:0:0:
231,166,45316,2,0,L|127:166,1,101,8|0,0:0|0:0,0:0:0:0:
354,330,45649,1,8,0:0:0:0:
480,331,45816,1,8,0:0:0:0:
228,252,45983,2,0,P|183:206|240:154,1,151.5,8|0,0:0|0:0,0:0:0:0:
495,43,46316,6,0,L|277:45,1,202,12|8,0:0|0:0,0:0:0:0:
187,49,46816,1,0,0:0:0:0:
445,184,46983,1,8,0:0:0:0:
320,184,47150,1,8,0:0:0:0:
81,296,47316,2,0,L|77:188,1,101,8|0,0:0|0:0,0:0:0:0:
374,337,47649,6,0,L|167:335,1,202,4|2,0:0|0:0,0:0:0:0:
327,42,48149,1,8,0:0:0:0:
235,77,48315,1,0,0:0:0:0:
198,168,48482,1,2,0:0:0:0:
239,258,48648,1,8,0:0:0:0:
332,289,48815,1,0,0:0:0:0:
184,346,48983,5,2,0:0:0:0:
136,259,49149,1,8,0:0:0:0:
164,165,49316,1,0,0:0:0:0:
294,102,49483,2,0,L|286:162,1,50.5,8|8,0:0|0:0,0:0:0:0:
214,189,49649,2,0,L|109:194,1,101,8|0,0:0|0:0,0:0:0:0:
349,349,49983,2,0,L|465:352,1,101,8|0,0:0|0:0,0:0:0:0:
453,282,50233,1,0,0:0:0:0:
196,260,50316,6,0,P|131:212|218:146,1,202,4|2,0:0|0:0,0:0:0:0:
94,135,50816,1,8,0:0:0:0:
254,32,50983,2,0,L|257:133,1,101,0|2,0:0|0:0,0:0:0:0:
145,222,51316,2,0,L|38:226,1,101,8|0,0:0|0:0,0:0:0:0:
198,335,51649,5,2,0:0:0:0:
299,336,51815,1,8,0:0:0:0:
400,337,51982,1,0,0:0:0:0:
264,225,52149,1,8,0:0:0:0:
263,174,52232,1,8,0:0:0:0:
262,124,52315,1,8,0:0:0:0:
376,56,52483,1,0,0:0:0:0:
145,59,52649,2,0,L|38:61,1,101,8|0,0:0|0:0,0:0:0:0:
40,91,52899,1,0,0:0:0:0:
299,109,52983,6,0,P|350:142|286:238,1,202,4|2,0:0|0:0,0:0:0:0:
397,276,53483,1,8,0:0:0:0:
242,341,53649,2,0,L|353:342,1,101,0|2,0:0|0:0,0:0:0:0:
192,251,53983,2,0,L|78:253,1,101,8|0,0:0|0:0,0:0:0:0:
331,39,54316,6,0,L|336:145,1,101,2|8,0:0|0:0,0:0:0:0:
212,151,54649,1,2,0:0:0:0:
436,281,54816,1,8,0:0:0:0:
171,313,54983,2,0,L|43:317,1,101,8|0,0:0|0:0,0:0:0:0:
311,118,55316,2,0,L|426:119,1,101,8|0,0:0|0:0,0:0:0:0:
419,165,55566,1,0,0:0:0:0:
132,346,55649,6,0,P|78:313|147:219,1,202,4|2,0:0|0:0,0:0:0:0:
29,141,56149,1,8,0:0:0:0:
284,40,56316,2,0,L|289:149,1,101,0|2,0:0|0:0,0:0:0:0:
133,50,56649,2,0,L|247:49,1,101,8|0,0:0|0:0,0:0:0:0:
474,349,56983,6,0,L|362:345,1,101,4|8,0:0|0:0,0:0:0:0:
245,283,57316,2,0,L|361:282,1,101,0|2,0:0|0:0,0:0:0:0:
43,36,57649,1,8,0:0:0:0:
153,93,57816,1,8,0:0:0:0:
105,105,57899,1,8,0:0:0:0:
85,149,57982,1,8,0:0:0:0:
106,193,58066,1,8,0:0:0:0:
154,204,58149,1,8,0:0:0:0:
452,343,58316,6,0,L|461:239,1,101,4|0,0:0|0:0,0:0:0:0:
217,325,58649,2,0,L|333:326,1,101,8|0,0:0|0:0,0:0:0:0:
72,264,58983,1,8,0:0:0:0:
333,133,59149,2,0,L|436:133,1,101,2|0,0:0|0:0,0:0:0:0:
112,341,59483,6,0,P|56:311|120:218,1,202,4|0,0:0|0:0,0:0:0:0:
254,157,59983,2,0,L|154:157,1,101,8|0,0:0|0:0,0:0:0:0:
389,32,60316,5,2,0:0:0:0:
413,35,60357,1,0,0:0:0:0:
432,52,60399,1,0,0:0:0:0:
439,76,60440,1,0,0:0:0:0:
432,100,60482,1,0,0:0:0:0:
414,116,60524,1,0,0:0:0:0:
389,121,60565,1,0,0:0:0:0:
202,162,60649,2,0,L|197:218,1,50.5,8|0,0:0|0:0,0:0:0:0:
445,292,60816,2,0,L|450:348,1,50.5,0|0,0:0|0:0,0:0:0:0:
135,342,60983,5,8,0:0:0:0:
263,343,61149,1,8,0:0:0:0:
135,342,61316,1,8,0:0:0:0:
449,348,61483,5,12,0:0:0:0:
284,139,61816,1,0,0:0:0:0:
410,203,61983,2,0,L|301:200,1,101,0|0,0:0|0:0,0:0:0:0:
16,56,62316,6,0,L|220:55,1,202,4|8,0:0|0:0,0:0:0:0:
115,133,62816,1,0,0:0:0:0:
341,317,62983,2,0,L|343:208,1,101,2|0,0:0|0:0,0:0:0:0:
205,184,63316,1,8,0:0:0:0:
491,69,63483,6,0,L|283:63,1,202,2|0,0:0|0:0,0:0:0:0:
183,57,63983,1,8,0:0:0:0:
422,173,64149,2,0,L|312:173,2,101,0|2|0,0:0|0:0|0:0,0:0:0:0:
178,330,64649,1,8,0:0:0:0:
322,331,64816,1,0,0:0:0:0:
13,225,64983,6,0,P|65:187|159:149,1,151.5,2|0,0:0|0:0,0:0:0:0:
308,112,65316,2,0,L|421:104,1,101,8|0,0:0|0:0,0:0:0:0:
147,331,65649,1,2,0:0:0:0:
273,266,65816,2,0,L|262:156,1,101,0|0,0:0|0:0,0:0:0:0:
22,123,66149,1,0,0:0:0:0:
394,56,66316,6,0,L|181:60,1,202,2|8,0:0|0:0,0:0:0:0:
307,132,66816,1,0,0:0:0:0:
70,296,66983,2,0,L|172:294,1,101,2|0,0:0|0:0,0:0:0:0:
435,352,67316,2,0,L|440:194,1,151.5,8|0,0:0|0:0,0:0:0:0:
206,201,67649,6,0,L|201:85,1,101,4|0,0:0|0:0,0:0:0:0:
434,49,67983,2,0,L|320:45,1,101,8|0,0:0|0:0,0:0:0:0:
77,52,68316,2,0,L|195:45,1,101,2|0,0:0|0:0,0:0:0:0:
482,52,68649,2,0,L|326:57,1,151.5,8|0,0:0|0:0,0:0:0:0:
404,124,68983,6,0,L|302:128,1,101,2|0,0:0|0:0,0:0:0:0:
47,339,69316,2,0,L|216:334,1,151.5,12|0,0:0|0:0,0:0:0:0:
260,260,69649,2,0,L|140:263,1,101,0|2,0:0|0:0,0:0:0:0:
473,138,69983,2,0,L|316:139,1,151.5,12|0,0:0|0:0,0:0:0:0:
111,40,70316,5,4,0:0:0:0:
238,108,70483,2,0,L|244:213,1,101,0|8,0:0|0:0,0:0:0:0:
19,301,70816,1,4,0:0:0:0:
304,352,70983,2,0,P|354:314|284:214,1,202,0|8,0:0|0:0,0:0:0:0:
396,137,71483,1,0,0:0:0:0:
130,36,71649,5,8,0:0:0:0:
262,119,71816,1,8,0:0:0:0:
265,169,71899,1,8,0:0:0:0:
269,219,71982,1,8,0:0:0:0:
37,227,72149,2,0,L|28:338,1,101,4|0,0:0|0:0,0:0:0:0:
283,343,72483,1,8,0:0:0:0:
149,338,72649,1,0,0:0:0:0:
477,257,72816,6,0,L|272:257,1,202,4|0,0:0|0:0,0:0:0:0:
29,37,73316,1,8,0:0:0:0:
167,50,73483,1,0,0:0:0:0:
170,107,73566,1,0,0:0:0:0:
173,165,73649,1,2,0:0:0:0:
476,345,73816,1,0,0:0:0:0:
337,341,73983,1,8,0:0:0:0:
31,345,74149,6,0,L|242:333,1,202,2|0,0:0|0:0,0:0:0:0:
480,351,74649,1,8,0:0:0:0:
366,331,74816,1,0,0:0:0:0:
363,280,74899,1,0,0:0:0:0:
360,230,74982,1,0,0:0:0:0:
480,351,75149,1,0,0:0:0:0:
222,45,75316,2,0,L|333:43,1,101,8|0,0:0|0:0,0:0:0:0:
52,336,75649,6,0,L|46:227,1,101,2|0,0:0|0:0,0:0:0:0:
274,322,75983,2,0,L|389:317,1,101,8|0,0:0|0:0,0:0:0:0:
135,243,76316,1,2,0:0:0:0:
363,132,76483,1,0,0:0:0:0:
262,134,76649,1,0,0:0:0:0:
161,136,76816,1,2,0:0:0:0:
442,342,76983,6,0,P|497:286|418:208,1,202,2|8,0:0|0:0,0:0:0:0:
185,44,77483,2,0,L|184:95,1,50.5,0|0,0:0|0:0,0:0:0:0:
256,170,77649,2,0,L|140:175,1,101,2|0,0:0|0:0,0:0:0:0:
380,331,77983,2,0,L|499:333,1,101,8|0,0:0|0:0,0:0:0:0:
178,259,78316,6,0,L|171:144,1,101,4|0,0:0|0:0,0:0:0:0:
301,121,78649,1,8,0:0:0:0:
31,45,78816,2,0,L|140:41,2,101,2|0|0,0:0|0:0|0:0,0:0:0:0:
269,336,79316,2,0,L|379:336,1,101,8|0,0:0|0:0,0:0:0:0:
133,168,79649,5,4,0:0:0:0:
412,62,79816,2,0,L|421:173,1,101,0|8,0:0|0:0,0:0:0:0:
159,344,80149,2,0,P|116:272|196:200,1,202,2|0,0:0|0:0,0:0:0:0:
422,107,80649,2,0,L|301:103,1,101,8|0,0:0|0:0,0:0:0:0:
81,86,80983,5,4,0:0:0:0:
365,239,81149,2,0,L|369:349,1,101,0|8,0:0|0:0,0:0:0:0:
239,349,81483,1,2,0:0:0:0:
491,165,81649,1,8,0:0:0:0:
223,59,81816,2,0,L|221:113,1,50.5,8|8,0:0|0:0,0:0:0:0:
283,166,81983,2,0,L|342:171,1,50.5,8|0,0:0|0:0,0:0:0:0:
162,289,82149,2,0,L|101:295,1,50.5,0|0,0:0|0:0,0:0:0:0:
417,351,82316,5,8,0:0:0:0:
287,348,82483,1,8,0:0:0:0:
417,351,82649,1,8,0:0:0:0:
278,101,82983,1,0,0:0:0:0:
273,221,83233,1,0,0:0:0:0:
454,296,83483,1,0,0:0:0:0:
208,34,83649,6,0,L|3:37,1,202,4|8,0:0|0:0,0:0:0:0:
261,328,84149,2,0,L|263:225,1,101,2|0,0:0|0:0,0:0:0:0:
99,147,84483,2,0,L|221:148,1,101,2|0,0:0|0:0,0:0:0:0:
472,42,84816,6,0,L|262:43,1,202,12|0,0:0|0:0,0:0:0:0:
413,126,85316,2,0,P|471:213|410:265,1,202,8|2,0:0|0:0,0:0:0:0:
144,242,85816,1,8,0:0:0:0:
273,41,85983,1,8,0:0:0:0:
273,91,86066,1,8,0:0:0:0:
274,141,86149,1,0,0:0:0:0:
275,182,86233,1,0,0:0:0:0:
34,350,86316,5,8,0:0:0:0:
282,351,86483,1,8,0:0:0:0:
478,350,86983,1,8,0:0:0:0:
185,265,87149,2,0,L|180:164,1,101,8|0,0:0|0:0,0:0:0:0:
418,47,87483,6,0,P|483:117|410:158,1,202,12|0,0:0|0:0,0:0:0:0:
84,146,87983,1,12,0:0:0:0:
256,192,88149,12,0,89316,0:0:0:0:
