osu file format v14

[General]
AudioFilename: audio.mp3
AudioLeadIn: 0
PreviewTime: 61733
Countdown: 0
SampleSet: Soft
StackLeniency: 0.7
Mode: 2
LetterboxInBreaks: 0
WidescreenStoryboard: 0

[Editor]
DistanceSpacing: 4.8
BeatDivisor: 4
GridSize: 16
TimelineZoom: 1.3

[Metadata]
Title:Tokimeki Experience! (TV Size)
TitleUnicode:ときめきエクスペリエンス! (TV Size)
Artist:Poppin'Party
ArtistUnicode:Poppin'Party
Creator:Dapuluous
Version:Rain!
Source:BanG Dream!
Tags:バンドリ!ガールズバンドパーティ! bandori Girls Band Party garupa opening Toyama Kasumi Hanazono Tae Ushigome Rimi Yamabuki Saaya Ichigaya Arisa Aimi Otsuka Sae Nishimoto Rimi Ohashi Ayaka Itou Ayasa 愛美 大塚紗英 牛込 りみ 山吹 沙綾 市ヶ谷 有咲 山吹 沙綾 市ヶ谷 有咲 花園 たえ 戸山 香澄 牛込 りみ Xetopia
BeatmapID:1876066
BeatmapSetID:898031

[Difficulty]
HPDrainRate:6
CircleSize:4
OverallDifficulty:9
ApproachRate:9
SliderMultiplier:1.9
SliderTickRate:2

[Events]
//Background and Video events
0,0,"59.jpeg",0,0
Video,0,"op.mp4"
//Break Periods
//Storyboard Layer 0 (Background)
//Storyboard Layer 1 (Fail)
//Storyboard Layer 2 (Pass)
//Storyboard Layer 3 (Foreground)
//Storyboard Sound Samples

[TimingPoints]
-350,333.333333333333,4,2,1,40,1,0
5649,-100,4,2,1,50,0,0
6316,-100,4,2,1,60,0,0
11649,-100,4,2,1,60,0,0
15649,-100,4,2,1,60,0,0
28983,-100,4,2,1,50,0,0
39649,-100,4,2,1,60,0,0
47649,-100,4,2,1,50,0,0
55649,-100,4,2,1,50,0,0
62316,-100,4,2,1,75,0,1
71649,-100,4,2,1,60,0,0
72816,-100,4,2,1,75,0,1
82649,-100,4,2,1,60,0,0
88149,-100,4,2,1,45,0,0
89316,-100,4,2,1,5,0,0

[Colours]
Combo1 : 159,159,255
Combo2 : 255,145,91
Combo3 : 255,255,128
Combo4 : 255,128,128

[HitObjects]
144,192,983,5,4,0:0:0:0:
448,192,2316,1,4,0:0:0:0:
224,192,2816,1,8,0:0:0:0:
384,192,3149,2,0,L|496:192,2,95,0|8|0,0:0|0:0|0:0,0:0:0:0:
80,192,3649,6,0,B|80:80|80:80|80:176,1,190,4|0,0:0|0:0,0:0:0:0:
352,192,4316,2,0,L|160:192,1,190,4|0,0:0|0:0,0:0:0:0:
432,192,4983,1,4,0:0:0:0:
240,192,5316,1,0,0:0:0:0:
192,192,5399,1,0,0:0:0:0:
192,192,5482,1,0,0:0:0:0:
240,192,5565,1,0,0:0:0:0:
416,192,5649,6,0,L|480:192,2,47.5,8|8|8,0:0|0:0|0:0,0:0:0:0:
352,192,5899,1,8,0:0:0:0:
160,192,5983,1,8,0:0:0:0:
112,192,6066,1,8,0:0:0:0:
112,192,6149,1,8,0:0:0:0:
160,192,6232,1,8,0:0:0:0:
336,192,6316,6,0,P|400:128|320:96,1,190,4|8,0:0|0:0,0:0:0:0:
176,192,6816,2,0,L|64:192,2,95,2|0|0,0:0|0:0|0:0,0:0:0:0:
336,192,7316,2,0,L|336:96,1,95,8|0,0:0|0:0,0:0:0:0:
80,64,7649,6,0,L|175:64,1,95,4|0,0:0|0:0,0:0:0:0:
16,192,7983,2,0,L|16:288,1,95,8|2,0:0|0:0,0:0:0:0:
111,192,8316,2,0,L|112:304,1,95,0|0,0:0|0:0,0:0:0:0:
368,192,8649,2,0,L|480:192,1,95,8|0,0:0|0:0,0:0:0:0:
208,80,8983,6,0,L|112:80,1,95,4|0,0:0|0:0,0:0:0:0:
272,192,9316,2,0,L|176:192,1,95,8|2,0:0|0:0,0:0:0:0:
64,192,9649,1,0,0:0:0:0:
336,80,9816,2,0,L|241:80,2,95,8|0|0,0:0|0:0|0:0,0:0:0:0:
64,80,10316,5,12,0:0:0:0:
432,192,10983,2,0,L|288:192,2,142.5,0|0|0,0:0|0:0|0:0,0:0:0:0:
192,64,11649,6,0,P|127:116|193:167,1,190,4|8,0:0|0:0,0:0:0:0:
432,64,12149,1,2,0:0:0:0:
160,256,12483,2,0,L|48:256,1,95,0|8,0:0|0:0,0:0:0:0:
320,256,12816,6,0,P|384:192|304:160,1,190,4|0,0:0|0:0,0:0:0:0:
64,192,13316,2,0,P|128:96|336:192,1,380,4|2,0:0|0:0,0:0:0:0:
144,192,14316,1,12,0:0:0:0:
304,192,14483,2,0,L|368:192,2,47.5,0|0|8,0:0|0:0|0:0,0:0:0:0:
192,192,14816,1,0,0:0:0:0:
416,48,14983,5,8,0:0:0:0:
457,71,15066,1,0,0:0:0:0:
487,107,15149,1,0,0:0:0:0:
503,152,15233,1,0,0:0:0:0:
502,199,15316,1,8,0:0:0:0:
485,243,15399,1,0,0:0:0:0:
453,278,15483,1,8,0:0:0:0:
412,300,15566,1,0,0:0:0:0:
160,192,15649,6,0,P|112:144|192:64,1,190,4|8,0:0|0:0,0:0:0:0:
336,192,16149,2,0,L|432:192,2,95,0|2|0,0:0|0:0|0:0,0:0:0:0:
224,192,16649,1,8,0:0:0:0:
464,96,16816,6,0,L|272:96,1,190,2|0,0:0|0:0,0:0:0:0:
432,192,17316,2,0,L|432:80,1,95,8|0,0:0|0:0,0:0:0:0:
288,192,17649,2,0,L|160:192,1,95,2|0,0:0|0:0,0:0:0:0:
353,192,17983,2,0,L|481:192,1,95,8|0,0:0|0:0,0:0:0:0:
192,48,18316,6,0,L|96:48,1,95,2|0,0:0|0:0,0:0:0:0:
368,256,18649,2,0,L|368:144,1,95,8|0,0:0|0:0,0:0:0:0:
208,336,18983,2,0,L|320:336,1,95,2|0,0:0|0:0,0:0:0:0:
416,336,19316,1,8,0:0:0:0:
160,192,19483,6,0,P|96:144|160:80,1,190,2|0,0:0|0:0,0:0:0:0:
320,192,19983,1,8,0:0:0:0:
64,192,20149,2,0,L|64:96,1,95,0|2,0:0|0:0,0:0:0:0:
336,192,20483,5,0,0:0:0:0:
380,179,20566,1,0,0:0:0:0:
408,141,20649,1,8,0:0:0:0:
408,95,20732,1,0,0:0:0:0:
380,58,20816,1,0,0:0:0:0:
335,45,20899,1,0,0:0:0:0:
96,192,20983,6,0,P|32:144|96:80,1,190,4|8,0:0|0:0,0:0:0:0:
240,192,21483,2,0,L|145:192,2,95,0|2|0,0:0|0:0|0:0,0:0:0:0:
352,192,21983,1,8,0:0:0:0:
112,304,22149,6,0,L|304:304,1,190,4|0,0:0|0:0,0:0:0:0:
192,192,22649,1,8,0:0:0:0:
432,192,22816,2,0,L|480:192,2,47.5,0|8|8,0:0|0:0|0:0,0:0:0:0:
320,192,23149,1,0,0:0:0:0:
208,192,23316,1,0,0:0:0:0:
320,192,23482,1,0,0:0:0:0:
80,192,23649,6,0,P|32:160|96:64,1,190,4|0,0:0|0:0,0:0:0:0:
192,192,24149,1,0,0:0:0:0:
80,192,24316,1,0,0:0:0:0:
336,192,24483,6,0,P|448:144|352:48,1,285,12|8,0:0|0:0,0:0:0:0:
176,192,25316,2,0,L|80:192,2,95,0|0|2,0:0|0:0|0:0,0:0:0:0:
464,192,25816,2,0,P|464:96|336:48,1,237.5,12|0,0:0|0:0,0:0:0:0:
144,192,26316,6,0,P|96:128|160:48,1,190,4|8,0:0|0:0,0:0:0:0:
272,192,26816,2,0,L|384:192,1,95,0|2,0:0|0:0,0:0:0:0:
112,192,27149,2,0,P|64:144|128:48,1,190,4|0,0:0|0:0,0:0:0:0:
160,192,27566,1,8,0:0:0:0:
304,192,27649,6,0,P|368:208|480:144,1,190,8|8,0:0|0:0,0:0:0:0:
224,192,28149,2,0,L|112:192,1,95,8|0,0:0|0:0,0:0:0:0:
416,192,28483,2,0,P|464:128|400:48,1,190,12|0,0:0|0:0,0:0:0:0:
160,192,28983,6,0,P|96:144|176:80,1,190,4|8,0:0|0:0,0:0:0:0:
272,192,29483,2,0,L|160:192,2,95,0|2|2,0:0|0:0|0:0,0:0:0:0:
384,192,29983,1,0,0:0:0:0:
144,192,30149,6,0,P|96:144|176:48,1,190,8|0,0:0|0:0,0:0:0:0:
304,96,30649,2,0,L|304:208,1,95,8|0,0:0|0:0,0:0:0:0:
144,256,30983,2,0,L|239:256,1,95,2|0,0:0|0:0,0:0:0:0:
400,192,31316,2,0,L|304:192,1,95,8|0,0:0|0:0,0:0:0:0:
144,288,31649,6,0,L|47:288,1,95,2|0,0:0|0:0,0:0:0:0:
304,96,31983,2,0,L|416:96,1,95,8|0,0:0|0:0,0:0:0:0:
240,208,32316,2,0,L|145:208,2,95,2|0|0,0:0|0:0|0:0,0:0:0:0:
495,272,32816,6,0,L|400:272,2,95,8|0|0,0:0|0:0|0:0,0:0:0:0:
336,192,33316,2,0,L|224:192,1,95,8|0,0:0|0:0,0:0:0:0:
496,96,33649,1,8,0:0:0:0:
240,96,33983,2,0,L|144:96,1,95,8|0,0:0|0:0,0:0:0:0:
400,272,34316,6,0,L|496:272,1,95,2|0,0:0|0:0,0:0:0:0:
240,272,34649,2,0,L|128:272,1,95,8|0,0:0|0:0,0:0:0:0:
304,192,34983,2,0,L|416:192,1,95,2|0,0:0|0:0,0:0:0:0:
160,192,35316,5,8,0:0:0:0:
264,192,35482,1,0,0:0:0:0:
264,192,35649,1,0,0:0:0:0:
160,192,35815,1,0,0:0:0:0:
416,64,35983,6,0,L|416:160,1,95,8|0,0:0|0:0,0:0:0:0:
256,80,36316,2,0,L|384:80,1,95,2|0,0:0|0:0,0:0:0:0:
112,288,36649,2,0,L|16:288,1,95,8|0,0:0|0:0,0:0:0:0:
272,288,36983,6,0,L|384:288,1,95,2|0,0:0|0:0,0:0:0:0:
112,128,37316,2,0,L|320:128,1,190,8|2,0:0|0:0,0:0:0:0:
192,208,37816,2,0,L|96:208,1,95,2|8,0:0|0:0,0:0:0:0:
400,80,38149,6,0,L|208:80,1,190,4|0,0:0|0:0,0:0:0:0:
368,160,38649,1,8,0:0:0:0:
480,160,38815,1,0,0:0:0:0:
368,160,38982,1,2,0:0:0:0:
128,192,39149,1,8,0:0:0:0:
83,179,39232,1,8,0:0:0:0:
55,141,39315,1,8,0:0:0:0:
55,95,39399,1,0,0:0:0:0:
83,58,39482,1,8,0:0:0:0:
128,45,39565,1,0,0:0:0:0:
368,256,39649,6,0,L|464:256,1,95,4|0,0:0|0:0,0:0:0:0:
320,192,39983,2,0,L|225:192,1,95,8|0,0:0|0:0,0:0:0:0:
384,80,40316,2,0,L|496:80,1,95,8|0,0:0|0:0,0:0:0:0:
224,320,40649,2,0,L|224:208,1,95,8|0,0:0|0:0,0:0:0:0:
384,128,40983,6,0,L|384:240,1,95,8|0,0:0|0:0,0:0:0:0:
224,112,41316,2,0,L|129:112,1,95,8|0,0:0|0:0,0:0:0:0:
288,208,41649,2,0,L|193:208,1,95,8|0,0:0|0:0,0:0:0:0:
432,208,41983,2,0,L|432:304,1,95,8|0,0:0|0:0,0:0:0:0:
176,80,42316,6,0,L|80:80,1,95,8|0,0:0|0:0,0:0:0:0:
336,80,42649,2,0,L|448:80,1,95,8|0,0:0|0:0,0:0:0:0:
272,192,42983,2,0,L|272:304,1,95,8|0,0:0|0:0,0:0:0:0:
432,192,43316,2,0,L|432:304,1,95,8|0,0:0|0:0,0:0:0:0:
160,192,43649,6,0,L|64:192,1,95,8|0,0:0|0:0,0:0:0:0:
224,112,43983,2,0,L|336:112,1,95,8|0,0:0|0:0,0:0:0:0:
160,288,44316,2,0,L|64:288,1,95,8|0,0:0|0:0,0:0:0:0:
320,224,44649,2,0,L|320:320,1,95,8|0,0:0|0:0,0:0:0:0:
32,80,44983,6,0,L|224:80,1,190,12|8,0:0|0:0,0:0:0:0:
96,160,45483,1,0,0:0:0:0:
336,192,45649,1,8,0:0:0:0:
192,192,45815,1,8,0:0:0:0:
336,192,45983,2,0,L|448:192,1,95,8|0,0:0|0:0,0:0:0:0:
144,288,46316,6,0,L|334:288,1,190,12|8,0:0|0:0,0:0:0:0:
448,288,46816,1,0,0:0:0:0:
192,192,46982,1,8,0:0:0:0:
336,192,47149,1,8,0:0:0:0:
192,192,47316,2,0,L|97:192,1,95,8|0,0:0|0:0,0:0:0:0:
368,192,47649,6,0,P|432:144|352:96,1,190,4|2,0:0|0:0,0:0:0:0:
128,192,48149,1,8,0:0:0:0:
48,192,48315,1,0,0:0:0:0:
128,192,48483,1,2,0:0:0:0:
304,192,48649,1,8,0:0:0:0:
384,192,48816,1,0,0:0:0:0:
304,192,48983,5,2,0:0:0:0:
144,192,49149,1,8,0:0:0:0:
224,192,49316,1,0,0:0:0:0:
368,336,49483,1,8,0:0:0:0:
416,336,49566,1,8,0:0:0:0:
368,336,49649,1,8,0:0:0:0:
272,336,49817,5,0,0:0:0:0:
432,192,49983,2,0,L|336:192,1,95,8|0,0:0|0:0,0:0:0:0:
96,192,50316,6,0,P|32:144|112:96,1,190,4|2,0:0|0:0,0:0:0:0:
352,80,50816,1,8,0:0:0:0:
272,80,50982,1,0,0:0:0:0:
192,80,51149,1,2,0:0:0:0:
352,176,51315,1,8,0:0:0:0:
432,176,51482,1,0,0:0:0:0:
352,176,51649,5,2,0:0:0:0:
208,304,51815,1,8,0:0:0:0:
288,304,51982,1,0,0:0:0:0:
144,208,52149,1,8,0:0:0:0:
96,208,52233,1,8,0:0:0:0:
144,208,52316,1,8,0:0:0:0:
240,208,52482,1,0,0:0:0:0:
80,48,52649,2,0,L|80:144,1,95,8|0,0:0|0:0,0:0:0:0:
352,64,52983,6,0,L|144:64,1,190,4|2,0:0|0:0,0:0:0:0:
416,304,53483,1,8,0:0:0:0:
336,304,53649,1,0,0:0:0:0:
256,304,53816,1,2,0:0:0:0:
96,192,53983,5,8,0:0:0:0:
176,192,54149,1,0,0:0:0:0:
96,192,54316,1,2,0:0:0:0:
256,112,54482,1,8,0:0:0:0:
176,112,54649,1,2,0:0:0:0:
256,112,54816,1,8,0:0:0:0:
400,240,54983,5,8,0:0:0:0:
320,240,55149,1,0,0:0:0:0:
464,144,55316,2,0,L|464:48,1,95,8|0,0:0|0:0,0:0:0:0:
176,64,55649,5,4,0:0:0:0:
288,64,55816,2,0,L|400:64,1,95,0|2,0:0|0:0,0:0:0:0:
224,192,56149,2,0,L|128:192,2,95,8|0|2,0:0|0:0|0:0,0:0:0:0:
368,192,56649,2,0,L|464:192,1,95,8|0,0:0|0:0,0:0:0:0:
192,112,56983,6,0,L|288:112,1,95,4|8,0:0|0:0,0:0:0:0:
128,288,57316,1,0,0:0:0:0:
16,288,57483,1,2,0:0:0:0:
128,288,57649,1,8,0:0:0:0:
384,288,57816,1,8,0:0:0:0:
425,264,57899,1,8,0:0:0:0:
448,223,57982,1,8,0:0:0:0:
447,176,58066,1,8,0:0:0:0:
423,136,58149,1,8,0:0:0:0:
128,48,58316,6,0,L|320:48,1,190,4|8,0:0|0:0,0:0:0:0:
208,144,58816,1,0,0:0:0:0:
320,144,58983,1,8,0:0:0:0:
160,256,59149,2,0,L|32:256,1,95,2|0,0:0|0:0,0:0:0:0:
336,64,59483,6,0,P|416:128|320:256,1,285,4|8,0:0|0:0,0:0:0:0:
208,192,60149,1,0,0:0:0:0:
480,288,60315,1,2,0:0:0:0:
480,240,60398,1,0,0:0:0:0:
448,208,60483,1,0,0:0:0:0:
176,96,60649,5,8,0:0:0:0:
87,79,60815,1,0,0:0:0:0:
65,38,60898,1,0,0:0:0:0:
320,256,60983,1,8,0:0:0:0:
432,256,61149,1,8,0:0:0:0:
320,256,61316,1,8,0:0:0:0:
64,256,61483,5,12,0:0:0:0:
256,176,61816,2,0,L|128:176,2,95,0|0|0,0:0|0:0|0:0,0:0:0:0:
496,64,62316,6,0,L|304:64,1,190,4|8,0:0|0:0,0:0:0:0:
160,272,62816,2,0,L|255:272,1,95,0|2,0:0|0:0,0:0:0:0:
416,272,63149,2,0,L|321:272,1,95,0|8,0:0|0:0,0:0:0:0:
64,160,63483,6,0,L|256:160,1,190,2|0,0:0|0:0,0:0:0:0:
400,80,63983,2,0,L|305:80,2,95,8|0|2,0:0|0:0|0:0,0:0:0:0:
496,80,64483,1,0,0:0:0:0:
256,272,64649,1,8,0:0:0:0:
160,272,64816,1,0,0:0:0:0:
320,192,64983,6,0,L|432:192,1,95,2|0,0:0|0:0,0:0:0:0:
160,80,65316,2,0,L|64:80,1,95,8|0,0:0|0:0,0:0:0:0:
352,80,65649,2,0,L|496:80,2,142.5,2|0|0,0:0|0:0|0:0,0:0:0:0:
112,336,66316,6,0,P|48:304|112:240,1,190,2|8,0:0|0:0,0:0:0:0:
224,240,66816,1,0,0:0:0:0:
464,288,66983,2,0,L|352:288,1,95,2|0,0:0|0:0,0:0:0:0:
208,160,67316,2,0,L|304:160,1,95,8|0,0:0|0:0,0:0:0:0:
32,96,67649,6,0,L|32:224,1,95,4|0,0:0|0:0,0:0:0:0:
304,64,67983,2,0,L|176:64,1,95,8|0,0:0|0:0,0:0:0:0:
368,192,68316,2,0,L|463:192,1,95,2|0,0:0|0:0,0:0:0:0:
192,304,68649,2,0,L|80:304,1,95,8|0,0:0|0:0,0:0:0:0:
368,192,68983,6,0,L|368:304,1,95,2|0,0:0|0:0,0:0:0:0:
80,192,69316,2,0,L|272:192,1,190,12|0,0:0|0:0,0:0:0:0:
160,96,69816,1,2,0:0:0:0:
432,192,69983,2,0,L|432:80,1,95,12|0,0:0|0:0,0:0:0:0:
144,288,70316,6,0,L|32:288,2,95,4|0|8,0:0|0:0|0:0,0:0:0:0:
384,272,70816,2,0,L|480:272,2,95,4|0|0,0:0|0:0|0:0,0:0:0:0:
224,128,71316,2,0,L|352:128,1,95,8|0,0:0|0:0,0:0:0:0:
64,224,71649,5,8,0:0:0:0:
208,224,71816,1,8,0:0:0:0:
64,224,71983,1,8,0:0:0:0:
352,192,72149,2,0,P|448:192|480:112,1,190,4|8,0:0|0:0,0:0:0:0:
368,80,72649,1,0,0:0:0:0:
112,240,72816,6,0,P|48:176|112:128,1,190,4|0,0:0|0:0,0:0:0:0:
272,304,73316,2,0,L|384:304,2,95,8|0|2,0:0|0:0|0:0,0:0:0:0:
112,224,73816,2,0,L|112:320,1,95,0|8,0:0|0:0,0:0:0:0:
368,144,74150,6,0,L|176:144,1,190,2|0,0:0|0:0,0:0:0:0:
336,48,74650,2,0,L|241:48,2,95,8|0|0,0:0|0:0|0:0,0:0:0:0:
432,48,75150,1,0,0:0:0:0:
192,256,75316,1,8,0:0:0:0:
320,256,75483,1,0,0:0:0:0:
192,176,75650,6,0,L|96:176,1,95,2|0,0:0|0:0,0:0:0:0:
368,112,75983,2,0,L|368:208,1,95,8|0,0:0|0:0,0:0:0:0:
80,320,76316,2,0,L|240:320,2,142.5,2|0|2,0:0|0:0|0:0,0:0:0:0:
352,288,76983,6,0,P|416:256|352:192,1,190,2|8,0:0|0:0,0:0:0:0:
192,112,77483,1,0,0:0:0:0:
336,112,77650,1,2,0:0:0:0:
192,112,77816,1,0,0:0:0:0:
448,272,77983,2,0,L|352:272,1,95,8|0,0:0|0:0,0:0:0:0:
80,192,78316,6,0,L|175:192,1,95,4|0,0:0|0:0,0:0:0:0:
288,192,78649,1,8,0:0:0:0:
48,192,78816,2,0,P|48:96|144:96,1,190,2|0,0:0|0:0,0:0:0:0:
352,64,79316,2,0,L|240:64,1,95,8|0,0:0|0:0,0:0:0:0:
496,192,79649,5,4,0:0:0:0:
384,192,79816,1,0,0:0:0:0:
112,192,79983,1,8,0:0:0:0:
208,192,80149,2,0,L|208:288,1,95,0|2,0:0|0:0,0:0:0:0:
112,304,80483,1,0,0:0:0:0:
368,160,80649,2,0,L|368:48,1,95,8|0,0:0|0:0,0:0:0:0:
80,80,80983,6,0,L|208:80,2,95,4|0|8,0:0|0:0|0:0,0:0:0:0:
192,192,81483,1,2,0:0:0:0:
336,288,81649,1,8,0:0:0:0:
80,240,81816,1,8,0:0:0:0:
40,215,81899,1,8,0:0:0:0:
18,173,81982,1,8,0:0:0:0:
19,126,82065,1,0,0:0:0:0:
45,87,82149,1,0,0:0:0:0:
86,65,82232,1,0,0:0:0:0:
304,240,82316,5,8,0:0:0:0:
416,240,82483,1,8,0:0:0:0:
304,240,82649,1,8,0:0:0:0:
112,288,82983,2,0,L|255:288,2,142.5
448,160,83649,6,0,L|258:160,1,190,4|8,0:0|0:0,0:0:0:0:
16,64,84149,1,2,0:0:0:0:
320,64,84483,1,2,0:0:0:0:
16,288,84816,6,0,L|206:288,1,190,12|0,0:0|0:0,0:0:0:0:
448,192,85316,2,0,P|336:192|288:128,1,190,8|2,0:0|0:0,0:0:0:0:
400,96,85816,1,8,0:0:0:0:
160,128,85982,1,8,0:0:0:0:
112,128,86065,1,8,0:0:0:0:
80,128,86149,1,0,0:0:0:0:
64,128,86232,1,0,0:0:0:0:
336,192,86316,6,0,L|448:192,1,95,8|8,0:0|0:0,0:0:0:0:
80,192,86983,1,8,0:0:0:0:
336,192,87149,1,8,0:0:0:0:
80,192,87483,6,0,P|32:224|96:320,1,190,12|0,0:0|0:0,0:0:0:0:
336,192,87983,1,12,0:0:0:0:
256,192,88149,12,0,89316,0:0:0:0:
