osu file format v14

[General]
AudioFilename: audio.mp3
AudioLeadIn: 0
PreviewTime: 70777
Countdown: 0
SampleSet: Soft
StackLeniency: 0.4
Mode: 0
LetterboxInBreaks: 0
WidescreenStoryboard: 0

[Editor]
Bookmarks: 120023,120569,121116,121585,121663,122210
DistanceSpacing: 2.9
BeatDivisor: 4
GridSize: 4
TimelineZoom: 2.1

[Metadata]
Title:Time Lapse
TitleUnicode:Time Lapse
Artist:Poppin'Party
ArtistUnicode:Poppin’Party
Creator:browiec
Version:Starry Sky
Source:バンドリ! ガールズバンドパーティ!
Tags:BanG Dream! Bandori! Girls Band Party! ガルパ Garupa 7th single song Bandori project Girl Party Garupa! Popipa 戸山香澄 Toyama Kasumi 愛美 Aimi 山吹沙綾 Yamabuki Saaya 大橋彩香 Ohashi Ayaka 牛込りみ Ushigome Rimi 西本りみ Nishimoto Rimi 花園たえ Hanazono Tae 大塚紗英 Otsuka Sae 大塚紗英 Ichigaya Arisa 伊藤彩沙 Itou Ayasa Timelapse japanese game size
BeatmapID:2131344
BeatmapSetID:1018483

[Difficulty]
HPDrainRate:6.4
CircleSize:4
OverallDifficulty:9.1
ApproachRate:9.2
SliderMultiplier:1.8
SliderTickRate:1

[Events]
//Background and Video events
0,0,"akitoshi wasted 20 min to find this bg.jpg",0,0
//Break Periods
2,13790,15832
2,68008,69895
2,91090,92395
//Storyboard Layer 0 (Background)
//Storyboard Layer 1 (Fail)
//Storyboard Layer 2 (Pass)
//Storyboard Layer 3 (Foreground)
//Storyboard Layer 4 (Overlay)
//Storyboard Sound Samples

[TimingPoints]
1090,312.5,4,2,1,40,1,0
1090,-151.515151515152,4,2,1,40,0,0
11090,-151.515151515152,4,2,1,55,0,0
13590,-151.515151515152,4,2,1,20,0,0
16402,-151.515151515152,4,2,1,55,0,0
20152,-151.515151515152,4,2,1,65,0,0
20933,-100,4,2,1,70,0,0
31402,-100,4,2,1,50,0,0
33121,-151.515151515152,4,2,1,50,0,0
36090,-133.333333333333,4,2,1,55,0,0
43902,-181.818181818182,4,2,1,55,0,0
46090,-111.111111111111,4,2,1,60,0,0
53902,-181.818181818182,4,2,1,55,0,0
54840,-125,4,2,1,60,0,0
55308,-111.111111111111,4,2,1,65,0,0
56090,-100,4,2,1,70,0,0
66090,-303.030303030303,4,2,1,50,0,0
70465,-303.030303030303,4,2,1,70,0,0
70933,-90.9090909090909,4,2,1,80,0,1
89840,-90.9090909090909,4,2,1,80,0,0
90595,-90.9090909090909,4,2,1,50,0,0
92965,-90.9090909090909,4,2,1,65,0,0
93433,-100,4,2,1,70,0,0
103590,-357.142857142857,4,2,1,50,0,0
108433,-357.142857142857,4,2,1,5,0,0
108590,-151.515151515152,4,2,1,40,0,0
118590,-303.030303030303,4,2,1,40,0,0

[Colours]
Combo1 : 255,128,128
Combo2 : 62,62,255
Combo3 : 255,0,255
Combo4 : 255,255,128

[HitObjects]
144,336,1090,6,0,L|152:256,1,59.3999998187256,2|0,0:2|0:2,0:2:0:0:
216,228,1402,2,0,L|208:148,1,59.3999998187256,2|0,0:2|0:2,0:2:0:0:
276,56,1715,1,2,0:2:0:0:
276,56,2183,6,0,P|344:40|400:76,1,118.799999637451,2|0,0:2|0:2,0:2:0:0:
444,132,2652,2,0,L|452:216,1,59.3999998187256,2|0,0:2|0:2,0:2:0:0:
328,296,2965,1,2,0:2:0:0:
328,296,3590,6,0,B|280:292|280:292|260:296|260:296|188:292,2,118.799999637451,2|2|2,0:2|0:2|0:2,0:2:0:0:
416,300,4371,1,2,0:2:0:0:
416,300,4683,2,0,B|472:248|460:180|460:180|408:164|372:204|372:204|336:188|300:204|300:204|272:152|204:160,1,415.799998731079,2|0,0:2|0:2,0:2:0:0:
80,312,6090,6,0,L|72:228,1,59.3999998187256,2|0,0:2|0:2,0:2:0:0:
12,188,6402,2,0,L|20:104,1,59.3999998187256,2|0,0:2|0:2,0:2:0:0:
52,44,6715,1,2,0:2:0:0:
52,44,7027,1,2,0:2:0:0:
196,132,7183,6,0,B|220:192|180:192|212:264,1,118.799999637451,2|0,0:2|0:2,0:2:0:0:
284,212,7652,2,0,B|348:204|348:204|416:220,2,118.799999637451,2|2|2,0:2|0:2|0:2,0:2:0:0:
236,348,8590,6,0,B|140:356|140:356|108:336|108:336|0:344,1,237.599999274902,2|0,0:2|0:2,0:2:0:0:
4,343,9527,1,2,0:2:0:0:
104,228,9840,6,0,L|96:136,2,79.1999997583008,2|2|2,0:2|0:2|0:2,0:2:0:0:
184,288,10465,2,0,L|192:380,2,79.1999997583008,2|2|2,0:2|0:2|0:2,0:2:0:0:
256,168,11090,5,6,0:2:0:0:
256,192,11246,12,2,13590,0:2:0:0:
256,188,16402,5,4,3:2:0:0:
244,176,17027,5,4,3:2:0:0:
232,164,17652,5,4,3:2:0:0:
220,152,18277,5,4,3:2:0:0:
208,140,18902,5,4,3:2:0:0:
196,128,19527,6,0,B|116:84|108:176|8:120,1,178.199999456177,4|0,3:2|0:2,0:2:0:0:
156,208,20152,5,12,0:2:0:0:
216,40,20308,1,0,3:2:0:0:
280,220,20465,1,8,0:2:0:0:
128,88,20621,1,8,0:2:0:0:
212,276,20777,1,8,0:2:0:0:
312,44,20933,6,0,P|364:24|460:96,1,180,4|0,3:2|3:2,0:2:0:0:
400,256,21402,2,0,P|352:264|288:260,1,90,10|0,0:2|0:2,0:2:0:0:
140,212,21715,1,2,3:2:0:0:
324,168,21871,1,0,3:2:0:0:
164,320,22027,1,10,0:2:0:0:
404,352,22183,6,0,B|452:364|488:344|488:344|508:300|480:248,1,180,2|0,3:2|3:2,0:2:0:0:
344,96,22652,2,0,P|336:144|332:212,1,90,10|0,0:2|0:2,0:2:0:0:
240,360,22965,1,2,3:2:0:0:
184,176,23121,1,0,3:2:0:0:
320,312,23277,1,10,0:2:0:0:
248,100,23433,6,0,P|168:76|88:148,1,180,2|0,3:2|3:2,0:2:0:0:
120,344,23902,2,0,P|136:300|144:244,1,90,10|0,0:2|0:2,0:2:0:0:
48,48,24215,1,2,3:2:0:0:
24,232,24371,1,0,3:2:0:0:
160,86,24527,1,10,0:2:0:0:
228,300,24683,6,0,B|304:320|304:320|332:312|332:312|416:336,1,180,2|0,3:2|3:2,0:2:0:0:
500,188,25152,2,0,L|396:200,1,90,10|0,0:2|0:2,0:2:0:0:
300,72,25465,2,0,L|404:84,1,90,2|0,3:2|3:2,0:2:0:0:
512,200,25777,1,10,0:2:0:0:
292,264,25933,6,0,B|204:280|216:216|116:240,1,180,4|0,3:2|3:2,0:2:0:0:
4,364,26402,2,0,P|4:308|12:244,1,90,10|0,0:2|0:2,0:2:0:0:
148,120,26715,1,2,3:2:0:0:
160,320,26871,1,0,3:2:0:0:
36,164,27027,1,10,0:2:0:0:
268,256,27183,6,0,B|360:276|360:276|444:244,1,180,2|0,3:2|3:2,0:2:0:0:
512,64,27652,2,0,P|464:52|404:52,1,90,10|0,0:2|0:2,0:2:0:0:
240,140,27965,1,2,3:2:0:0:
440,152,28121,1,0,3:2:0:0:
256,44,28277,1,10,0:2:0:0:
388,264,28433,6,0,P|392:332|284:372,1,180,6|0,3:2|3:2,0:2:0:0:
148,256,28902,2,0,P|200:256|252:264,1,90,10|0,0:2|0:2,0:2:0:0:
416,356,29215,1,2,3:2:0:0:
208,380,29371,1,0,3:2:0:0:
376,252,29527,1,10,0:2:0:0:
144,164,29683,6,0,P|128:124|132:68,1,90,6|0,3:2|0:2,0:2:0:0:
360,32,29996,1,8,0:2:0:0:
256,216,30152,1,10,0:2:0:0:
224,0,30308,1,8,0:2:0:0:
388,176,30465,5,2,3:2:0:0:
397,196,30543,1,0,3:2:0:0:
400,218,30621,1,0,3:2:0:0:
398,240,30699,1,0,3:2:0:0:
389,261,30777,2,0,L|329:281,3,45,2|0|0|0,3:2|3:2|3:2|3:2,0:2:0:0:
268,228,31090,5,4,0:2:0:0:
160,340,31402,5,0,3:2:0:0:
152,216,31871,1,0,3:2:0:0:
160,340,32340,5,0,3:2:0:0:
152,216,32809,1,0,3:2:0:0:
263,271,33121,2,0,P|300:276|336:272,2,59.3999998187256,0|0|0,3:2|3:2|3:2,0:2:0:0:
140,204,33590,5,4,0:3:0:0:
200,88,33902,2,0,L|328:72,1,118.799999637451,0|0,3:2|0:2,0:2:0:0:
392,188,34371,2,0,L|264:172,1,118.799999637451,0|0,3:2|3:2,0:2:0:0:
140,204,34840,5,0,3:2:0:0:
140,204,35308,2,0,P|132:240|132:276,1,59.3999998187256,0|0,3:2|0:2,0:2:0:0:
196,356,35621,1,0,3:2:0:0:
256,168,35777,1,8,0:2:0:0:
256,168,36090,6,0,P|316:184|392:156,1,135.000005149842,4|2,3:2|0:2,0:2:0:0:
444,92,36558,1,2,3:2:0:0:
496,236,36715,2,0,B|496:304|496:304|432:356,1,135.000005149842,10|0,0:2|3:2,0:2:0:0:
316,272,37183,2,0,B|252:248|156:272,2,135.000005149842,2|10|2,3:2|0:2|3:2,0:2:0:0:
420,360,37965,2,0,B|464:380|500:360|500:360|524:304|464:244,1,202.500007724762,10|0,0:2|0:2,0:2:0:0:
360,188,38590,5,0,3:2:0:0:
360,188,38902,1,2,0:2:0:0:
284,256,39058,1,2,3:2:0:0:
204,160,39215,2,0,L|196:84,1,67.5000025749208,8|2,0:2|0:2,0:2:0:0:
112,16,39527,2,0,L|104:92,1,67.5000025749208,2|0,3:2|3:2,0:2:0:0:
28,216,39840,1,2,0:2:0:0:
128,244,39996,2,0,B|212:244|184:292|272:288,1,135.000005149842,10|2,0:2|3:2,0:2:0:0:
360,204,40465,2,0,B|376:128|376:128|364:92|364:92|388:-12,1,202.500007724762,10|0,0:2|0:2,0:2:0:0:
280,144,41090,5,0,3:2:0:0:
280,144,41402,2,0,P|232:152|200:148,1,67.5000025749208,2|0,0:2|3:2,0:2:0:0:
136,240,41715,2,0,P|184:248|216:244,1,67.5000025749208,10|0,0:2|0:2,0:2:0:0:
284,304,42027,1,2,3:2:0:0:
116,336,42183,2,0,P|76:316|48:216,2,135.000005149842,2|10|2,3:2|0:2|3:2,0:2:0:0:
296,316,42965,1,10,0:2:0:0:
204,380,43121,1,0,3:2:0:0:
228,240,43277,2,0,P|236:184|228:132,1,101.250003862381,8|0,0:2|0:2,0:2:0:0:
208,112,43590,5,8,3:2:0:0:
208,112,43902,5,2,0:0:0:0:
296,72,44058,2,0,L|400:80,1,99.0000030212403,2|2,0:0|0:0,0:0:0:0:
456,180,44527,1,2,0:0:0:0:
456,180,44840,5,2,0:0:0:0:
384,236,44996,2,0,L|280:244,1,99.0000030212403,2|2,0:0|0:0,0:0:0:0:
176,220,45465,2,0,B|136:208|100:232|100:232|56:228|40:176,1,148.50000453186,2|0,0:0|0:0,0:0:0:0:
160,56,46090,6,0,P|212:44|264:52,1,80.9999975280763,4|0,3:2|0:2,0:2:0:0:
392,144,46402,1,10,0:2:0:0:
224,176,46558,1,2,0:2:0:0:
404,132,46715,2,0,P|452:136|488:132,1,80.9999975280763,2|0,3:2|3:2,0:2:0:0:
380,40,47027,1,10,0:2:0:0:
316,204,47183,6,0,P|308:252|320:292,1,80.9999975280763,2|0,0:2|3:2,0:2:0:0:
448,344,47496,2,0,P|456:296|444:256,1,80.9999975280763,2|8,3:2|0:2,0:2:0:0:
304,192,47808,2,0,P|296:240|308:280,1,80.9999975280763,2|0,0:2|3:2,0:2:0:0:
436,252,48121,1,2,3:2:0:0:
312,376,48277,2,0,L|224:384,1,80.9999975280763,10|0,0:2|0:2,0:2:0:0:
64,280,48590,6,0,B|148:260|148:316|232:296,1,161.999995056153,0|10,3:2|0:2,0:2:0:0:
304,160,49058,1,0,0:2:0:0:
136,192,49215,1,2,3:2:0:0:
324,260,49371,1,2,3:2:0:0:
208,120,49527,1,10,0:2:0:0:
232,308,49683,1,2,0:2:0:0:
384,184,49840,6,0,P|396:140|396:96,1,80.9999975280763,2|0,3:2|3:2,0:2:0:0:
240,16,50152,2,0,P|235:61|243:104,1,80.9999975280763,10|0,0:2|0:2,0:2:0:0:
396,196,50465,1,0,3:2:0:0:
332,40,50621,1,0,3:2:0:0:
252,204,50777,2,0,P|192:212|156:208,1,80.9999975280763,8|0,0:2|0:2,0:2:0:0:
64,28,51090,6,0,B|80:72|60:100|60:100|64:112|64:112|44:144|64:196,1,161.999995056153,0|10,3:2|0:2,0:2:0:0:
164,280,51558,1,2,0:2:0:0:
212,132,51715,2,0,P|220:84|220:36,1,80.9999975280763,2|0,3:2|3:2,0:2:0:0:
316,140,52027,1,8,0:2:0:0:
136,196,52183,6,0,L|48:200,1,80.9999975280763,2|0,0:2|3:2,0:2:0:0:
0,296,52496,2,0,L|88:300,1,80.9999975280763,2|8,3:2|0:2,0:2:0:0:
220,272,52808,1,2,0:2:0:0:
140,108,52965,2,0,P|126:157|128:200,1,80.9999975280763,2|0,3:2|3:2,0:2:0:0:
196,368,53277,1,8,0:2:0:0:
268,160,53433,1,0,3:2:0:0:
348,376,53590,5,8,0:2:0:0:
336,364,53902,6,0,L|340:292,1,49.5000015106202,2|2,0:0|0:0,0:0:0:0:
252,284,54215,2,0,L|248:212,1,49.5000015106202,2|2,0:0|0:0,0:0:0:0:
348,376,54527,1,2,0:0:0:0:
348,376,54840,6,0,P|400:372|424:356,2,72,2|2|2,0:2|0:2|0:2,0:2:0:0:
152,260,55308,1,10,0:2:0:0:
152,260,55386,1,8,0:2:0:0:
152,260,55465,1,10,0:2:0:0:
380,216,55621,1,8,0:2:0:0:
180,104,55777,1,8,0:2:0:0:
268,336,55933,1,8,0:2:0:0:
356,64,56090,6,0,P|396:36|440:28,1,90,4|0,3:2|0:2,0:2:0:0:
504,224,56402,2,0,P|456:236|412:229,1,90,10|0,0:2|0:2,0:2:0:0:
248,108,56715,1,2,3:2:0:0:
296,304,56871,1,0,3:2:0:0:
408,136,57027,1,10,0:2:0:0:
180,240,57183,6,0,B|108:244|108:244|76:228|76:228|-28:232,1,180,2|0,3:2|3:2,0:2:0:0:
128,56,57652,2,0,P|136:112|132:156,1,90,10|0,0:2|0:2,0:2:0:0:
48,324,57965,1,2,3:2:0:0:
32,124,58121,1,0,3:2:0:0:
172,276,58277,1,10,0:2:0:0:
248,60,58433,6,0,P|304:44|388:132,1,180,2|0,0:2|3:2,0:2:0:0:
316,312,58902,2,0,P|308:252|312:212,1,90,10|0,0:2|0:2,0:2:0:0:
440,356,59215,2,0,P|448:296|444:256,1,90,2|0,3:2|3:2,0:2:0:0:
372,120,59527,1,10,0:2:0:0:
304,324,59683,6,0,B|220:352|220:288|116:320,1,180,2|0,3:2|3:2,0:2:0:0:
8,208,60152,2,0,P|64:204|104:216,1,90,10|0,0:2|0:2,0:2:0:0:
204,360,60465,1,2,3:2:0:0:
236,165,60621,1,0,3:2:0:0:
344,352,60777,2,0,P|360:312|364:244,1,90,10|0,0:2|0:2,0:2:0:0:
236,64,61090,6,0,L|252:180,1,90,4|0,3:2|3:2,0:2:0:0:
128,296,61402,2,0,P|76:308|24:296,1,90,10|0,0:2|0:2,0:2:0:0:
0,152,61715,2,0,P|52:140|104:152,1,90,2|0,3:2|3:2,0:2:0:0:
216,256,62027,1,10,0:2:0:0:
332,56,62183,6,0,B|364:8|364:8|372:136,1,180,6|0,3:2|3:2,0:2:0:0:
328,296,62652,2,0,P|308:232|304:200,1,90,10|0,0:2|0:2,0:2:0:0:
232,40,62965,2,0,L|128:28,1,90,2|0,3:2|3:2,0:2:0:0:
64,156,63277,2,0,L|168:144,1,90,10|0,0:2|0:2,0:2:0:0:
336,8,63590,6,0,P|340:72|336:116,1,90,6|0,3:2|3:2,0:2:0:0:
272,372,63902,5,8,0:2:0:0:
240,144,64058,1,2,3:2:0:0:
100,376,64215,5,10,0:2:0:0:
332,192,64371,1,0,3:2:0:0:
48,172,64527,5,8,0:2:0:0:
360,312,64683,2,0,P|440:320|480:232,1,180,4|8,3:2|0:2,0:2:0:0:
336,48,65152,5,10,0:2:0:0:
300,232,65308,1,0,3:2:0:0:
428,28,65465,5,2,3:2:0:0:
456,220,65621,1,2,3:2:0:0:
308,24,65777,5,2,3:2:0:0:
472,124,65933,1,2,3:2:0:0:
208,200,66090,6,0,P|148:96|264:152,1,326.699999002991,10|2,0:2|0:2,0:2:0:0:
208,200,70465,5,8,0:2:0:0:
0,328,70621,1,8,0:2:0:0:
232,332,70777,1,8,0:2:0:0:
32,144,70933,6,0,P|20:84|160:24,1,198.000006042481,6|2,3:2|3:2,0:2:0:0:
328,168,71402,2,0,P|264:176|216:172,1,99.0000030212403,10|2,0:2|0:2,0:2:0:0:
16,300,71715,1,2,3:2:0:0:
108,96,71871,1,0,3:2:0:0:
184,284,72027,1,8,0:2:0:0:
280,48,72183,6,0,B|368:32|368:32|396:44|396:44|488:28,1,198.000006042481,6|2,3:2|3:2,0:2:0:0:
512,216,72652,2,0,L|400:200,1,99.0000030212403,10|2,0:2|0:2,0:2:0:0:
176,200,72965,1,2,3:2:0:0:
380,328,73121,1,0,3:2:0:0:
176,368,73277,1,8,0:2:0:0:
288,100,73433,6,0,B|320:44|320:44|336:192,1,198.000006042481,6|0,3:2|3:2,0:2:0:0:
204,352,73902,2,0,L|216:244,1,99.0000030212403,10|0,0:2|0:2,0:2:0:0:
200,64,74215,1,2,3:2:0:0:
312,272,74371,2,0,P|380:268|416:240,1,99.0000030212403,2|8,3:2|0:2,0:2:0:0:
488,12,74683,6,0,B|396:-20|396:52|296:8,1,198.000006042481,6|0,3:2|3:2,0:2:0:0:
144,160,75152,2,0,P|204:164|244:148,1,99.0000030212403,8|0,0:2|0:2,0:2:0:0:
100,0,75465,1,0,3:2:0:0:
40,200,75621,1,0,3:2:0:0:
184,76,75777,1,8,0:2:0:0:
240,316,75933,6,0,B|336:348|336:348|440:316,1,198.000006042481,6|0,3:2|3:2,0:2:0:0:
512,104,76402,1,10,0:2:0:0:
336,252,76558,1,2,0:2:0:0:
336,16,76715,1,2,3:2:0:0:
480,216,76871,1,0,3:2:0:0:
448,8,77027,1,10,0:2:0:0:
324,264,77183,6,0,P|252:292|176:200,1,198.000006042481,6|0,3:2|3:2,0:2:0:0:
356,92,77652,2,0,P|288:100|248:96,1,99.0000030212403,10|0,0:2|0:2,0:2:0:0:
92,8,77965,2,0,P|160:0|200:4,1,99.0000030212403,2|0,3:2|3:2,0:2:0:0:
368,104,78277,2,0,P|300:112|260:108,1,99.0000030212403,10|0,0:2|0:2,0:2:0:0:
36,192,78590,5,6,3:2:0:0:
212,12,78746,1,0,3:2:0:0:
192,232,78902,2,0,B|188:296|192:344|192:344,1,99.0000030212403,8|0,0:2|0:2,0:2:0:0:
376,204,79215,2,0,P|316:188|260:200,1,99.0000030212403,2|0,3:2|3:2,0:2:0:0:
108,272,79527,1,10,0:2:0:0:
392,344,79683,6,0,B|448:304|448:304|476:164,1,198.000006042481,6|0,3:2|3:2,0:2:0:0:
232,4,80152,5,8,0:2:0:0:
360,240,80308,1,0,3:2:0:0:
76,104,80465,5,8,0:2:0:0:
376,136,80621,1,0,3:2:0:0:
120,292,80777,1,8,0:2:0:0:
336,48,80933,6,0,P|416:48|468:164,1,198.000006042481,6|2,3:2|3:2,0:2:0:0:
332,344,81402,2,0,P|328:288|320:236,1,99.0000030212403,10|2,0:2|0:2,0:2:0:0:
208,16,81715,1,2,3:2:0:0:
176,248,81871,1,0,3:2:0:0:
328,88,82027,1,8,0:2:0:0:
48,160,82183,6,0,B|-1:186|-1:246|-1:246|47:287|97:261,1,198.000006042481,6|2,3:2|3:2,0:2:0:0:
308,104,82652,2,0,P|252:112|204:108,1,99.0000030212403,10|2,0:2|0:2,0:2:0:0:
0,0,82965,1,2,3:2:0:0:
224,0,83121,1,0,3:2:0:0:
60,148,83277,1,8,0:2:0:0:
316,224,83433,6,0,B|396:232|396:232|420:220|420:220|516:228,1,198.000006042481,6|0,3:2|3:2,0:2:0:0:
248,288,83902,2,0,P|224:232|232:188,1,99.0000030212403,10|0,0:2|0:2,0:2:0:0:
392,112,84215,1,2,3:2:0:0:
336,320,84371,2,0,P|299:368|257:383,1,99.0000030212403,2|8,3:2|0:2,0:2:0:0:
16,240,84683,6,0,B|120:208|120:280|236:240,1,198.000006042481,6|0,3:2|3:2,0:2:0:0:
400,128,85152,2,0,P|336:128|288:140,1,99.0000030212403,8|0,0:2|0:2,0:2:0:0:
180,344,85465,1,0,3:2:0:0:
168,128,85621,1,0,3:2:0:0:
324,280,85777,1,8,0:2:0:0:
296,40,85933,1,8,0:2:0:0:
296,40,86011,1,8,0:2:0:0:
296,40,86090,5,6,3:2:0:0:
192,260,86246,1,2,0:2:0:0:
424,160,86402,1,10,0:2:0:0:
168,104,86558,1,2,0:2:0:0:
432,32,86715,1,2,3:2:0:0:
320,240,86871,1,0,3:2:0:0:
268,0,87027,1,10,0:2:0:0:
480,236,87183,6,0,B|517:267|508:318|508:318|460:362|407:330,1,198.000006042481,6|0,3:2|3:2,0:2:0:0:
232,264,87652,2,0,P|223:192|232:142,1,99.0000030212403,10|0,0:2|0:2,0:2:0:0:
416,100,87965,2,0,P|358:141|310:160,1,99.0000030212403,2|0,3:2|3:2,0:2:0:0:
182,22,88277,2,0,P|247:50|286:81,1,99.0000030212403,10|0,0:2|0:2,0:2:0:0:
392,272,88590,5,6,3:2:0:0:
392,272,88668,1,0,3:2:0:0:
392,272,88746,2,0,L|396:332,1,49.5000015106202,0|0,3:2|3:2,0:2:0:0:
292,192,88902,5,0,3:2:0:0:
292,192,88980,1,0,3:2:0:0:
292,192,89058,2,0,L|288:252,1,49.5000015106202,0|0,3:2|3:2,0:2:0:0:
184,332,89215,5,8,0:2:0:0:
160,338,89293,1,8,0:2:0:0:
136,340,89371,2,0,P|100:336|80:328,1,49.5000015106202,8|8,0:2|0:2,0:2:0:0:
16,192,89527,5,10,0:2:0:0:
39,185,89605,1,8,0:2:0:0:
64,184,89683,2,0,P|100:188|120:196,1,49.5000015106202,8|8,0:2|0:2,0:2:0:0:
280,348,89840,5,10,0:2:0:0:
348,240,90595,5,0,3:2:0:0:
280,348,90751,1,0,3:2:0:0:
172,136,92965,5,8,0:2:0:0:
344,336,93121,1,8,0:2:0:0:
376,84,93277,1,8,0:2:0:0:
164,296,93433,6,0,P|104:312|20:236,1,180,4|0,3:2|3:2,0:2:0:0:
192,76,93902,2,0,P|204:136|204:184,1,90,14|0,0:2|0:2,0:2:0:0:
100,344,94215,1,2,3:2:0:0:
100,152,94371,1,0,3:2:0:0:
248,268,94527,1,10,0:2:0:0:
280,40,94683,6,0,P|336:20|440:108,1,180,2|0,3:2|3:2,0:2:0:0:
480,272,95152,2,0,P|432:276|384:268,1,90,10|0,0:2|0:2,0:2:0:0:
268,116,95465,1,2,3:2:0:0:
260,312,95621,1,0,3:2:0:0:
148,152,95777,1,10,0:2:0:0:
340,368,95933,6,0,B|360:304|360:304|312:192,1,180,6|0,3:2|3:2,0:2:0:0:
104,228,96402,2,0,P|160:240|200:224,1,90,10|0,0:2|0:2,0:2:0:0:
336,104,96715,1,2,3:2:0:0:
148,152,96871,1,0,3:2:0:0:
336,248,97027,1,10,0:2:0:0:
120,360,97183,6,0,B|76:388|32:364|32:364|12:316|48:272,1,180,2|0,3:2|3:2,0:2:0:0:
192,100,97652,2,0,P|196:176|200:216,1,90,10|0,0:2|0:2,0:2:0:0:
340,372,97965,1,2,3:2:0:0:
300,152,98121,1,0,3:2:0:0:
208,376,98277,1,10,0:2:0:0:
404,192,98433,6,0,B|419:134|419:134|414:107|414:107|431:87|431:87|449:21,1,180,4|0,3:2|3:2,0:2:0:0:
476,260,98902,2,0,P|428:288|372:284,1,90,10|0,0:2|0:2,0:2:0:0:
200,200,99215,1,2,3:2:0:0:
404,192,99371,1,0,3:2:0:0:
240,88,99527,1,10,0:2:0:0:
296,344,99683,6,0,P|308:268|308:160,1,180,2|0,3:2|3:2,0:2:0:0:
156,24,100152,2,0,P|148:80|156:140,1,90,10|0,0:2|0:2,0:2:0:0:
216,276,100465,1,2,3:2:0:0:
252,76,100621,1,0,3:2:0:0:
352,260,100777,1,10,0:2:0:0:
416,16,100933,6,0,B|448:80|448:80|420:200,1,180,6|0,3:2|3:2,0:2:0:0:
204,336,101402,5,10,0:2:0:0:
472,296,101558,1,0,3:2:0:0:
168,220,101715,5,10,0:2:0:0:
392,360,101871,1,0,3:2:0:0:
88,308,102027,5,10,0:2:0:0:
432,200,102183,2,0,P|444:160|432:108,1,90,6|0,3:2|0:2,0:2:0:0:
192,2,102496,5,8,0:2:0:0:
192,2,102574,1,8,0:2:0:0:
192,2,102652,1,10,0:2:0:0:
265,253,102808,1,0,3:2:0:0:
352,4,102965,1,2,3:2:0:0:
137,153,103121,1,0,3:2:0:0:
396,161,103277,1,2,3:2:0:0:
232,88,103433,1,0,3:2:0:0:
379,240,103590,6,0,P|436:91|316:174,1,403.200004921875,4|0,3:2|0:2,0:2:0:0:
256,192,106246,12,0,108433,0:2:0:0:
424,348,108590,6,0,L|416:268,1,59.3999998187256,2|0,0:2|0:2,0:2:0:0:
352,240,108902,2,0,L|360:160,1,59.3999998187256,2|0,0:2|0:2,0:2:0:0:
292,68,109215,1,2,0:2:0:0:
292,68,109683,6,0,B|248:64|248:64|224:72|224:72|152:72,1,118.799999637451,2|0,0:2|0:2,0:2:0:0:
100,108,110152,2,0,P|88:148|96:192,1,59.3999998187256,2|0,0:2|0:2,0:2:0:0:
188,272,110465,1,2,0:2:0:0:
188,272,111090,6,0,B|224:268|252:280|252:280|292:272|320:288,2,118.799999637451,2|2|2,0:2|0:2|0:2,0:2:0:0:
108,320,111871,1,2,0:2:0:0:
108,320,112183,6,0,B|72:212|168:212|116:92|116:92|188:192|288:128|288:128,1,415.799998731079,2|0,0:2|0:2,0:2:0:0:
400,32,113590,6,0,L|408:116,1,59.3999998187256,2|0,0:2|0:2,0:2:0:0:
468,156,113902,2,0,L|460:240,1,59.3999998187256,2|0,0:2|0:2,0:2:0:0:
364,320,114215,1,2,0:2:0:0:
364,320,114527,1,2,0:2:0:0:
308,204,114683,6,0,B|284:144|324:144|292:72,1,118.799999637451,2|0,0:2|0:2,0:2:0:0:
388,168,115152,2,0,P|440:184|508:152,2,118.799999637451,2|2|2,0:2|0:2|0:2,0:2:0:0:
260,88,116090,6,0,P|248:40|340:92,1,237.599999274902,2|0,0:2|0:2,0:2:0:0:
351,76,117027,1,2,0:2:0:0:
334,220,117340,6,0,L|342:312,2,79.1999997583008,2|2|2,0:2|0:2|0:2,0:2:0:0:
254,160,117965,2,0,L|246:68,2,79.1999997583008,2|2|2,0:2|0:2|0:2,0:2:0:0:
160,256,118590,6,0,B|116:288|52:272|52:272|132:312|224:296|224:296|212:324|188:336|188:336|260:316|260:360|328:340,1,475.199998549805,2|2,0:2|0:2,0:2:0:0:
