osu file format v14

[General]
AudioFilename: audio.mp3
AudioLeadIn: 0
PreviewTime: 70777
Countdown: 0
SampleSet: Soft
StackLeniency: 0.4
Mode: 0
LetterboxInBreaks: 0
WidescreenStoryboard: 1

[Editor]
Bookmarks: 120023,120569,121116,121585,121663,122210
DistanceSpacing: 1
BeatDivisor: 4
GridSize: 4
TimelineZoom: 2.1

[Metadata]
Title:Time Lapse
TitleUnicode:Time Lapse
Artist:Poppin'Party
ArtistUnicode:Poppin’Party
Creator:browiec
Version:Normal
Source:バンドリ! ガールズバンドパーティ!
Tags:BanG Dream! Bandori! Girls Band Party! ガルパ Garupa 7th single song Bandori project Girl Party Garupa! Popipa 戸山香澄 Toyama Kasumi 愛美 Aimi 山吹沙綾 Yamabuki Saaya 大橋彩香 Ohashi Ayaka 牛込りみ Ushigome Rimi 西本りみ Nishimoto Rimi 花園たえ Hanazono Tae 大塚紗英 Otsuka Sae 大塚紗英 Ichigaya Arisa 伊藤彩沙 Itou Ayasa Timelapse japanese game size
BeatmapID:2131348
BeatmapSetID:1018483

[Difficulty]
HPDrainRate:4
CircleSize:3
OverallDifficulty:4.5
ApproachRate:5
SliderMultiplier:0.999999999999999
SliderTickRate:1

[Events]
//Background and Video events
0,0,"akitoshi wasted 20 min to find this bg.jpg",0,0
//Break Periods
2,13790,15202
2,31289,34890
2,68008,69265
2,91090,91765
2,106290,107390
//Storyboard Layer 0 (Background)
//Storyboard Layer 1 (Fail)
//Storyboard Layer 2 (Pass)
//Storyboard Layer 3 (Foreground)
//Storyboard Layer 4 (Overlay)
//Storyboard Sound Samples

[TimingPoints]
1090,312.5,4,2,1,40,1,0
11090,-100,4,2,1,55,0,0
13590,-100,4,2,1,20,0,0
16402,-100,4,2,1,55,0,0
20152,-100,4,2,1,65,0,0
20933,-100,4,2,1,70,0,0
36090,-100,4,2,1,55,0,0
46090,-100,4,2,1,60,0,0
56090,-100,4,2,1,70,0,0
66090,-100,4,2,1,50,0,0
70465,-100,4,2,1,70,0,0
70933,-100,4,2,1,80,0,1
89840,-100,4,2,1,80,0,0
92965,-100,4,2,1,65,0,0
93433,-100,4,2,1,70,0,0
103590,-100,4,2,1,50,0,0
108590,-100,4,2,1,40,0,0

[Colours]
Combo1 : 255,128,128
Combo2 : 62,62,255
Combo3 : 255,0,255
Combo4 : 255,255,128

[HitObjects]
24,192,1090,6,0,P|88:200|140:176,1,99.9999999999999,2|2,0:2|0:2,0:2:0:0:
180,108,1715,1,2,0:2:0:0:
272,228,2183,2,0,B|352:252|352:212|428:236,1,150,2|2,0:2|0:2,0:2:0:0:
496,300,2965,1,2,0:2:0:0:
304,356,3590,6,0,L|188:364,2,99.9999999999999,2|2|2,0:2|0:2|0:2,0:2:0:0:
348,332,4371,1,2,0:2:0:0:
416,256,4683,2,0,B|448:192|408:88|408:88|308:96|256:168,1,350,2|0,0:2|0:2,0:2:0:0:
204,252,6090,6,0,P|144:276|88:264,1,99.9999999999999,2|2,0:2|0:2,0:2:0:0:
36,208,6715,2,0,L|20:100,1,99.9999999999999,2|2,0:2|0:2,0:0:0:0:
40,64,7183,2,0,P|84:32|192:48,1,150,2|2,0:2|0:2,0:2:0:0:
216,128,7965,2,0,L|216:240,2,99.9999999999999,2|2|2,0:2|0:2|0:2,0:0:0:0:
216,128,9527,1,2,0:2:0:0:
270,44,9840,5,2,0:2:0:0:
465,79,10465,1,2,0:2:0:0:
448,277,11090,1,6,0:2:0:0:
256,192,11246,12,2,13590,0:2:0:0:
24,68,16402,6,0,L|232:60,1,200,4|4,3:2|3:2,0:0:0:0:
424,56,17652,2,0,P|464:108|384:212,1,200,4|4,3:2|3:2,0:0:0:0:
216,140,18902,2,0,B|124:116|124:116|8:144,1,200,4|4,3:2|3:2,0:0:0:0:
84,332,20152,5,12,0:2:0:0:
180,296,20465,2,0,L|232:312,2,50,8|8|8,0:2|0:2|0:2,0:0:0:0:
160,252,20933,6,0,P|168:192|168:140,1,99.9999999999999,4|0,3:2|3:2,0:2:0:0:
172,104,21402,1,10,0:2:0:0:
244,32,21715,2,0,P|300:20|352:40,1,99.9999999999999,2|10,3:2|0:2,0:0:0:0:
368,72,22183,2,0,L|380:180,1,99.9999999999999,2|0,3:2|3:2,0:2:0:0:
380,220,22652,1,10,0:2:0:0:
312,292,22965,2,0,B|264:304|264:304|192:292,1,99.9999999999999,2|10,3:2|0:2,0:0:0:0:
180,260,23433,6,0,B|132:248|132:248|60:260,1,99.9999999999999,2|0,3:2|3:2,0:2:0:0:
36,280,23902,1,10,0:2:0:0:
8,184,24215,2,0,P|0:136|20:80,1,99.9999999999999,2|10,3:2|0:2,0:0:0:0:
48,52,24683,2,0,P|96:44|152:64,1,99.9999999999999,2|0,3:2|3:2,0:2:0:0:
180,96,25152,2,0,L|180:212,2,99.9999999999999,10|2|10,0:2|3:2|0:2,0:2:0:0:
208,56,25933,6,0,P|240:24|308:24,1,99.9999999999999,4|0,3:2|3:2,0:2:0:0:
336,40,26402,1,10,0:2:0:0:
376,132,26715,2,0,L|380:232,1,99.9999999999999,2|10,3:2|0:2,0:0:0:0:
400,276,27183,2,0,P|456:288|508:252,1,99.9999999999999,2|0,3:2|3:2,0:2:0:0:
512,224,27652,1,10,0:2:0:0:
488,128,27965,2,0,L|380:120,1,99.9999999999999,2|10,3:2|0:2,0:0:0:0:
352,152,28433,6,0,L|244:160,1,99.9999999999999,6|0,3:2|3:2,0:2:0:0:
208,136,28902,1,10,0:2:0:0:
128,76,29215,2,0,P|80:72|24:104,1,99.9999999999999,2|10,3:2|0:2,0:0:0:0:
12,136,29683,2,0,L|4:248,1,99.9999999999999,6|8,3:2|0:2,0:2:0:0:
20,284,30152,2,0,P|44:304|72:312,1,50,10|8,0:2|0:2,0:0:0:0:
112,316,30465,1,2,3:2:0:0:
200,268,30777,2,0,P|256:260|308:280,1,99.9999999999999,2|4,3:2|0:2,0:2:0:0:
216,116,36090,5,4,3:2:0:0:
304,164,36402,2,0,L|364:164,1,50,2|2,0:2|3:2,0:0:0:0:
404,156,36715,2,0,P|428:112|412:48,1,99.9999999999999,10|0,0:2|3:2,0:2:0:0:
388,24,37183,2,0,B|336:16|336:16|268:28,1,99.9999999999999,2|10,3:2|0:2,0:2:0:0:
208,80,37808,1,2,3:2:0:0:
208,80,37965,2,0,B|192:140|192:140|196:168|196:168|180:240,1,150,10|0,0:2|0:2,0:2:0:0:
172,276,38590,5,0,3:2:0:0:
232,356,38902,2,0,L|288:364,1,50,2|2,0:2|3:2,0:0:0:0:
328,340,39215,2,0,L|432:336,1,99.9999999999999,8|2,0:2|3:2,0:2:0:0:
496,264,39840,1,2,0:2:0:0:
496,264,39996,2,0,P|508:216|468:164,1,99.9999999999999,10|2,0:2|3:2,0:2:0:0:
440,148,40465,2,0,B|368:128|368:176|288:152,1,150,10|0,0:2|0:2,0:2:0:0:
244,136,41090,5,0,3:2:0:0:
200,224,41402,2,0,L|196:288,1,50,2|0,0:2|3:2,0:2:0:0:
180,320,41715,2,0,P|128:336|76:316,1,99.9999999999999,10|2,0:2|3:2,0:2:0:0:
60,280,42183,2,0,L|56:176,1,99.9999999999999,2|10,3:2|0:2,0:2:0:0:
72,80,42808,1,2,3:2:0:0:
72,80,42965,2,0,P|116:56|180:64,1,99.9999999999999,10|8,0:2|0:2,0:0:0:0:
252,104,43590,5,8,3:2:0:0:
252,104,46090,5,4,3:2:0:0:
308,188,46402,2,0,L|312:252,1,50,10|2,0:2|0:2,0:0:0:0:
336,284,46715,2,0,P|392:304|432:288,1,99.9999999999999,2|10,3:2|0:2,0:2:0:0:
456,248,47183,2,0,B|464:196|464:196|452:144,1,99.9999999999999,2|2,0:2|3:2,0:2:0:0:
396,68,47808,2,0,P|344:52|288:60,1,99.9999999999999,2|2,0:2|3:2,0:2:0:0:
256,84,48277,2,0,P|206:87|159:72,1,99.9999999999999,10|0,0:2|3:2,0:2:0:0:
84,8,48902,5,10,0:2:0:0:
32,92,49215,2,0,L|24:192,1,99.9999999999999,2|10,3:2|0:2,0:0:0:0:
40,240,49683,1,2,0:2:0:0:
40,240,49840,2,0,P|100:256|136:240,1,99.9999999999999,2|10,3:2|0:2,0:2:0:0:
196,164,50465,2,0,L|196:104,2,50,0|0|8,3:2|3:2|0:2,0:0:0:0:
256,244,51090,6,0,B|308:248|308:248|364:224,1,99.9999999999999,0|10,3:2|0:2,0:2:0:0:
388,192,51558,1,2,0:2:0:0:
388,192,51715,2,0,P|424:180|492:200,1,99.9999999999999,2|8,3:2|0:2,0:2:0:0:
508,236,52183,2,0,B|512:288|512:288|488:340,1,99.9999999999999,2|2,0:2|3:2,0:2:0:0:
396,368,52808,1,2,0:2:0:0:
396,368,52965,2,0,P|320:376|288:360,1,99.9999999999999,2|8,3:2|0:2,0:2:0:0:
268,328,53433,1,0,3:2:0:0:
268,328,53590,5,8,0:2:0:0:
268,328,56090,5,4,3:2:0:0:
176,364,56402,1,10,0:2:0:0:
96,304,56715,2,0,P|84:252|96:200,1,99.9999999999999,2|10,3:2|0:2,0:0:0:0:
128,172,57183,2,0,L|236:164,1,99.9999999999999,2|0,3:2|3:2,0:2:0:0:
276,160,57652,1,10,0:2:0:0:
372,132,57965,2,0,P|388:80|360:24,1,99.9999999999999,2|10,3:2|0:2,0:0:0:0:
328,16,58433,6,0,L|224:8,1,99.9999999999999,2|0,0:2|3:2,0:2:0:0:
180,8,58902,1,10,0:2:0:0:
120,88,59215,2,0,B|108:140|108:140|120:192,1,99.9999999999999,2|10,3:2|0:2,0:2:0:0:
156,220,59683,2,0,P|220:240|264:224,1,99.9999999999999,2|0,3:2|3:2,0:2:0:0:
292,204,60152,1,10,0:2:0:0:
384,160,60465,1,2,3:2:0:0:
468,217,60777,1,10,0:2:0:0:
460,318,61090,6,0,P|428:352|360:348,1,99.9999999999999,4|10,3:2|0:2,0:2:0:0:
300,288,61715,2,0,L|288:188,1,99.9999999999999,2|10,3:2|0:2,0:2:0:0:
264,144,62183,2,0,P|228:108|168:104,1,99.9999999999999,6|0,3:2|3:2,0:2:0:0:
136,120,62652,1,10,0:2:0:0:
64,188,62965,2,0,B|48:240|48:240|56:296,1,99.9999999999999,2|10,3:2|0:2,0:2:0:0:
124,356,63590,6,0,L|240:360,1,99.9999999999999,6|8,3:2|0:2,0:2:0:0:
268,340,64058,1,2,3:2:0:0:
268,340,64215,2,0,L|384:336,1,99.9999999999999,10|8,0:2|0:2,0:0:0:0:
412,312,64683,2,0,P|432:264|420:208,1,99.9999999999999,4|8,3:2|0:2,0:2:0:0:
396,176,65152,1,10,0:2:0:0:
304,220,65465,2,0,L|244:224,1,50,2|2,3:2|3:2,0:0:0:0:
204,224,65777,1,2,3:2:0:0:
120,176,66090,5,10,0:2:0:0:
256,192,66246,12,2,67808,0:2:0:0:
120,176,70465,6,0,L|104:232,2,50,8|8|8,0:2|0:2|0:2,0:0:0:0:
156,140,70933,6,0,P|212:112|256:124,1,99.9999999999999,6|2,3:2|3:2,0:2:0:0:
284,152,71402,1,10,0:2:0:0:
332,240,71715,2,0,L|328:296,2,50,2|0|8,3:2|3:2|0:2,0:0:0:0:
368,204,72183,2,0,P|412:188|472:208,1,99.9999999999999,6|2,3:2|3:2,0:2:0:0:
492,240,72652,1,10,0:2:0:0:
448,332,72965,2,0,L|448:384,2,50,2|0|8,3:2|3:2|0:2,0:0:0:0:
404,308,73433,6,0,B|352:304|352:304|296:316,1,99.9999999999999,6|0,3:2|3:2,0:2:0:0:
264,344,73902,1,10,0:2:0:0:
168,312,74215,1,2,3:2:0:0:
168,312,74371,2,0,L|160:248,1,50,2|8,3:2|0:2,0:2:0:0:
152,212,74683,2,0,P|96:188|48:204,1,99.9999999999999,6|0,3:2|3:2,0:2:0:0:
24,232,75152,2,0,B|8:284|8:284|16:336,1,99.9999999999999,8|0,0:2|3:2,0:2:0:0:
48,368,75621,1,0,3:2:0:0:
140,328,75933,6,0,P|192:312|252:328,1,99.9999999999999,6|0,3:2|3:2,0:2:0:0:
276,348,76402,1,10,0:2:0:0:
356,288,76715,2,0,L|408:288,2,50,2|0|10,3:2|3:2|0:2,0:0:0:0:
316,256,77183,2,0,P|296:216|308:148,1,99.9999999999999,6|0,3:2|3:2,0:2:0:0:
336,128,77652,2,0,P|341:78|320:34,1,99.9999999999999,10|2,0:2|3:2,0:2:0:0:
276,12,78121,1,0,3:2:0:0:
276,12,78277,1,10,0:2:0:0:
188,56,78590,6,0,L|84:64,1,99.9999999999999,6|8,3:2|0:2,0:0:0:0:
4,116,79215,2,0,P|0:152|12:184,1,50,2|0,3:2|3:2,0:2:0:0:
36,204,79527,1,10,0:2:0:0:
36,204,79683,2,0,L|152:216,1,99.9999999999999,6|0,3:2|3:2,0:2:0:0:
176,188,80152,1,8,0:2:0:0:
268,232,80465,1,8,0:2:0:0:
352,180,80777,1,8,0:2:0:0:
352,180,80933,6,0,P|400:168|456:196,1,99.9999999999999,6|2,3:2|3:2,0:2:0:0:
480,220,81402,1,10,0:2:0:0:
456,316,81715,2,0,L|464:372,2,50,2|0|8,3:2|3:2|0:2,0:0:0:0:
412,296,82183,2,0,P|364:288|308:320,1,99.9999999999999,6|2,3:2|3:2,0:2:0:0:
284,344,82652,1,10,0:2:0:0:
204,284,82965,2,0,L|144:276,2,50,2|0|8,3:2|3:2|0:2,0:0:0:0:
240,252,83433,6,0,B|260:208|260:208|248:148,1,99.9999999999999,6|0,3:2|3:2,0:2:0:0:
220,116,83902,1,10,0:2:0:0:
124,132,84215,1,2,3:2:0:0:
124,132,84371,2,0,L|60:140,1,50,2|8,3:2|0:2,0:2:0:0:
32,168,84683,2,0,P|8:212|16:272,1,99.9999999999999,6|0,3:2|3:2,0:2:0:0:
36,304,85152,2,0,P|80:328|140:320,1,99.9999999999999,8|0,0:2|3:2,0:2:0:0:
208,264,85777,2,0,L|252:311,1,50,8|8,0:2|0:2,0:0:0:0:
280,340,86090,6,0,B|332:348|332:348|392:332,1,99.9999999999999,6|10,3:2|0:2,0:0:0:0:
408,296,86558,1,2,0:2:0:0:
408,296,86715,2,0,L|424:196,1,99.9999999999999,2|10,3:2|0:2,0:0:0:0:
404,152,87183,2,0,P|364:120|296:128,1,99.9999999999999,6|0,3:2|3:2,0:2:0:0:
276,148,87652,1,10,0:2:0:0:
216,228,87965,1,2,3:2:0:0:
116,216,88277,1,10,0:2:0:0:
76,123,88590,6,0,P|68:76|96:24,1,99.9999999999999,6|0,3:2|3:2,0:0:0:0:
184,0,89215,2,0,L|292:4,1,99.9999999999999,8|10,0:2|0:2,0:0:0:0:
328,28,89683,1,8,0:2:0:0:
328,28,89840,5,10,0:2:0:0:
372,52,92965,6,0,L|388:-4,2,50,8|8|8,0:2|0:2|0:2,0:0:0:0:
340,92,93433,6,0,P|288:104|232:80,1,99.9999999999999,4|0,3:2|3:2,0:2:0:0:
208,56,93902,1,14,0:2:0:0:
120,4,94215,2,0,B|68:0|68:0|12:32,1,99.9999999999999,2|10,3:2|0:2,0:0:0:0:
8,72,94683,2,0,L|0:176,1,99.9999999999999,2|0,3:2|3:2,0:2:0:0:
16,220,95152,1,10,0:2:0:0:
100,272,95465,2,0,P|152:280|200:256,1,99.9999999999999,2|10,3:2|0:2,0:0:0:0:
224,220,95933,6,0,P|269:200|318:209,1,99.9999999999999,6|0,3:2|3:2,0:2:0:0:
356,240,96402,1,10,0:2:0:0:
400,328,96715,2,0,B|456:336|456:336|496:312,1,99.9999999999999,2|10,3:2|0:2,0:0:0:0:
512,268,97183,2,0,P|512:208|488:176,1,99.9999999999999,2|0,3:2|3:2,0:2:0:0:
452,144,97652,2,0,L|448:44,2,99.9999999999999,10|2|10,0:2|3:2|0:2,0:2:0:0:
424,184,98433,6,0,P|384:200|320:188,1,99.9999999999999,4|0,3:2|3:2,0:2:0:0:
288,160,98902,1,10,0:2:0:0:
228,80,99215,2,0,L|124:64,1,99.9999999999999,2|10,3:2|0:2,0:0:0:0:
80,80,99683,2,0,B|56:124|56:124|64:188,1,99.9999999999999,2|0,3:2|3:2,0:2:0:0:
84,220,100152,1,10,0:2:0:0:
176,256,100465,2,0,P|240:268|276:252,1,99.9999999999999,2|10,3:2|0:2,0:0:0:0:
300,216,100933,6,0,L|316:108,1,99.9999999999999,6|0,3:2|3:2,0:2:0:0:
336,72,101402,1,10,0:2:0:0:
432,36,101715,1,10,0:2:0:0:
511,101,102027,1,10,0:2:0:0:
511,101,102183,2,0,P|520:152|504:204,1,99.9999999999999,6|8,3:2|0:2,0:2:0:0:
480,240,102652,1,10,0:2:0:0:
420,320,102965,1,2,3:2:0:0:
336,268,103277,1,2,3:2:0:0:
260,332,103590,5,4,3:2:0:0:
256,192,103746,12,0,106090,0:2:0:0:
260,332,108590,6,0,P|196:340|144:316,1,99.9999999999999,2|2,0:2|0:2,0:2:0:0:
104,248,109215,1,2,0:2:0:0:
172,116,109683,2,0,B|252:92|252:132|328:108,1,150,2|2,0:2|0:2,0:2:0:0:
396,44,110465,1,2,0:2:0:0:
496,220,111090,6,0,L|504:336,2,99.9999999999999,2|2|2,0:2|0:2|0:2,0:2:0:0:
472,176,111871,1,2,0:2:0:0:
396,108,112183,2,0,B|172:56|172:56|100:84|120:168,1,350,2|0,0:2|0:2,0:2:0:0:
184,224,113590,6,0,L|292:256,1,99.9999999999999,2|2,0:2|0:2,0:2:0:0:
380,268,114215,2,0,P|428:240|444:188,1,99.9999999999999,2|2,0:2|0:2,0:0:0:0:
440,152,114683,2,0,B|428:76|428:76|344:32,1,150,2|2,0:2|0:2,0:2:0:0:
264,52,115465,2,0,L|148:52,2,99.9999999999999,2|2|2,0:2|0:2|0:2,0:0:0:0:
264,52,117027,1,2,0:2:0:0:
324,132,117340,5,2,0:2:0:0:
224,304,117965,1,2,0:2:0:0:
44,220,118590,1,2,0:2:0:0:
256,192,118746,12,2,121090,0:2:0:0:
