osu file format v14

[General]
AudioFilename: audio.mp3
AudioLeadIn: 0
PreviewTime: 70777
Countdown: 0
SampleSet: Soft
StackLeniency: 0.4
Mode: 0
LetterboxInBreaks: 0
WidescreenStoryboard: 1

[Editor]
Bookmarks: 120023,120569,121116,121585,121663,122210
DistanceSpacing: 1.5
BeatDivisor: 4
GridSize: 4
TimelineZoom: 2.1

[Metadata]
Title:Time Lapse
TitleUnicode:Time Lapse
Artist:Poppin'Party
ArtistUnicode:Poppin’Party
Creator:browiec
Version:Insane
Source:バンドリ! ガールズバンドパーティ!
Tags:BanG Dream! Bandori! Girls Band Party! ガルパ Garupa 7th single song Bandori project Girl Party Garupa! Popipa 戸山香澄 Toyama Kasumi 愛美 Aimi 山吹沙綾 Yamabuki Saaya 大橋彩香 Ohashi Ayaka 牛込りみ Ushigome Rimi 西本りみ Nishimoto Rimi 花園たえ Hanazono Tae 大塚紗英 Otsuka Sae 大塚紗英 Ichigaya Arisa 伊藤彩沙 Itou Ayasa Timelapse japanese game size
BeatmapID:2131347
BeatmapSetID:1018483

[Difficulty]
HPDrainRate:5.7
CircleSize:3.8
OverallDifficulty:8.2
ApproachRate:9
SliderMultiplier:1.8
SliderTickRate:1

[Events]
//Background and Video events
0,0,"akitoshi wasted 20 min to find this bg.jpg",0,0
//Break Periods
2,13790,15802
2,68008,69865
2,91090,92365
2,106290,107990
//Storyboard Layer 0 (Background)
//Storyboard Layer 1 (Fail)
//Storyboard Layer 2 (Pass)
//Storyboard Layer 3 (Foreground)
//Storyboard Layer 4 (Overlay)
//Storyboard Sound Samples

[TimingPoints]
1090,312.5,4,2,1,40,1,0
1090,-151.515151515152,4,2,1,40,0,0
11090,-151.515151515152,4,2,1,55,0,0
13590,-151.515151515152,4,2,1,20,0,0
16402,-151.515151515152,4,2,1,55,0,0
20152,-151.515151515152,4,2,1,65,0,0
20933,-100,4,2,1,70,0,0
31402,-100,4,2,1,50,0,0
33121,-151.515151515152,4,2,1,50,0,0
36090,-133.333333333333,4,2,1,55,0,0
43902,-181.818181818182,4,2,1,55,0,0
46090,-111.111111111111,4,2,1,60,0,0
53902,-181.818181818182,4,2,1,55,0,0
54840,-125,4,2,1,60,0,0
55308,-111.111111111111,4,2,1,65,0,0
56090,-100,4,2,1,70,0,0
66090,-303.030303030303,4,2,1,50,0,0
70465,-303.030303030303,4,2,1,70,0,0
70933,-90.9090909090909,4,2,1,80,0,1
89840,-90.9090909090909,4,2,1,80,0,0
90595,-90.9090909090909,4,2,1,50,0,0
92965,-90.9090909090909,4,2,1,65,0,0
93433,-100,4,2,1,70,0,0
103590,-357.142857142857,4,2,1,50,0,0
108433,-357.142857142857,4,2,1,5,0,0
108590,-151.515151515152,4,2,1,40,0,0
118590,-303.030303030303,4,2,1,40,0,0

[Colours]
Combo1 : 255,128,128
Combo2 : 62,62,255
Combo3 : 255,0,255
Combo4 : 255,255,128

[HitObjects]
472,160,1090,6,0,L|392:152,1,59.3999998187256,2|0,0:2|0:2,0:2:0:0:
352,212,1402,2,0,L|272:220,1,59.3999998187256,2|0,0:2|0:2,0:2:0:0:
208,124,1715,1,2,0:2:0:0:
208,124,2183,6,0,P|220:88|148:64,1,118.799999637451,2|0,0:2|0:2,0:2:0:0:
96,108,2652,2,0,L|24:116,1,59.3999998187256,2|0,0:2|0:2,0:2:0:0:
0,232,2965,1,2,0:2:0:0:
0,232,3590,6,0,B|0:268|16:288|16:288|44:296|80:280,2,118.799999637451,2|2|2,0:2|0:2|0:2,0:2:0:0:
0,148,4371,1,2,0:2:0:0:
0,148,4683,6,0,B|20:100|64:84|64:84|108:100|124:148|124:148|172:184|224:160|224:160|252:184|248:220|248:220|276:200|312:208,1,415.799998731079,2|0,0:2|0:2,0:2:0:0:
412,332,6090,6,0,L|416:264,1,59.3999998187256,2|0,0:2|0:2,0:2:0:0:
484,224,6402,2,0,L|480:156,1,59.3999998187256,2|0,0:2|0:2,0:2:0:0:
476,80,6715,1,2,0:2:0:0:
476,80,7027,1,2,0:2:0:0:
344,164,7183,6,0,B|292:172|292:172|272:168|272:168|216:176,1,118.799999637451,2|0,0:2|0:2,0:2:0:0:
160,116,7652,2,0,P|152:56|188:0,2,118.799999637451,2|2|2,0:2|0:2|0:2,0:2:0:0:
260,264,8590,6,0,P|268:340|156:292,1,237.599999274902,2|0,0:2|0:2,0:2:0:0:
154,310,9527,1,2,0:2:0:0:
152,156,9840,6,0,L|160:64,2,79.1999997583008,2|2|2,0:2|0:2|0:2,0:2:0:0:
72,212,10465,2,0,L|64:304,2,79.1999997583008,2|2|2,0:2|0:2|0:2,0:2:0:0:
8,100,11090,5,6,0:2:0:0:
256,192,11246,12,2,13590,0:2:0:0:
256,188,16402,5,4,3:2:0:0:
268,176,17027,5,4,3:2:0:0:
280,164,17652,5,4,3:2:0:0:
292,152,18277,5,4,3:2:0:0:
304,140,18902,5,4,3:2:0:0:
316,128,19527,6,0,B|408:112|408:112|496:152,1,178.199999456177,4|0,3:2|0:2,0:2:0:0:
492,288,20152,6,0,L|432:260,1,59.3999998187256,12|0,0:2|3:2,0:0:0:0:
268,220,20465,1,8,0:2:0:0:
360,348,20621,1,8,0:2:0:0:
196,324,20777,1,8,0:2:0:0:
368,188,20933,6,0,B|376:120|376:120|368:80|368:80|380:4,1,180,4|0,3:2|3:2,0:2:0:0:
280,132,21402,2,0,P|228:144|188:132,1,90,10|0,0:2|0:2,0:2:0:0:
128,32,21715,2,0,P|180:20|220:32,1,90,2|0,3:2|3:2,0:0:0:0:
292,144,22027,1,10,0:2:0:0:
96,172,22183,6,0,B|52:220|52:220|96:344,1,180,2|0,3:2|3:2,0:2:0:0:
248,260,22652,2,0,L|152:240,1,90,10|0,0:2|0:2,0:2:0:0:
244,156,22965,2,0,L|340:136,1,90,2|0,3:2|3:2,0:0:0:0:
420,224,23277,1,10,0:2:0:0:
484,56,23433,6,0,B|468:12|420:-4|420:-4|372:12|348:64,1,180,2|0,3:2|3:2,0:2:0:0:
408,212,23902,2,0,P|416:156|416:112,1,90,10|0,0:2|0:2,0:2:0:0:
264,72,24215,2,0,P|275:127|290:168,1,90,2|0,3:2|3:2,0:0:0:0:
420,224,24527,1,10,0:2:0:0:
236,276,24683,6,0,B|148:304|148:244|56:276,1,180,2|0,3:2|3:2,0:2:0:0:
168,112,25152,2,0,P|188:160|196:212,1,90,10|0,0:2|0:2,0:2:0:0:
104,356,25465,1,2,3:2:0:0:
104,356,25621,1,0,3:2:0:0:
52,188,25777,1,10,0:2:0:0:
236,276,25933,6,0,B|316:288|316:288|344:276|344:276|424:292,1,180,4|0,3:2|3:2,0:2:0:0:
496,176,26402,2,0,L|392:184,1,90,10|0,0:2|0:2,0:2:0:0:
312,80,26715,2,0,L|416:88,1,90,2|0,3:2|3:2,0:0:0:0:
508,188,27027,1,10,0:2:0:0:
304,224,27183,6,0,P|252:244|248:368,1,180,2|0,3:2|3:2,0:2:0:0:
372,280,27652,2,0,P|392:228|376:176,1,90,10|0,0:2|0:2,0:2:0:0:
336,52,27965,2,0,P|316:104|332:156,1,90,2|0,3:2|3:2,0:0:0:0:
468,168,28277,1,10,0:2:0:0:
292,236,28433,6,0,B|208:256|208:256|116:224,1,180,6|0,3:2|3:2,0:2:0:0:
124,56,28902,2,0,L|152:160,1,90,10|0,0:2|0:2,0:2:0:0:
208,256,29215,2,0,L|236:152,1,90,2|0,3:2|3:2,0:0:0:0:
324,120,29527,1,10,0:2:0:0:
280,316,29683,6,0,P|236:344|124:292,1,180,6|8,3:2|0:2,0:2:0:0:
80,136,30152,1,10,0:2:0:0:
24,296,30308,1,8,0:2:0:0:
160,204,30465,2,0,L|216:200,3,45,2|0|0|0,3:2|3:2|3:2|3:2,0:0:0:0:
80,136,30777,2,0,L|24:132,3,45,2|0|0|0,3:2|3:2|3:2|3:2,0:2:0:0:
160,68,31090,5,4,0:2:0:0:
160,68,31402,5,0,3:2:0:0:
252,128,31871,1,0,3:2:0:0:
160,68,32340,5,0,3:2:0:0:
252,128,32809,1,0,3:2:0:0:
154,177,33121,2,0,L|76:184,2,59.3999998187256,0|0|0,3:2|3:2|3:2,0:2:0:0:
264,116,33590,5,4,0:3:0:0:
364,216,33902,2,0,P|376:264|328:332,1,118.799999637451,0|0,3:2|0:2,0:2:0:0:
216,268,34371,2,0,B|204:240|204:240|291:255,1,118.799999637451,0|0,3:2|3:2,0:2:0:0:
416,276,34840,5,0,3:2:0:0:
416,276,35308,6,0,P|432:224|428:200,1,59.3999998187256,0|0,3:2|0:2,0:2:0:0:
384,120,35621,1,0,3:2:0:0:
291,255,35777,1,8,0:2:0:0:
291,255,36090,6,0,P|252:280|156:236,1,135.000005149842,4|2,3:2|0:2,0:2:0:0:
168,144,36558,1,2,3:2:0:0:
168,144,36715,2,0,P|207:119|303:163,1,135.000005149842,10|0,0:2|3:2,0:2:0:0:
376,208,37183,2,0,B|448:224|448:224|520:200,2,135.000005149842,2|10|2,3:2|0:2|3:2,0:2:0:0:
276,128,37965,2,0,B|208:112|208:112|172:124|172:124|64:100,1,202.500007724762,10|0,0:2|0:2,0:2:0:0:
212,208,38590,5,0,3:2:0:0:
212,208,38902,2,0,L|216:288,1,67.5000025749208,2|2,0:2|3:2,0:0:0:0:
116,348,39215,2,0,L|120:268,1,67.5000025749208,8|2,0:2|0:2,0:2:0:0:
140,136,39527,1,2,3:2:0:0:
140,136,39840,1,2,0:2:0:0:
252,248,39996,2,0,P|316:264|380:216,1,135.000005149842,10|2,0:2|3:2,0:2:0:0:
428,108,40465,2,0,B|452:52|452:52|460:196,1,202.500007724762,10|0,0:2|0:2,0:2:0:0:
468,336,41090,5,0,3:2:0:0:
468,336,41402,2,0,P|416:344|384:332,1,67.5000025749208,2|0,0:2|3:2,0:2:0:0:
332,268,41715,2,0,P|298:263|266:272,1,67.5000025749208,10|0,0:2|0:2,0:2:0:0:
204,360,42027,1,2,3:2:0:0:
188,208,42183,2,0,B|144:176|144:176|48:176,2,135.000005149842,2|10|2,3:2|0:2|3:2,0:2:0:0:
204,360,42965,1,10,0:2:0:0:
272,276,43121,1,0,3:2:0:0:
112,264,43277,2,0,L|20:264,1,67.5000025749208,8|0,0:2|0:0,0:2:0:0:
192,348,43590,5,8,3:2:0:0:
192,348,43902,5,2,0:0:0:0:
284,356,44058,2,0,L|388:348,1,99.0000030212403,2|2,0:0|0:0,0:0:0:0:
460,268,44527,1,2,0:0:0:0:
460,268,44840,5,2,0:0:0:0:
376,229,44996,2,0,L|275:200,1,99.0000030212403,2|2,0:0|0:0,0:0:0:0:
180,176,45465,2,0,B|148:160|108:164|108:164|88:196|92:240,1,148.50000453186,2|0,0:0|0:0,0:0:0:0:
192,348,46090,6,0,P|284:368|336:316,1,161.999995056153,4|10,3:2|0:2,0:2:0:0:
344,200,46558,1,2,0:2:0:0:
168,252,46715,2,0,P|120:244|88:216,1,80.9999975280763,2|0,3:2|3:2,0:2:0:0:
52,124,47027,1,10,0:2:0:0:
220,184,47183,6,0,P|248:224|244:280,1,80.9999975280763,2|0,0:2|3:2,0:2:0:0:
192,104,47496,2,0,P|240:99|287:131,1,80.9999975280763,2|8,3:2|0:2,0:2:0:0:
356,212,47808,2,0,P|393:226|468:140,1,161.999995056153,2|2,0:2|3:2,0:2:0:0:
416,32,48277,2,0,P|372:24|324:24,1,80.9999975280763,10|0,0:2|0:2,0:2:0:0:
256,124,48590,6,0,B|192:132|192:132|164:124|164:124|76:132,1,161.999995056153,0|10,3:2|0:2,0:2:0:0:
8,216,49058,1,0,0:2:0:0:
180,240,49215,2,0,L|276:248,1,80.9999975280763,2|2,3:2|3:2,0:0:0:0:
184,340,49527,2,0,L|88:348,1,80.9999975280763,10|2,0:2|0:2,0:0:0:0:
8,216,49840,6,0,P|0:168|20:120,1,80.9999975280763,2|0,3:2|3:2,0:2:0:0:
116,80,50152,2,0,P|124:128|104:176,1,80.9999975280763,10|0,0:2|0:2,0:2:0:0:
64,288,50465,1,0,3:2:0:0:
8,137,50621,1,0,3:2:0:0:
144,244,50777,2,0,L|236:248,1,80.9999975280763,8|0,0:2|0:2,0:2:0:0:
356,128,51090,6,0,B|348:92|304:68|304:68|256:92|244:132,1,161.999995056153,0|10,3:2|0:2,0:2:0:0:
224,247,51558,1,2,0:2:0:0:
404,216,51715,2,0,B|436:268|436:268|392:368,1,161.999995056153,2|8,3:2|0:2,0:2:0:0:
216,336,52183,6,0,L|308:328,1,80.9999975280763,2|0,0:2|3:2,0:2:0:0:
156,228,52496,2,0,L|248:236,1,80.9999975280763,2|8,3:2|0:2,0:2:0:0:
360,196,52808,1,2,0:2:0:0:
192,132,52965,2,0,L|111:139,1,80.9999975280763,2|0,3:2|3:2,0:2:0:0:
248,60,53277,1,8,0:2:0:0:
156,228,53433,1,0,3:2:0:0:
72,28,53590,5,8,0:2:0:0:
84,40,53902,6,0,L|148:48,1,49.5000015106202,2|2,0:0|0:0,0:0:0:0:
184,120,54215,2,0,L|248:112,1,49.5000015106202,2|2,0:0|0:0,0:0:0:0:
72,28,54527,1,2,0:0:0:0:
72,28,54840,6,0,B|32:64|32:64|56:176,1,144,2|2,0:2|0:2,0:2:0:0:
108,324,55308,1,10,0:2:0:0:
108,324,55386,1,8,0:2:0:0:
108,324,55465,1,10,0:2:0:0:
144,164,55621,1,8,0:2:0:0:
4,276,55777,1,8,0:2:0:0:
28,96,55933,1,8,0:2:0:0:
180,256,56090,6,0,P|232:269|285:251,1,90,4|0,3:2|0:2,0:2:0:0:
276,93,56402,2,0,P|240:127|226:174,1,90,10|0,0:2|0:2,0:2:0:0:
368,258,56715,2,0,P|355:210|322:174,1,90,2|0,3:2|3:2,0:0:0:0:
212,176,57027,1,10,0:2:0:0:
320,344,57183,6,0,L|512:360,1,180,2|0,3:2|3:2,0:2:0:0:
440,228,57652,2,0,L|332:232,1,90,10|0,0:2|0:2,0:2:0:0:
260,132,57965,2,0,L|368:136,1,90,2|0,3:2|3:2,0:0:0:0:
440,36,58277,1,10,0:2:0:0:
232,52,58433,6,0,P|184:96|208:200,1,180,2|0,0:2|3:2,0:2:0:0:
352,276,58902,2,0,L|256:280,1,90,10|0,0:2|0:2,0:2:0:0:
304,376,59215,2,0,L|208:372,1,90,2|0,3:2|3:2,0:2:0:0:
124,320,59527,1,10,0:2:0:0:
256,184,59683,6,0,B|272:112|272:112|264:92|264:92|284:8,1,180,2|0,3:2|3:2,0:2:0:0:
96,108,60152,2,0,P|140:124|196:124,1,90,10|0,0:2|0:2,0:2:0:0:
112,208,60465,2,0,P|68:224|12:224,1,90,2|0,3:2|3:2,0:0:0:0:
96,308,60777,2,0,P|140:324|196:324,1,90,10|0,0:2|0:2,0:2:0:0:
336,212,61090,6,0,L|332:312,1,90,4|0,3:2|3:2,0:2:0:0:
280,136,61402,2,0,B|328:120|328:120|384:128,1,90,10|0,0:2|0:2,0:2:0:0:
512,192,61715,2,0,B|464:208|464:208|408:200,1,90,2|0,3:2|3:2,0:2:0:0:
352,112,62027,1,10,0:2:0:0:
300,308,62183,6,0,B|276:348|232:360|232:360|184:348|152:296,1,180,6|0,3:2|3:2,0:2:0:0:
136,144,62652,2,0,P|192:136|232:144,1,90,10|0,0:2|0:2,0:2:0:0:
376,208,62965,2,0,L|280:212,1,90,2|0,3:2|3:2,0:2:0:0:
416,116,63277,2,0,L|320:112,1,90,10|0,0:2|0:2,0:2:0:0:
164,60,63590,6,0,P|116:56|72:80,1,90,6|0,3:2|3:2,0:2:0:0:
16,256,63902,5,8,0:2:0:0:
136,144,64058,1,2,3:2:0:0:
88,344,64215,5,10,0:2:0:0:
48,160,64371,1,0,3:2:0:0:
184,332,64527,5,8,0:2:0:0:
244,104,64683,2,0,B|320:100|320:100|352:108|352:108|432:100,1,180,4|8,3:2|0:2,0:2:0:0:
500,208,65152,6,0,L|408:204,1,90,10|0,0:2|3:2,0:0:0:0:
376,288,65465,2,0,L|284:292,1,90,2|2,3:2|3:2,0:0:0:0:
252,208,65777,2,0,L|160:204,1,90,2|2,3:2|3:2,0:0:0:0:
24,132,66090,6,0,B|60:60|136:76|136:76|180:116|240:104|240:104|264:68|312:60,1,326.699999002991,10|2,0:2|0:2,0:2:0:0:
303,61,70465,5,8,0:2:0:0:
168,244,70621,1,8,0:2:0:0:
148,16,70777,1,8,0:2:0:0:
308,200,70933,6,0,B|412:236|412:172|504:208,1,198.000006042481,6|2,3:2|3:2,0:2:0:0:
444,384,71402,2,0,P|440:328|452:280,1,99.0000030212403,10|2,0:2|0:2,0:2:0:0:
507,109,71715,2,0,P|511:165|499:213,1,99.0000030212403,2|0,3:2|3:2,0:0:0:0:
360,296,72027,1,8,0:2:0:0:
308,88,72183,6,0,B|232:72|232:72|204:80|204:80|100:60,1,198.000006042481,6|2,3:2|3:2,0:2:0:0:
4,172,72652,2,0,L|108:164,1,99.0000030212403,10|2,0:2|0:2,0:2:0:0:
212,272,72965,2,0,L|108:264,1,99.0000030212403,2|0,3:2|3:2,0:0:0:0:
8,328,73277,1,8,0:2:0:0:
128,140,73433,6,0,B|164:100|216:88|216:88|264:108|288:152,1,198.000006042481,6|0,3:2|3:2,0:2:0:0:
376,284,73902,2,0,P|384:228|384:168,1,99.0000030212403,10|0,0:2|0:2,0:2:0:0:
332,56,74215,1,2,3:2:0:0:
264,236,74371,2,0,P|208:252|160:236,1,99.0000030212403,2|8,3:2|0:2,0:2:0:0:
16,80,74683,6,0,B|88:40|88:40|228:76,1,198.000006042481,6|0,3:2|3:2,0:2:0:0:
324,176,75152,2,0,L|216:184,1,99.0000030212403,8|0,0:2|0:2,0:2:0:0:
36,280,75465,1,0,3:2:0:0:
136,96,75621,1,0,3:2:0:0:
176,296,75777,1,8,0:2:0:0:
40,96,75933,6,0,P|88:180|196:172,1,198.000006042481,6|0,3:2|3:2,0:2:0:0:
272,48,76402,2,0,P|268:104|272:156,1,99.0000030212403,10|2,0:2|0:2,0:0:0:0:
360,252,76715,2,0,P|364:196|360:144,1,99.0000030212403,2|0,3:2|3:2,0:0:0:0:
260,36,77027,1,10,0:2:0:0:
196,240,77183,6,0,B|108:248|108:248|84:240|84:240|-20:248,1,198.000006042481,6|0,3:2|3:2,0:2:0:0:
208,352,77652,2,0,L|104:344,1,99.0000030212403,10|0,0:2|0:2,0:2:0:0:
0,246,77965,2,0,L|104:238,1,99.0000030212403,2|0,3:2|3:2,0:2:0:0:
208,140,78277,2,0,L|104:132,1,99.0000030212403,10|0,0:2|0:2,0:2:0:0:
220,256,78590,5,6,3:2:0:0:
288,76,78746,1,0,3:2:0:0:
360,252,78902,2,0,P|416:264|460:248,1,99.0000030212403,8|0,0:2|0:2,0:2:0:0:
412,79,79215,2,0,P|404:128|406:178,1,99.0000030212403,2|0,3:2|3:2,0:2:0:0:
424,356,79527,1,10,0:2:0:0:
320,172,79683,6,0,B|232:152|232:152|112:176,1,198.000006042481,6|0,3:2|3:2,0:2:0:0:
96,376,80152,5,8,0:2:0:0:
232,244,80308,1,0,3:2:0:0:
16,272,80465,5,8,0:2:0:0:
196,336,80621,1,0,3:2:0:0:
24,172,80777,1,8,0:2:0:0:
272,156,80933,6,0,B|376:124|376:204|476:172,1,198.000006042481,6|2,3:2|3:2,0:2:0:0:
500,308,81402,2,0,P|444:292|396:292,1,99.0000030212403,10|2,0:2|0:2,0:2:0:0:
268,376,81715,2,0,P|325:382|373:373,1,99.0000030212403,2|0,3:2|3:2,0:0:0:0:
512,296,82027,1,8,0:2:0:0:
304,236,82183,6,0,B|220:228|220:228|188:236|188:236|92:224,1,198.000006042481,6|2,3:2|3:2,0:2:0:0:
0,132,82652,2,0,L|116:124,1,99.0000030212403,10|2,0:2|0:2,0:2:0:0:
200,36,82965,2,0,L|84:28,1,99.0000030212403,2|0,3:2|3:2,0:0:0:0:
52,164,83277,1,8,0:2:0:0:
284,88,83433,6,0,P|364:88|392:200,1,198.000006042481,6|0,3:2|3:2,0:2:0:0:
236,268,83902,2,0,P|228:200|232:160,1,99.0000030212403,10|0,0:2|0:2,0:2:0:0:
336,284,84215,1,2,3:2:0:0:
396,120,84371,2,0,P|436:104|496:120,1,99.0000030212403,2|8,3:2|0:2,0:2:0:0:
348,296,84683,6,0,B|252:316|252:316|144:288,1,198.000006042481,6|0,3:2|3:2,0:2:0:0:
44,184,85152,2,0,L|164:176,1,99.0000030212403,8|0,0:2|0:2,0:2:0:0:
324,100,85465,1,0,3:2:0:0:
136,60,85621,1,0,3:2:0:0:
252,224,85777,1,8,0:2:0:0:
264,8,85933,1,8,0:2:0:0:
264,8,86011,1,8,0:2:0:0:
264,8,86090,6,0,P|232:60|228:108,1,99.0000030212403,6|2,3:2|0:2,0:0:0:0:
382,176,86402,2,0,P|352:122|313:94,1,99.0000030212403,10|2,0:2|0:2,0:0:0:0:
168,216,86715,2,0,L|276:212,1,99.0000030212403,2|0,3:2|3:2,0:0:0:0:
396,188,87027,1,10,0:2:0:0:
180,308,87183,6,0,P|112:288|96:160,1,198.000006042481,6|0,3:2|3:2,0:2:0:0:
192,40,87652,2,0,P|184:96|188:144,1,99.0000030212403,10|0,0:2|0:2,0:2:0:0:
288,260,87965,2,0,L|392:272,1,99.0000030212403,2|0,3:2|3:2,0:2:0:0:
496,356,88277,2,0,L|392:368,1,99.0000030212403,10|0,0:2|0:2,0:2:0:0:
276,248,88590,6,0,L|268:192,3,49.5000015106202,6|0|0|0,3:2|3:2|3:2|3:2,0:0:0:0:
212,328,88902,2,0,L|204:384,3,49.5000015106202,0|0|0|0,3:2|3:2|3:2|3:2,0:0:0:0:
156,216,89215,5,8,0:2:0:0:
156,216,89293,1,8,0:2:0:0:
156,216,89371,2,0,L|148:160,1,49.5000015106202,8|8,0:2|0:2,0:2:0:0:
96,324,89527,5,10,0:2:0:0:
96,324,89605,1,8,0:2:0:0:
96,324,89683,2,0,L|88:380,1,49.5000015106202,8|8,0:2|0:2,0:2:0:0:
28,200,89840,5,10,0:2:0:0:
90,102,90595,5,0,3:2:0:0:
28,200,90751,1,0,3:2:0:0:
28,200,92965,5,8,0:2:0:0:
228,124,93121,1,8,0:2:0:0:
28,52,93277,1,8,0:2:0:0:
156,268,93433,6,0,P|224:292|316:236,1,180,4|0,3:2|3:2,0:2:0:0:
340,80,93902,2,0,P|388:68|440:80,1,90,14|0,0:2|0:2,0:2:0:0:
512,180,94215,2,0,P|464:192|412:180,1,90,2|0,3:2|3:2,0:0:0:0:
328,68,94527,1,10,0:2:0:0:
276,268,94683,6,0,B|192:292|192:292|80:292,1,180,2|0,3:2|3:2,0:2:0:0:
8,152,95152,2,0,L|16:252,1,90,10|0,0:2|0:2,0:2:0:0:
112,112,95465,2,0,L|100:212,1,90,2|0,3:2|3:2,0:0:0:0:
20,332,95777,1,10,0:2:0:0:
188,224,95933,6,0,B|280:192|272:256|376:224,1,180,6|0,3:2|3:2,0:2:0:0:
464,136,96402,2,0,P|408:132|360:140,1,90,10|0,0:2|0:2,0:2:0:0:
288,52,96715,2,0,P|332:47|377:51,1,90,2|0,3:2|3:2,0:0:0:0:
476,148,97027,1,10,0:2:0:0:
292,236,97183,6,0,B|224:252|224:252|104:216,1,180,2|0,3:2|3:2,0:2:0:0:
16,320,97652,2,0,L|124:312,1,90,10|0,0:2|0:2,0:2:0:0:
280,248,97965,1,2,3:2:0:0:
72,212,98121,1,0,3:2:0:0:
224,348,98277,1,10,0:2:0:0:
60,200,98433,6,0,P|36:152|124:72,1,180,4|0,3:2|3:2,0:2:0:0:
248,152,98902,2,0,P|300:160|348:152,1,90,10|0,0:2|0:2,0:2:0:0:
416,56,99215,2,0,P|364:48|316:56,1,90,2|0,3:2|3:2,0:0:0:0:
236,164,99527,1,10,0:2:0:0:
472,224,99683,6,0,B|508:252|508:252|372:256,1,180,2|0,3:2|3:2,0:2:0:0:
248,344,100152,2,0,L|356:356,1,90,10|0,0:2|0:2,0:2:0:0:
276,248,100465,2,0,L|168:260,1,90,2|0,3:2|3:2,0:0:0:0:
72,272,100777,1,10,0:2:0:0:
272,156,100933,6,0,B|352:152|352:152|380:164|380:164|480:160,1,180,6|0,3:2|3:2,0:2:0:0:
296,264,101402,5,10,0:2:0:0:
320,64,101558,1,0,3:2:0:0:
192,272,101715,5,10,0:2:0:0:
216,72,101871,1,0,3:2:0:0:
308,276,102027,5,10,0:2:0:0:
424,56,102183,2,0,P|432:104|432:160,1,90,6|0,3:2|0:2,0:2:0:0:
412,312,102496,5,8,0:2:0:0:
412,312,102574,1,8,0:2:0:0:
412,312,102652,1,10,0:2:0:0:
336,164,102808,1,0,3:2:0:0:
292,332,102965,2,0,L|200:340,1,90,2|0,3:2|3:2,0:0:0:0:
176,248,103277,2,0,L|84:240,1,90,2|0,3:2|3:2,0:0:0:0:
0,344,103590,5,4,3:2:0:0:
256,192,103746,12,0,106090,0:2:0:0:
136,80,108590,6,0,L|216:76,1,59.3999998187256,2|0,0:2|0:2,0:2:0:0:
268,128,108902,2,0,L|348:132,1,59.3999998187256,2|0,0:2|0:2,0:2:0:0:
480,48,109215,1,2,0:2:0:0:
480,48,109683,6,0,B|456:92|456:92|484:180,1,118.799999637451,2|0,0:2|0:2,0:2:0:0:
500,244,110152,2,0,P|496:284|476:316,1,59.3999998187256,2|0,0:2|0:2,0:2:0:0:
344,344,110465,1,2,0:2:0:0:
344,344,111090,6,0,B|288:336|288:336|272:340|272:340|200:332,2,118.799999637451,2|2|2,0:2|0:2|0:2,0:2:0:0:
432,356,111871,1,2,0:2:0:0:
432,356,112183,6,0,B|448:288|448:288|432:240|432:240|460:132|460:132|412:176|354:162|354:162|328:232,1,415.799998731079,2|0,0:2|0:2,0:2:0:0:
212,360,113590,6,0,L|208:292,1,59.3999998187256,2|0,0:2|0:2,0:2:0:0:
140,252,113902,2,0,L|144:184,1,59.3999998187256,2|0,0:2|0:2,0:2:0:0:
148,108,114215,1,2,0:2:0:0:
148,108,114527,1,2,0:2:0:0:
280,192,114683,6,0,B|332:200|332:200|352:196|352:196|408:204,1,118.799999637451,2|0,0:2|0:2,0:2:0:0:
464,144,115152,2,0,P|472:84|436:28,2,118.799999637451,2|2|2,0:2|0:2|0:2,0:2:0:0:
356,288,116090,6,0,B|308:284|272:312|272:312|220:280|220:280|180:312|120:284,1,237.599999274902,2|0,0:2|0:2,0:2:0:0:
137,291,117027,1,2,0:2:0:0:
86,145,117340,6,0,L|47:61,2,79.1999997583008,2|2|2,0:2|0:2|0:2,0:2:0:0:
180,170,117965,2,0,L|218:253,2,79.1999997583008,2|2|2,0:2|0:2|0:2,0:2:0:0:
256,36,118590,6,0,B|332:-4|408:28|408:28|352:52|332:104|332:104|372:136|428:128|428:128|372:152|364:212,1,475.199998549805,2|2,0:2|0:2,0:2:0:0:
