osu file format v14

[General]
AudioFilename: audio.mp3
AudioLeadIn: 0
PreviewTime: 69355
Countdown: 0
SampleSet: None
StackLeniency: 0.7
Mode: 0
LetterboxInBreaks: 0
WidescreenStoryboard: 1

[Editor]
DistanceSpacing: 1
BeatDivisor: 4
GridSize: 8
TimelineZoom: 1.5

[Metadata]
Title:Setsunai Sandglass
TitleUnicode:切ないSandglass
Artist:Poppin'Party
ArtistUnicode:Poppin'Party
Creator:Mocaotic
Version:Normal
Source:バンドリ! ガールズバンドパーティ!
Tags:Amateurre BanG Dream! Bandori! Girls Band Party! ガルパ Garupa insert cover original song single album Bandori project Girl Party Garupa! ポピパ ポッピン パーティー Popipa 戸山香澄 Toyama Kasumi 山吹沙綾 Yamabuki Saaya 牛込りみ Ushigome Rimi 花園たえ Hanazono Tae 大塚紗英 Ichigaya Arisa 寺川愛美 Terakawa Aimi 大橋彩香 Ohashi Ayaka 西本りみ Nishimoto Rimi 大塚紗英 Otsuka Sae 伊藤彩沙 Itou Ayasa eleventh 11th Girl's Code Japanese Video Game Anime 範康 上松 Agematsu Noriyasu 中村航 Nakamura Kou 菊田大介 Kikuta Daisuke
BeatmapID:2260930
BeatmapSetID:1051893

[Difficulty]
HPDrainRate:3
CircleSize:3.5
OverallDifficulty:4
ApproachRate:5
SliderMultiplier:1.05
SliderTickRate:1

[Events]
//Background and Video events
0,0,"EBheO2NU0AAkcCG.jpg",0,0
//Break Periods
//Storyboard Layer 0 (Background)
//Storyboard Layer 1 (Fail)
//Storyboard Layer 2 (Pass)
//Storyboard Layer 3 (Foreground)
//Storyboard Layer 4 (Overlay)
//Storyboard Sound Samples

[TimingPoints]
475,327.868852459016,4,2,2,70,1,0
802,-111.111111111111,4,2,2,25,0,0
6704,-111.111111111111,4,2,2,35,0,0
7032,-105.263157894737,4,2,2,60,0,0
8671,-105.263157894737,4,2,2,65,0,0
8999,-105.263157894737,4,2,2,70,0,0
9327,-105.263157894737,4,2,2,75,0,0
9655,-105.263157894737,4,2,2,80,0,0
10966,-100,4,2,2,50,0,0
11294,-100,4,2,2,60,0,0
11622,-100,4,2,2,70,0,0
11950,-100,4,2,2,80,0,0
12278,-100,4,2,2,87,0,0
24081,-100,4,2,2,35,0,0
25065,-111.111111111111,4,2,3,35,0,0
25393,-111.111111111111,4,2,2,45,0,0
25720,-111.111111111111,4,2,3,45,0,0
26048,-111.111111111111,4,2,2,45,0,0
26376,-111.111111111111,4,2,3,45,0,0
26704,-111.111111111111,4,2,2,45,0,0
27360,-111.111111111111,4,2,2,45,0,0
28015,-111.111111111111,4,2,2,45,0,0
28343,-111.111111111111,4,2,3,45,0,0
28671,-111.111111111111,4,2,2,45,0,0
28999,-111.111111111111,4,2,3,45,0,0
29327,-111.111111111111,4,2,2,45,0,0
29655,-111.111111111111,4,2,3,45,0,0
29983,-111.111111111111,4,2,2,45,0,0
30311,-111.111111111111,4,2,3,45,0,0
30638,-111.111111111111,4,2,2,45,0,0
30966,-111.111111111111,4,2,3,45,0,0
31294,-111.111111111111,4,2,2,45,0,0
31622,-111.111111111111,4,2,3,45,0,0
31950,-111.111111111111,4,2,2,45,0,0
32606,-111.111111111111,4,2,2,45,0,0
33261,-111.111111111111,4,2,2,45,0,0
33589,-111.111111111111,4,2,3,45,0,0
33917,-111.111111111111,4,2,2,45,0,0
34245,-111.111111111111,4,2,3,45,0,0
34573,-111.111111111111,4,2,2,45,0,0
34901,-111.111111111111,4,2,3,45,0,0
35229,-111.111111111111,4,2,2,45,0,0
35884,-105.263157894737,4,2,2,60,0,0
46376,-100,4,2,2,70,0,0
56868,-100,4,2,2,80,0,0
62114,-100,4,2,2,72,0,0
67360,-100,4,2,2,85,0,0
67688,-100,4,2,2,60,0,0
68015,-100,4,2,2,70,0,0
68343,-100,4,2,2,80,0,0
68671,-100,4,2,2,85,0,0
69491,-100,4,2,2,100,0,0
69983,-90.9090909090909,4,2,2,100,0,1
72114,-90.9090909090909,4,2,2,85,0,1
74737,-90.9090909090909,4,2,2,100,0,1
77524,-90.9090909090909,4,2,2,85,0,1
79983,-90.9090909090909,4,2,2,100,0,1
80474,-90.9090909090909,4,2,2,92,0,1
82114,-90.9090909090909,4,2,2,87,0,1
82442,-90.9090909090909,4,2,2,82,0,1
82770,-90.9090909090909,4,2,2,90,0,1
83425,-90.9090909090909,4,2,2,85,0,1
83753,-90.9090909090909,4,2,2,80,0,1
84245,-90.9090909090909,4,2,2,90,0,1
90966,-100,4,2,2,78,0,0
94901,-100,4,2,2,85,0,0
95229,-100,4,2,2,35,0,0
95556,-100,4,2,2,55,0,0
95720,-100,4,2,2,65,0,0
95884,-100,4,2,2,75,0,0
96048,-100,4,2,2,85,0,0
96212,-100,4,2,2,95,0,0
97524,-100,4,2,2,85,0,0
98835,-100,4,2,2,75,0,0
100147,-100,4,2,2,65,0,0
101458,-100,4,2,2,55,0,0
102770,-100,4,2,2,45,0,0
103753,-100,4,2,2,35,0,0

[Colours]
Combo1 : 45,85,168
Combo2 : 204,103,85
Combo3 : 93,177,241
Combo4 : 211,186,179

[HitObjects]
376,76,802,6,0,L|480:80,2,94.4999971160889,2|2|2,0:0|0:0|0:0,0:0:0:0:
288,38,1786,2,0,P|254:100|289:212,1,188.999994232178,2|0,0:0|0:0,0:0:0:0:
353,274,2770,1,2,0:0:0:0:
283,337,3097,2,0,P|244:350|176:333,1,94.4999971160889,2|2,0:0|0:0,0:0:0:0:
118,282,3753,2,0,L|111:182,1,94.4999971160889,2|2,0:0|0:0,0:0:0:0:
158,105,4409,5,2,0:0:0:0:
346,114,5065,2,0,B|414:116|414:116|448:138,2,94.499997116089,2|2|2,0:0|0:0|0:0,0:0:0:0:
158,105,6376,1,2,0:0:0:0:
100,179,6704,1,2,0:0:0:0:
168,246,7032,6,0,P|215:246|263:212,2,99.7499973363877,6|0|0,3:2|3:2|3:2,0:0:0:0:
82,296,8015,1,2,3:2:0:0:
9,227,8343,2,0,L|0:128,1,99.7499973363877,2|2,3:2|3:2,0:0:0:0:
70,57,8999,2,0,P|127:38|176:48,1,99.7499973363877,2|2,3:2|3:2,0:0:0:0:
249,97,9655,6,0,B|281:120|281:120|359:112,1,99.7499973363877,6|8,3:2|0:0,0:0:0:0:
424,58,10311,1,2,3:2:0:0:
502,120,10638,1,10,0:0:0:0:
467,213,10966,2,0,P|412:196|347:215,1,105,2|8,3:2|3:2,0:0:0:0:
300,286,11622,2,0,L|292:361,1,52.5,10|0,3:2|3:2,0:0:0:0:
260,378,11950,2,0,L|188:371,1,52.5,10|8,0:0|0:0,0:0:0:0:
156,360,12278,6,0,B|139:329|139:329|138:245,1,105,6|8,3:2|0:0,0:0:0:0:
223,195,12934,2,0,L|343:188,1,105,2|10,0:0|0:0,0:0:0:0:
383,186,13425,1,2,0:0:0:0:
383,186,13589,2,0,P|403:135|393:71,1,105,0|8,3:2|0:0,0:0:0:0:
324,11,14245,1,2,0:0:0:0:
234,65,14573,1,10,0:0:0:0:
239,169,14901,6,0,L|246:293,1,105,2|10,3:2|0:0,0:0:0:0:
308,357,15556,2,0,P|356:375|427:358,1,105,2|10,0:0|0:0,0:0:0:0:
450,334,16048,1,2,0:0:0:0:
450,334,16212,2,0,P|455:280|426:222,1,105,0|8,3:2|0:0,0:0:0:0:
346,179,16868,1,2,0:0:0:0:
254,230,17196,1,10,0:0:0:0:
153,198,17524,6,0,B|130:166|130:166|124:98,1,105,6|8,3:2|0:0,0:0:0:0:
204,33,18179,2,0,L|321:28,1,105,2|10,0:0|0:0,0:0:0:0:
364,30,18671,1,2,0:0:0:0:
364,30,18835,1,0,3:2:0:0:
438,103,19163,1,14,0:0:0:0:
375,187,19491,1,14,0:0:0:0:
449,260,19819,1,10,3:2:0:0:
386,344,20147,5,6,3:2:0:0:
256,192,20311,12,2,24081,0:0:0:0:
292,52,25065,5,2,0:0:0:0:
204,17,25393,2,0,P|184:46|182:115,1,94.499997116089,6|2,0:0|0:0,0:0:0:0:
255,161,26048,2,0,P|274:190|276:259,1,94.499997116089,2|2,0:0|0:0,0:0:0:0:
246,337,26704,2,0,B|174:374|174:374|61:358,1,188.999994232178,2|2,0:0|0:0,0:0:0:0:
3,180,28015,6,0,P|47:122|78:112,1,94.499997116089,2|2,0:0|0:0,0:0:0:0:
160,113,28671,2,0,L|276:117,1,94.499997116089,2|2,0:0|0:0,0:0:0:0:
349,120,29327,2,0,P|358:71|335:12,2,94.499997116089,2|2|2,0:0|0:0|0:0,0:0:0:0:
304,203,30311,1,2,0:0:0:0:
346,290,30638,6,0,L|445:297,1,94.499997116089,2|2,0:0|0:0,0:0:0:0:
508,230,31294,2,0,P|521:176|505:125,1,94.499997116089,2|2,0:0|0:0,0:0:0:0:
457,61,31950,2,0,B|411:104|411:104|271:89,1,188.999994232178,2|2,0:0|0:0,0:0:0:0:
97,77,33261,6,0,B|76:32|76:32|24:7,2,94.499997116089,2|2|2,0:0|0:0|0:0,0:0:0:0:
143,159,34245,2,0,L|141:228,1,47.2499985580445,2|0,0:0|0:0,0:0:0:0:
169,244,34573,2,0,B|215:260|215:260|270:241,2,94.499997116089,2|2|2,0:0|0:0|0:0,0:0:0:0:
84,285,35556,1,2,0:0:0:0:
22,206,35884,6,0,P|19:148|57:103,1,99.7499973363877,6|2,3:2|0:0,0:0:0:0:
138,91,36540,2,0,P|183:112|245:97,1,99.7499973363877,2|2,0:0|0:0,0:0:0:0:
310,44,37196,1,2,3:2:0:0:
403,79,37524,2,0,P|433:129|425:185,1,99.7499973363877,2|2,3:2|1:2,0:0:0:0:
379,361,38507,6,0,L|265:351,1,99.7499973363877,2|2,3:2|0:0,0:0:0:0:
190,307,39163,2,0,P|186:245|205:200,1,99.7499973363877,2|2,0:0|0:0,0:0:0:0:
279,151,39819,2,0,L|393:140,2,99.7499973363877,2|2|2,3:2|3:2|1:2,0:0:0:0:
194,97,40802,1,2,0:0:0:0:
250,14,41130,6,0,P|300:-3|352:8,1,99.7499973363877,2|2,3:2|0:0,0:0:0:0:
432,54,41786,2,0,P|428:106|452:154,1,99.7499973363877,2|2,0:0|0:0,0:0:0:0:
403,238,42442,1,2,3:2:0:0:
321,179,42770,2,0,L|204:185,1,99.7499973363877,2|2,3:2|1:2,0:0:0:0:
133,363,43753,6,0,P|177:378|233:363,1,99.7499973363877,2|2,3:2|0:0,0:0:0:0:
282,282,44409,1,2,0:0:0:0:
282,282,44573,1,2,0:0:0:0:
362,341,44901,2,0,B|388:358|388:358|461:338,1,99.7499973363877,6|0,3:2|3:2,0:0:0:0:
494,309,45393,2,0,P|501:277|497:243,1,49.8749986681939,8|0,0:0|3:2,0:0:0:0:
484,212,45720,2,0,P|477:180|481:146,1,49.8749986681939,0|0,3:2|3:0,0:0:0:0:
495,116,46048,1,10,0:0:0:0:
423,39,46376,6,0,P|354:30|310:41,2,105,6|0|0,3:2|3:2|3:2,0:0:0:0:
495,116,47360,2,0,L|484:190,1,52.5,2|2,3:2|0:0,0:0:0:0:
459,212,47688,2,0,P|426:217|353:178,1,105,2|2,3:2|3:2,0:0:0:0:
290,111,48343,1,2,3:2:0:0:
189,138,48671,1,10,0:0:0:0:
88,108,48999,6,0,P|59:59|68:-8,2,105,2|0|0,3:2|3:2|3:2,0:0:0:0:
135,201,49983,2,0,P|145:233|139:267,1,52.5,2|2,3:2|0:0,0:0:0:0:
127,301,50311,1,2,3:2:0:0:
35,352,50638,1,2,3:2:0:0:
15,248,50966,1,2,3:2:0:0:
46,147,51294,1,10,0:0:0:0:
144,183,51622,6,0,P|194:204|257:190,2,105,6|0|0,3:2|3:2|3:2,0:0:0:0:
77,100,52606,2,0,L|89:40,1,52.5,2|2,3:2|0:0,0:0:0:0:
126,14,52934,2,0,P|176:8|246:38,1,105,2|2,3:2|3:2,0:0:0:0:
319,74,53589,1,2,3:2:0:0:
421,53,53917,1,10,0:0:0:0:
485,135,54245,6,0,L|496:251,1,105,2|0,3:2|3:2,0:0:0:0:
437,328,54901,2,0,L|321:317,1,105,2|0,3:2|3:2,0:0:0:0:
247,256,55556,1,2,3:2:0:0:
186,341,55884,1,4,3:2:0:0:
92,294,56212,2,0,B|70:248|70:248|99:129,1,157.5,10|0,0:0|3:2,0:0:0:0:
142,120,56868,6,0,P|189:133|254:110,1,105,6|8,3:2|0:0,0:0:0:0:
278,80,57360,2,0,P|320:61|384:61,1,105,0|2,0:0|3:2,0:0:0:0:
427,79,57852,1,10,0:0:0:0:
465,176,58179,2,0,P|476:232|456:293,1,105,2|8,3:2|0:0,0:0:0:0:
437,323,58671,2,0,L|320:311,1,105,0|2,3:2|3:2,0:0:0:0:
279,307,59163,1,10,0:0:0:0:
233,212,59491,6,0,L|225:94,1,105,2|8,3:2|0:0,0:0:0:0:
194,64,59983,2,0,P|164:51|91:68,1,105,0|2,0:0|3:2,0:0:0:0:
60,103,60474,1,10,0:0:0:0:
34,204,60802,2,0,L|43:315,1,105,2|8,3:2|0:0,0:0:0:0:
70,353,61294,2,0,P|122:333|182:348,1,105,0|0,3:2|3:2,0:0:0:0:
215,366,61786,1,8,0:0:0:0:
314,333,62114,5,4,3:2:0:0:
410,375,62442,2,0,P|439:353|453:279,1,105,2|10,3:2|0:0,0:0:0:0:
425,196,63097,1,10,0:0:0:0:
425,196,63261,2,0,L|298:180,1,105,6|2,3:2|3:2,0:0:0:0:
268,179,63753,1,10,0:0:0:0:
193,253,64081,1,10,0:0:0:0:
99,204,64409,1,2,3:2:0:0:
116,100,64737,6,0,P|160:58|206:54,1,105,6|0,3:2|3:2,0:0:0:0:
305,71,65393,1,8,0:0:0:0:
241,154,65720,1,0,3:2:0:0:
241,154,65884,2,0,P|232:222|254:268,1,105,8|8,0:0|0:0,0:0:0:0:
276,296,66376,1,0,0:0:0:0:
370,341,66704,2,0,L|456:340,2,78.75,10|2|2,0:0|0:0|3:2,0:0:0:0:
328,373,67360,5,12,0:0:0:0:
222,372,67688,2,0,P|186:353|168:329,1,52.5,0|0,3:2|3:2,0:0:0:0:
135,314,68015,2,0,P|133:273|145:245,1,52.5,8|0,3:2|3:2,0:0:0:0:
141,209,68343,2,0,P|175:187|205:183,1,52.5,8|0,3:2|3:2,0:0:0:0:
234,161,68671,1,8,3:2:0:0:
290,249,68999,2,0,P|328:275|451:246,1,157.5,4|2,3:2|0:0,0:0:0:0:
469,222,69655,1,2,0:0:0:0:
435,111,69983,6,0,B|369:100,1,57.7500017623902,6|0,3:2|0:0,0:0:0:0:
320,94,70311,1,10,0:0:0:0:
274,128,70474,2,0,P|234:159|163:148,1,115.50000352478,2|2,3:2|3:2,0:0:0:0:
130,113,70966,1,10,0:0:0:0:
33,176,71294,2,0,L|35:260,1,57.7500017623902,2|0,3:2|0:0,0:0:0:0:
39,291,71622,1,10,0:0:0:0:
71,338,71786,2,0,P|111:355|185:332,1,115.50000352478,2|0,3:2|3:2,0:0:0:0:
222,299,72278,1,10,0:0:0:0:
263,191,72606,6,0,P|290:156|367:134,1,115.50000352478,2|10,3:2|0:0,0:0:0:0:
465,168,73261,2,0,L|459:291,1,115.50000352478,2|10,3:2|0:0,0:0:0:0:
454,341,73753,2,0,B|410:337|410:337|384:320|384:320|343:316,1,115.50000352478,2|0,0:0|0:0,0:0:0:0:
304,359,74245,2,0,B|179:368|180:368,1,115.50000352478,8|0,0:0|3:2,0:0:0:0:
135,375,74737,1,2,0:0:0:0:
135,375,74901,1,10,0:0:0:0:
41,306,75229,6,0,L|35:231,1,57.7500017623902,6|0,3:2|0:0,0:0:0:0:
34,190,75556,1,10,0:0:0:0:
80,155,75720,2,0,P|137:131|207:159,1,115.50000352478,2|2,3:2|3:2,0:0:0:0:
236,173,76212,1,10,0:0:0:0:
311,260,76540,2,0,L|385:261,1,57.7500017623902,2|0,3:2|0:0,0:0:0:0:
426,261,76868,1,10,0:0:0:0:
472,226,77032,2,0,P|488:166|458:104,1,115.50000352478,2|0,3:2|3:2,0:0:0:0:
432,73,77524,1,10,0:0:0:0:
355,159,77852,6,0,P|294:168|233:139,1,115.50000352478,2|8,3:2|0:0,0:0:0:0:
182,51,78507,2,0,P|147:43|111:48,1,57.7500017623902,2|0,3:2|3:2,0:0:0:0:
73,66,78835,1,10,0:0:0:0:
73,66,78999,2,0,L|72:204,1,115.50000352478,6|0,3:2|3:2,0:0:0:0:
69,239,79491,2,0,B|113:238|113:238|140:224|140:224|180:224,1,115.50000352478,8|0,0:0|3:2,0:0:0:0:
242,234,79983,1,2,0:0:0:0:
242,234,80147,1,10,0:2:0:0:
278,343,80474,6,0,B|315:362|315:362|398:345,1,115.50000352478,6|10,3:2|0:0,0:0:0:0:
427,305,80966,2,0,P|423:239|467:182,1,115.50000352478,2|0,3:2|3:2,0:0:0:0:
484,153,81458,2,0,B|483:91|483:93,1,57.7500017623902,10|2,0:0|0:0,0:0:0:0:
479,37,81786,1,2,3:2:0:0:
369,0,82114,1,10,0:0:0:0:
299,93,82442,1,2,0:0:0:0:
366,187,82770,1,10,0:0:0:0:
297,279,83097,5,2,3:2:0:0:
188,241,83425,1,10,0:0:0:0:
211,354,83753,1,2,3:2:0:0:
100,370,84081,1,10,0:0:0:0:
100,370,84245,2,0,B|62:368|62:368|23:287,1,115.50000352478,6|0,3:2|3:2,0:0:0:0:
4,245,84737,1,8,0:0:0:0:
60,144,85065,2,0,P|91:132|132:136,1,57.7500017623902,0|0,3:2|3:2,0:0:0:0:
171,145,85393,1,10,0:0:0:0:
270,202,85720,6,0,L|284:336,1,115.50000352478,6|8,3:2|0:0,0:0:0:0:
380,377,86376,2,0,P|429:377|487:318,1,115.50000352478,2|8,0:0|0:0,0:0:0:0:
510,226,87032,2,0,L|497:111,1,115.50000352478,2|8,3:2|0:0,0:0:0:0:
429,17,87688,2,0,P|363:15|311:36,1,115.50000352478,2|8,0:0|0:0,0:0:0:0:
230,108,88343,6,0,P|164:110|112:89,1,115.50000352478,2|14,3:2|3:2,0:0:0:0:
60,96,88835,2,0,P|35:139|46:215,1,115.50000352478,2|2,0:0|3:2,0:0:0:0:
75,248,89327,2,0,L|78:319,1,57.7500017623902,12|2,0:0|0:0,0:0:0:0:
81,363,89655,1,0,3:2:0:0:
196,374,89983,2,0,P|233:376|270:363,1,57.7500017623902,12|0,0:0|3:2,0:0:0:0:
300,337,90311,2,0,P|337:335|374:348,1,57.7500017623902,12|0,0:0|3:2,0:0:0:0:
403,373,90638,1,2,3:2:0:0:
457,283,90966,6,0,L|465:173,1,105,6|2,3:2|3:0,0:0:0:0:
407,91,91622,2,0,P|349:80|300:95,1,105,2|2,0:0|3:0,0:0:0:0:
240,175,92278,2,0,L|248:285,1,105,6|2,3:2|3:0,0:0:0:0:
181,362,92934,2,0,P|123:373|74:358,1,105,2|2,0:0|3:0,0:0:0:0:
26,268,93589,6,0,B|9:164|9:164|41:60,2,210,6|4|4,3:2|3:2|3:2,0:0:0:0:
131,267,95229,1,8,3:2:0:0:
205,192,95556,2,0,P|230:182|275:185,1,52.5,10|10,0:0|0:0,0:0:0:0:
306,192,95884,2,0,P|327:208|347:249,1,52.5,10|10,0:0|0:0,0:0:0:0:
356,279,96212,5,6,3:2:0:0:
256,192,96376,12,2,103753,0:0:0:0:
