osu file format v14

[General]
AudioFilename: audio.mp3
AudioLeadIn: 0
PreviewTime: 69355
Countdown: 0
SampleSet: Soft
StackLeniency: 0.7
Mode: 0
LetterboxInBreaks: 0
WidescreenStoryboard: 1

[Editor]
DistanceSpacing: 1.3
BeatDivisor: 4
GridSize: 8
TimelineZoom: 1.5

[Metadata]
Title:Setsunai Sandglass
TitleUnicode:切ないSandglass
Artist:Poppin'Party
ArtistUnicode:Poppin'Party
Creator:Mocaotic
Version:Hard
Source:バンドリ! ガールズバンドパーティ!
Tags:Amateurre BanG Dream! Bandori! Girls Band Party! ガルパ Garupa insert cover original song single album Bandori project Girl Party Garupa! ポピパ ポッピン パーティー Popipa 戸山香澄 Toyama Kasumi 山吹沙綾 Yamabuki Saaya 牛込りみ Ushigome Rimi 花園たえ Hanazono Tae 大塚紗英 Ichigaya Arisa 寺川愛美 Terakawa Aimi 大橋彩香 Ohashi Ayaka 西本りみ Nishimoto Rimi 大塚紗英 Otsuka Sae 伊藤彩沙 Itou Ayasa eleventh 11th Girl's Code Japanese Video Game Anime 範康 上松 Agematsu Noriyasu 中村航 Nakamura Kou 菊田大介 Kikuta Daisuke
BeatmapID:2268568
BeatmapSetID:1051893

[Difficulty]
HPDrainRate:4
CircleSize:3.8
OverallDifficulty:6
ApproachRate:8
SliderMultiplier:1.3
SliderTickRate:1

[Events]
//Background and Video events
0,0,"EBheO2NU0AAkcCG.jpg",0,0
//Break Periods
//Storyboard Layer 0 (Background)
//Storyboard Layer 1 (Fail)
//Storyboard Layer 2 (Pass)
//Storyboard Layer 3 (Foreground)
//Storyboard Layer 4 (Overlay)
//Storyboard Sound Samples

[TimingPoints]
475,327.868852459016,4,2,2,70,1,0
802,-153.846153846154,4,2,2,25,0,0
1786,-125,4,2,2,25,0,0
6540,-125,4,2,3,35,0,0
6704,-125,4,2,2,35,0,0
6950,-125,4,2,2,5,0,0
7032,-111.111111111111,4,2,2,60,0,0
8671,-111.111111111111,4,2,2,65,0,0
8999,-111.111111111111,4,2,2,70,0,0
9327,-111.111111111111,4,2,2,75,0,0
9655,-100,4,2,2,80,0,0
9901,-100,4,2,2,5,0,0
9983,-100,4,2,2,80,0,0
10966,-100,4,2,2,50,0,0
11294,-100,4,2,2,60,0,0
11622,-100,4,2,2,70,0,0
11950,-100,4,2,2,80,0,0
12278,-100,4,2,2,87,0,0
24737,-100,4,2,2,35,0,0
25065,-125,4,2,3,35,0,0
25393,-125,4,2,2,45,0,0
25720,-125,4,2,3,45,0,0
26048,-125,4,2,2,45,0,0
26376,-125,4,2,3,45,0,0
26704,-125,4,2,2,45,0,0
27032,-125,4,2,3,45,0,0
27360,-125,4,2,2,45,0,0
27688,-125,4,2,3,45,0,0
28015,-125,4,2,2,45,0,0
28343,-125,4,2,3,45,0,0
28671,-125,4,2,2,45,0,0
28999,-125,4,2,3,45,0,0
29327,-125,4,2,2,45,0,0
29655,-125,4,2,3,45,0,0
29983,-125,4,2,2,45,0,0
30311,-125,4,2,3,45,0,0
30638,-125,4,2,2,45,0,0
30966,-125,4,2,3,45,0,0
31294,-125,4,2,2,45,0,0
31622,-125,4,2,3,45,0,0
31950,-125,4,2,2,45,0,0
32278,-125,4,2,3,45,0,0
32606,-125,4,2,2,45,0,0
32934,-125,4,2,3,45,0,0
33261,-125,4,2,2,45,0,0
33589,-125,4,2,3,45,0,0
33917,-125,4,2,2,45,0,0
34245,-125,4,2,3,45,0,0
34573,-125,4,2,2,45,0,0
34901,-125,4,2,3,45,0,0
35229,-125,4,2,2,45,0,0
35884,-111.111111111111,4,2,2,60,0,0
46376,-100,4,2,2,70,0,0
56130,-100,4,2,2,5,0,0
56212,-100,4,2,2,70,0,0
56868,-100,4,2,2,80,0,0
62114,-111.111111111111,4,2,2,72,0,0
67360,-100,4,2,2,85,0,0
67688,-100,4,2,2,60,0,0
68015,-100,4,2,2,70,0,0
68343,-100,4,2,2,80,0,0
68671,-117.647058823529,4,2,2,85,0,0
69409,-117.647058823529,4,2,2,5,0,0
69491,-100,4,2,2,100,0,0
69983,-83.3333333333333,4,2,2,100,0,1
72114,-83.3333333333333,4,2,2,85,0,1
74737,-83.3333333333333,4,2,2,100,0,1
77524,-83.3333333333333,4,2,2,85,0,1
79983,-83.3333333333333,4,2,2,100,0,1
80474,-83.3333333333333,4,2,2,92,0,1
82114,-83.3333333333333,4,2,2,87,0,1
82442,-83.3333333333333,4,2,2,82,0,1
82770,-83.3333333333333,4,2,2,90,0,1
83425,-83.3333333333333,4,2,2,85,0,1
83753,-83.3333333333333,4,2,2,80,0,1
84245,-83.3333333333333,4,2,2,90,0,1
90966,-100,4,2,2,78,0,0
94901,-100,4,2,2,85,0,0
95229,-100,4,2,2,35,0,0
95393,-100,4,2,2,45,0,0
95556,-100,4,2,2,55,0,0
95720,-100,4,2,2,65,0,0
95884,-100,4,2,2,75,0,0
96048,-100,4,2,2,85,0,0
96212,-100,4,2,2,95,0,0
97524,-100,4,2,2,85,0,0
98835,-100,4,2,2,75,0,0
100147,-100,4,2,2,65,0,0
101458,-100,4,2,2,55,0,0
102770,-100,4,2,2,45,0,0
103753,-100,4,2,2,35,0,0

[Colours]
Combo1 : 45,85,168
Combo2 : 204,103,85
Combo3 : 93,177,241
Combo4 : 211,186,179

[HitObjects]
58,125,802,6,0,L|64:209,2,84.4999961318971,2|2|2,0:0|0:0|0:0,0:0:0:0:
89,5,1786,6,0,B|179:-26|185:65|299:15,1,208,2|0,0:0|0:0,0:0:0:0:
302,32,2770,1,2,0:0:0:0:
314,44,3097,2,0,P|329:105|315:153,1,104,2|2,0:0|0:0,0:0:0:0:
250,222,3753,2,0,P|251:284|277:327,1,104,2|2,0:0|0:0,0:0:0:0:
360,373,4409,5,2,0:0:0:0:
371,380,5065,2,0,L|479:366,1,104,2|2,0:0|0:0,0:0:0:0:
508,268,5720,1,2,0:0:0:0:
508,268,6376,2,0,L|501:205,1,52,2|2,0:0|0:0,0:0:0:0:
485,180,6622,1,2,0:0:0:0:
485,180,6704,2,0,P|437:193|395:178,1,78,2|0,0:0|0:0,0:0:0:0:
373,161,7032,6,0,P|363:102|384:37,2,116.999996429443,6|0|0,3:2|3:2|3:2,0:0:0:0:
437,272,8015,1,2,3:2:0:0:
351,366,8343,1,2,3:2:0:0:
235,314,8671,1,2,3:2:0:0:
248,186,8999,1,2,3:2:0:0:
375,160,9327,1,2,3:2:0:0:
449,295,9655,6,0,L|332:282,1,97.5,6|0,3:2|0:0,0:0:0:0:
311,293,9983,2,0,P|303:336|310:378,1,65,8|0,0:0|0:0,0:0:0:0:
225,267,10311,2,0,P|217:223|196:186,1,65,2|0,3:2|0:0,0:0:0:0:
136,161,10638,2,0,L|54:170,1,65,10|0,0:0|0:0,0:0:0:0:
21,252,10966,5,2,3:2:0:0:
84,323,11130,1,0,3:2:0:0:
84,323,11212,1,0,3:2:0:0:
84,323,11294,2,0,L|126:334,3,32.5,8|0|0|0,3:2|3:2|3:2|3:2,0:0:0:0:
162,312,11622,2,0,L|204:301,3,32.5,10|0|0|0,3:2|3:2|3:2|3:2,0:0:0:0:
238,325,11950,2,0,L|280:336,3,32.5,10|8|8|8,0:0|0:0|0:0|0:0,0:0:0:0:
317,348,12278,6,0,P|355:325|371:228,1,130,6|8,3:2|0:0,0:0:0:0:
264,137,12934,2,0,L|176:144,1,65,2|0,0:0|3:2,0:0:0:0:
142,195,13261,1,10,0:0:0:0:
71,173,13425,1,2,0:0:0:0:
71,173,13589,6,0,P|48:121|74:48,1,130,0|8,3:2|0:0,0:0:0:0:
216,3,14245,2,0,L|295:0,1,65,2|0,0:0|3:2,0:0:0:0:
336,56,14573,2,0,P|345:98|339:129,1,65,10|0,0:0|0:0,0:0:0:0:
276,162,14901,6,0,L|197:159,1,65,2|0,3:2|0:0,0:0:0:0:
145,202,15229,2,0,P|136:244|142:275,1,65,10|0,0:0|3:2,0:0:0:0:
196,318,15556,2,0,L|275:315,1,65,2|0,0:0|3:2,0:0:0:0:
334,286,15884,1,10,0:0:0:0:
365,362,16048,1,2,0:0:0:0:
365,362,16212,6,0,L|444:365,1,65,0|0,3:2|3:0,0:0:0:0:
503,335,16540,2,0,P|510:300|502:267,1,65,8|0,0:0|3:2,0:0:0:0:
473,199,16868,2,0,P|466:164|474:131,1,65,2|0,0:0|3:2,0:0:0:0:
440,63,17196,2,0,L|361:60,1,65,10|0,0:0|0:0,0:0:0:0:
281,13,17524,6,0,P|260:58|288:158,1,130,6|8,3:2|0:0,0:0:0:0:
364,260,18179,2,0,P|372:307|363:337,1,65,2|0,0:0|3:2,0:0:0:0:
312,378,18507,1,10,0:0:0:0:
246,346,18671,1,2,0:0:0:0:
246,346,18835,6,0,L|173:352,1,65,0|0,3:2|3:0,0:0:0:0:
89,384,19163,2,0,P|52:375|21:342,1,65,14|0,0:0|3:2,0:0:0:0:
0,264,19491,2,0,P|9:227|42:196,1,65,14|0,0:0|3:2,0:0:0:0:
102,192,19819,1,10,3:2:0:0:
165,256,19983,1,0,3:2:0:0:
165,256,20065,1,0,3:2:0:0:
165,256,20147,5,6,3:2:0:0:
256,192,20311,12,0,24737,0:0:0:0:
188,78,25065,6,0,L|130:72,1,52,2|0,0:0|0:0,0:0:0:0:
64,98,25393,5,6,0:0:0:0:
83,247,25720,2,0,L|90:310,2,52,2|0|2,0:0|0:0|0:0,0:0:0:0:
211,167,26376,2,0,P|240:157|268:157,1,52,2|0,0:0|0:0,0:0:0:0:
318,206,26704,6,0,L|313:281,1,52,2|0,0:0|0:0,0:0:0:0:
250,298,27032,2,0,L|255:373,1,52,2|0,0:0|0:0,0:0:0:0:
323,379,27360,2,0,P|381:383|425:343,1,104,2|2,0:0|0:0,0:0:0:0:
424,343,28015,5,2,0:0:0:0:
413,192,28343,2,0,L|409:136,1,52,2|0,0:0|0:0,0:0:0:0:
415,64,28671,2,0,P|454:59|477:64,2,52,2|0|2,0:0|0:0|0:0,0:0:0:0:
354,18,29163,1,0,0:0:0:0:
354,18,29327,6,0,L|235:14,1,104,2|2,0:0|0:0,0:0:0:0:
128,104,29983,1,2,0:0:0:0:
243,200,30311,2,0,L|314:197,1,52,2|0,0:0|0:0,0:0:0:0:
360,159,30638,5,2,0:0:0:0:
254,51,30966,2,0,L|254:-10,2,52,2|0|2,0:0|0:0|0:0,0:0:0:0:
128,135,31622,2,0,P|101:154|74:158,1,52,2|0,0:0|0:0,0:0:0:0:
7,154,31950,6,0,L|-1:95,1,52,2|0,0:0|0:0,0:0:0:0:
31,33,32278,2,0,L|78:-4,1,52,2|0,0:0|0:0,0:0:0:0:
147,2,32606,2,0,P|197:22|234:78,1,104,2|2,0:0|0:0,0:0:0:0:
220,68,33261,5,2,0:0:0:0:
70,84,33589,1,2,0:0:0:0:
86,234,33917,1,2,0:0:0:0:
236,218,34245,2,0,L|297:210,1,52,2|0,0:0|0:0,0:0:0:0:
362,201,34573,5,2,0:0:0:0:
512,217,34901,1,2,0:0:0:0:
496,367,35229,1,2,0:0:0:0:
346,351,35557,2,0,L|285:343,1,52,2|2,0:0|0:0,0:0:0:0:
230,274,35884,6,0,P|186:293|148:368,1,116.999996429443,6|2,3:2|0:0,0:0:0:0:
75,384,36376,1,2,0:0:0:0:
7,337,36540,2,0,L|3:214,1,116.999996429443,2|2,0:0|0:0,0:0:0:0:
50,152,37032,1,2,0:0:0:0:
121,191,37196,6,0,P|178:200|231:174,1,116.999996429443,2|2,3:2|3:2,0:0:0:0:
275,106,37688,1,2,0:0:0:0:
356,99,37852,2,0,P|420:131|448:181,1,116.999996429443,2|0,1:2|0:0,0:0:0:0:
406,327,38507,6,0,L|327:333,1,58.4999982147217,2|0,3:2|0:0,0:0:0:0:
278,376,38835,2,0,L|199:370,2,58.4999982147217,2|2|2,0:0|0:0|0:0,0:0:0:0:
365,236,39491,1,2,0:0:0:0:
373,226,39819,6,0,P|388:190|363:101,1,116.999996429443,2|2,3:2|3:2,0:0:0:0:
238,23,40474,1,2,1:2:0:0:
91,95,40802,2,0,L|99:169,1,58.4999982147217,2|0,0:0|0:0,0:0:0:0:
160,222,41130,6,0,P|199:208|236:137,1,116.999996429443,2|2,3:2|0:0,0:0:0:0:
218,64,41622,1,2,0:0:0:0:
278,8,41786,2,0,L|397:3,1,116.999996429443,2|2,0:0|0:0,0:0:0:0:
462,50,42278,1,2,0:0:0:0:
416,118,42442,6,0,P|408:177|449:243,1,116.999996429443,2|2,3:2|3:2,0:0:0:0:
488,286,42934,1,2,0:0:0:0:
442,353,43097,2,0,L|318:364,1,116.999996429443,2|0,1:2|0:0,0:0:0:0:
164,330,43753,6,0,P|148:273|179:204,1,116.999996429443,2|2,3:2|0:0,0:0:0:0:
264,88,44409,1,2,0:0:0:0:
208,28,44573,1,2,0:0:0:0:
199,19,44901,6,0,L|67:15,1,116.999996429443,6|0,3:2|3:2,0:0:0:0:
16,74,45393,2,0,P|9:116|20:145,1,58.4999982147217,8|0,0:0|3:2,0:0:0:0:
85,180,45720,2,0,P|92:222|81:251,1,58.4999982147217,0|0,3:2|3:0,0:0:0:0:
28,302,46048,1,10,0:0:0:0:
28,302,46212,1,2,0:0:0:0:
101,377,46376,6,0,B|202:380|202:380|257:361,2,130,6|0|0,3:2|3:2|3:2,0:0:0:0:
25,223,47360,1,2,3:2:0:0:
25,223,47524,1,2,0:0:0:0:
112,230,47688,6,0,P|144:233|183:220,1,65,2|0,3:2|0:0,0:0:0:0:
260,247,48015,2,0,P|261:215|248:176,1,65,2|0,3:2|0:0,0:0:0:0:
277,100,48343,2,0,P|243:99|204:113,1,65,2|0,3:2|0:0,0:0:0:0:
130,82,48671,2,0,P|127:116|141:155,1,65,10|0,0:0|0:0,0:0:0:0:
175,224,48999,6,0,B|219:239|219:239|326:219,2,130,2|0|0,3:2|3:2|3:2,0:0:0:0:
210,54,49983,1,2,3:2:0:0:
210,54,50147,1,2,0:0:0:0:
289,15,50311,6,0,P|326:10|360:16,1,65,2|0,3:2|0:0,0:0:0:0:
395,90,50638,2,0,P|358:95|324:89,1,65,2|0,3:2|0:0,0:0:0:0:
299,177,50966,2,0,P|336:172|370:178,1,65,2|0,3:2|0:0,0:0:0:0:
405,248,51294,2,0,P|368:253|334:247,1,65,10|0,0:0|0:0,0:0:0:0:
253,264,51622,6,0,B|222:302|222:302|224:388,2,130,6|0|0,3:2|3:2|3:2,0:0:0:0:
364,128,52606,1,2,3:2:0:0:
364,128,52770,1,2,0:0:0:0:
441,168,52934,6,0,P|485:169|524:157,1,65,2|0,3:2|0:0,0:0:0:0:
375,218,53261,2,0,P|374:262|386:301,1,65,2|0,3:2|0:0,0:0:0:0:
325,152,53589,2,0,P|281:151|242:163,1,65,2|0,3:2|0:0,0:0:0:0:
391,102,53917,2,0,P|392:58|380:19,1,65,10|0,0:0|0:0,0:0:0:0:
306,2,54245,6,0,L|168:12,1,130,2|0,3:2|3:2,0:0:0:0:
66,149,54901,2,0,L|204:159,1,130,2|0,3:2|3:2,0:0:0:0:
370,171,55556,5,2,3:2:0:0:
245,46,55884,2,0,P|187:36|138:62,1,97.5,4|0,3:2|0:0,0:0:0:0:
125,85,56212,2,0,L|130:199,1,108.333333333333,10|0,0:0|3:2,0:0:0:0:
133,306,56704,1,0,3:2:0:0:
208,384,56868,6,0,B|240:351|240:351|334:346,1,130,6|8,3:2|0:0,0:0:0:0:
415,340,57360,2,0,P|440:283|416:204,1,130,0|2,0:0|3:2,0:0:0:0:
362,152,57852,1,10,0:0:0:0:
284,199,58015,1,2,0:0:0:0:
204,155,58179,6,0,P|190:105|232:27,1,130,2|8,3:2|0:0,0:0:0:0:
305,2,58671,2,0,L|440:6,1,130,0|2,3:2|3:2,0:0:0:0:
506,62,59163,1,10,0:0:0:0:
504,153,59327,1,2,0:0:0:0:
433,210,59491,6,0,L|298:206,1,130,2|8,3:2|0:0,0:0:0:0:
250,130,59983,2,0,L|115:134,1,130,0|2,0:0|3:2,0:0:0:0:
29,135,60474,1,10,0:0:0:0:
73,55,60638,1,2,0:0:0:0:
120,133,60802,6,0,P|133:193|105:273,1,130,2|8,3:2|0:0,0:0:0:0:
56,327,61294,2,0,P|104:310|190:346,1,130,0|0,3:2|3:2,0:0:0:0:
266,384,61786,1,8,0:0:0:0:
338,328,61950,1,8,0:0:0:0:
338,328,62032,1,8,0:0:0:0:
338,328,62114,6,0,L|344:191,1,116.999996429443,4|2,3:2|3:2,0:0:0:0:
349,46,62770,1,10,0:0:0:0:
358,38,63097,5,10,0:0:0:0:
445,7,63261,2,0,P|460:31|445:126,1,116.999996429443,6|2,3:2|3:2,0:0:0:0:
390,169,63753,2,0,L|319:164,1,58.4999982147217,10|0,0:0|3:2,0:0:0:0:
262,120,64081,2,0,L|191:125,1,58.4999982147217,10|0,0:0|3:2,0:0:0:0:
142,179,64409,2,0,P|137:227|152:257,1,58.4999982147217,2|0,3:2|3:2,0:0:0:0:
195,317,64737,6,0,B|232:293|232:293|324:285,1,116.999996429443,6|0,3:2|3:2,0:0:0:0:
440,373,65393,1,8,0:0:0:0:
449,384,65720,5,0,3:2:0:0:
500,319,65884,2,0,L|503:233,1,58.4999982147217,8|0,0:0|0:0,0:0:0:0:
441,204,66212,2,0,L|428:119,1,58.4999982147217,8|0,0:0|0:0,0:0:0:0:
480,79,66540,1,0,3:2:0:0:
416,27,66704,2,0,B|386:16|386:16|316:22,2,87.7499973220826,10|2|2,0:0|0:0|3:2,0:0:0:0:
491,104,67360,5,12,0:0:0:0:
403,244,67688,2,0,L|352:243,3,32.5,0|0|0|0,3:2|3:2|3:2|3:2,0:0:0:0:
325,247,68015,2,0,L|288:211,3,32.5,8|0|0|0,3:2|3:2|3:2|3:2,0:0:0:0:
267,193,68343,2,0,L|266:142,3,32.5,8|0|0|0,3:2|3:2|3:2|3:2,0:0:0:0:
264,113,68671,5,8,3:2:0:0:
187,75,68835,1,0,3:2:0:0:
187,75,68917,1,0,3:2:0:0:
187,75,68999,2,0,P|146:122|161:205,1,138.125002634525,4|0,3:2|0:0,0:0:0:0:
184,233,69491,6,0,L|260:229,2,65,2|2|2,0:0|0:0|0:0,0:0:0:0:
70,254,69983,6,0,P|64:297|76:340,1,77.999997619629,6|0,3:2|0:0,0:0:0:0:
151,384,70311,1,10,0:0:0:0:
225,327,70474,2,0,L|315:314,1,77.999997619629,2|0,3:2|0:0,0:0:0:0:
374,255,70802,1,2,3:2:0:0:
433,333,70966,1,10,0:0:0:0:
433,333,71130,1,2,0:0:0:0:
497,265,71294,6,0,L|503:171,1,77.999997619629,2|0,3:2|0:0,0:0:0:0:
461,102,71622,1,10,0:0:0:0:
386,159,71786,2,0,B|344:187|344:187|228:183,1,155.999995239258,2|0,3:2|3:2,0:0:0:0:
161,128,72278,2,0,P|157:64|170:40,1,77.999997619629,10|2,0:0|0:0,0:0:0:0:
241,2,72606,6,0,L|346:-2,1,77.999997619629,2|0,3:2|0:0,0:0:0:0:
309,92,72934,2,0,L|204:88,1,77.999997619629,10|0,0:0|0:0,0:0:0:0:
243,181,73261,2,0,L|348:177,1,77.999997619629,2|0,3:2|3:2,0:0:0:0:
396,234,73589,1,10,0:0:0:0:
344,313,73753,1,2,0:0:0:0:
344,313,73917,6,0,P|276:317|224:382,2,155.999995239258,0|8|0,3:2|0:0|3:2,0:0:0:0:
437,299,74737,2,0,L|447:391,2,77.999997619629,2|10|2,3:2|0:0|0:0,0:0:0:0:
478,185,75229,6,0,P|414:174|387:187,1,77.999997619629,6|0,3:2|0:0,0:0:0:0:
329,235,75556,1,10,0:0:0:0:
246,190,75720,2,0,L|238:94,1,77.999997619629,2|0,3:2|0:0,0:0:0:0:
275,25,76048,1,2,3:2:0:0:
187,9,76212,1,10,0:0:0:0:
187,9,76376,1,2,0:0:0:0:
129,82,76540,6,0,L|122:159,1,77.999997619629,2|0,3:2|0:0,0:0:0:0:
168,241,76868,1,10,0:0:0:0:
154,333,77032,2,0,B|104:361|104:361|2:325,1,155.999995239258,2|0,3:2|3:2,0:0:0:0:
9,233,77524,2,0,L|92:199,1,77.999997619629,10|0,0:0|0:0,0:0:0:0:
166,164,77852,6,0,P|185:84|118:17,1,155.999995239258,2|8,3:2|0:2,0:0:0:0:
9,155,78507,2,0,L|8:268,1,77.999997619629,2|0,3:2|3:2,0:0:0:0:
5,327,78835,1,10,0:0:0:0:
108,268,78999,6,0,B|184:234|186:302|262:260,1,155.999995239258,6|0,3:2|3:2,0:0:0:0:
349,237,79491,2,0,P|375:266|375:322,1,77.999997619629,8|0,0:0|3:2,0:0:0:0:
431,382,79819,1,0,3:2:0:0:
510,332,79983,2,0,L|499:241,1,77.999997619629,2|10,3:2|0:2,0:0:0:0:
458,180,80311,1,2,3:2:0:0:
458,180,80393,1,0,3:2:0:0:
458,180,80474,6,0,B|403:173|403:173|307:216,1,155.999995239258,6|10,3:2|0:0,0:0:0:0:
260,293,80966,2,0,B|284:203|224:210|259:119,1,155.999995239258,2|0,3:2|3:2,0:0:0:0:
318,74,81458,1,10,0:0:0:0:
318,74,81622,1,2,0:0:0:0:
402,114,81786,6,0,P|413:159|403:204,1,77.999997619629,2|0,3:2|3:2,0:0:0:0:
332,245,82114,2,0,P|321:200|331:155,1,77.999997619629,10|0,0:0|3:2,0:0:0:0:
235,80,82442,2,0,P|246:125|236:170,1,77.999997619629,2|0,0:0|3:2,0:0:0:0:
165,211,82770,2,0,P|154:166|164:121,1,77.999997619629,10|0,0:0|0:0,0:0:0:0:
125,47,83097,6,0,L|38:54,1,77.999997619629,2|0,3:2|0:0,0:0:0:0:
0,138,83425,2,0,L|86:145,1,77.999997619629,10|0,0:0|0:0,0:0:0:0:
125,229,83753,2,0,L|38:236,1,77.999997619629,2|0,3:2|3:2,0:0:0:0:
0,320,84081,1,10,0:0:0:0:
100,384,84245,6,0,P|125:349|231:329,1,155.999995239258,6|0,3:2|3:2,0:0:0:0:
314,371,84737,2,0,P|366:381|404:363,1,77.999997619629,8|0,0:0|0:0,0:0:0:0:
463,316,85065,2,0,L|467:235,1,77.999997619629,0|0,3:2|3:2,0:0:0:0:
415,159,85393,1,10,0:0:0:0:
351,226,85556,1,10,0:0:0:0:
351,226,85638,1,8,0:0:0:0:
351,226,85720,6,0,P|309:237|260:222,1,77.999997619629,6|0,3:2|0:0,0:0:0:0:
200,173,86048,2,0,L|196:92,1,77.999997619629,8|0,0:0|3:2,0:0:0:0:
259,25,86376,2,0,P|301:14|350:29,1,77.999997619629,2|0,0:0|3:2,0:0:0:0:
408,78,86704,2,0,L|404:159,1,77.999997619629,8|0,0:0|0:0,0:0:0:0:
338,223,87032,6,0,P|295:230|256:212,1,77.999997619629,2|0,3:2|3:2,0:0:0:0:
189,160,87360,2,0,P|146:153|107:171,1,77.999997619629,8|0,0:0|3:2,0:0:0:0:
56,238,87688,2,0,L|66:338,1,77.999997619629,2|0,0:0|3:2,0:0:0:0:
147,357,88015,2,0,L|247:347,1,77.999997619629,8|0,0:0|0:0,0:0:0:0:
318,381,88343,5,2,3:2:0:0:
318,381,88507,1,0,3:0:0:0:
422,328,88671,2,0,L|426:242,1,77.999997619629,14|2,0:0|0:0,0:0:0:0:
487,179,88999,1,0,3:2:0:0:
487,179,89163,1,2,3:2:0:0:
393,111,89327,2,0,L|307:115,1,77.999997619629,12|2,0:0|0:0,0:0:0:0:
247,180,89655,5,0,3:2:0:0:
247,180,89819,1,0,3:2:0:0:
146,124,89983,2,0,P|134:81|153:30,1,77.999997619629,12|0,0:0|3:2,0:0:0:0:
253,13,90311,2,0,L|338:17,1,77.999997619629,12|0,0:0|3:2,0:0:0:0:
424,23,90638,1,2,3:2:0:0:
370,100,90802,1,2,3:2:0:0:
464,152,90966,6,0,B|480:216|480:216|464:280,1,130,6|2,3:2|3:0,0:0:0:0:
320,352,91622,2,0,L|184:352,1,130,2|2,0:0|3:0,0:0:0:0:
47,278,92278,2,0,B|32:216|32:216|48:152,1,130,6|2,3:2|3:0,0:0:0:0:
192,72,92934,2,0,L|328:72,1,130,2|2,0:0|3:0,0:0:0:0:
481,129,93589,6,0,P|497:197|476:261,1,130,6|2,3:2|0:0,0:0:0:0:
311,251,94245,2,0,P|295:183|316:119,1,130,4|0,3:2|0:0,0:0:0:0:
396,273,94901,1,4,3:2:0:0:
403,280,95229,6,0,L|396:365,1,65,8|8,3:2|3:2,0:0:0:0:
322,379,95556,1,10,0:0:0:0:
322,379,95720,1,10,0:0:0:0:
246,353,95884,1,10,0:0:0:0:
246,353,96048,1,10,0:0:0:0:
196,268,96212,5,6,3:2:0:0:
256,192,96376,12,2,103753,0:0:0:0:
