osu file format v14

[General]
AudioFilename: audio.mp3
AudioLeadIn: 0
PreviewTime: 69355
Countdown: 0
SampleSet: Soft
StackLeniency: 0.4
Mode: 0
LetterboxInBreaks: 0
WidescreenStoryboard: 1

[Editor]
DistanceSpacing: 0.86
BeatDivisor: 1
GridSize: 8
TimelineZoom: 1.5

[Metadata]
Title:Setsunai Sandglass
TitleUnicode:切ないSandglass
Artist:Poppin'Party
ArtistUnicode:Poppin'Party
Creator:Mocaotic
Version:Amateurre's Insane
Source:バンドリ! ガールズバンドパーティ!
Tags:Amateurre BanG Dream! Bandori! Girls Band Party! ガルパ Garupa insert cover original song single album Bandori project Girl Party Garupa! ポピパ ポッピン パーティー Popipa 戸山香澄 Toyama Kasumi 山吹沙綾 Yamabuki Saaya 牛込りみ Ushigome Rimi 花園たえ Hanazono Tae 大塚紗英 Ichigaya Arisa 寺川愛美 Terakawa Aimi 大橋彩香 Ohashi Ayaka 西本りみ Nishimoto Rimi 大塚紗英 Otsuka Sae 伊藤彩沙 Itou Ayasa eleventh 11th Girl's Code Japanese Video Game Anime 範康 上松 Agematsu Noriyasu 中村航 Nakamura Kou 菊田大介 Kikuta Daisuke
BeatmapID:2201497
BeatmapSetID:1051893

[Difficulty]
HPDrainRate:5
CircleSize:4
OverallDifficulty:8
ApproachRate:9
SliderMultiplier:1.8
SliderTickRate:1

[Events]
//Background and Video events
0,0,"EBheO2NU0AAkcCG.jpg",0,0
//Break Periods
//Storyboard Layer 0 (Background)
//Storyboard Layer 1 (Fail)
//Storyboard Layer 2 (Pass)
//Storyboard Layer 3 (Foreground)
//Storyboard Layer 4 (Overlay)
//Storyboard Sound Samples

[TimingPoints]
475,327.868852459016,4,2,2,70,1,0
802,-333.333333333333,4,2,2,25,0,0
1786,-200,4,2,2,25,0,0
4901,-200,4,2,2,5,0,0
5065,-200,4,2,2,25,0,0
6294,-200,4,2,2,5,0,0
6376,-200,4,2,2,35,0,0
6540,-200,4,2,3,35,0,0
6704,-200,4,2,2,35,0,0
6950,-200,4,2,2,5,0,0
7032,-125,4,2,2,60,0,0
8671,-125,4,2,2,65,0,0
8999,-111.111111111111,4,2,2,70,0,0
9327,-111.111111111111,4,2,2,75,0,0
9655,-100,4,2,2,80,0,0
9901,-100,4,2,2,5,0,0
9983,-100,4,2,2,80,0,0
10966,-100,4,2,2,50,0,0
11294,-100,4,2,2,60,0,0
11622,-100,4,2,2,70,0,0
11950,-100,4,2,2,80,0,0
12278,-100,4,2,2,87,0,0
13835,-100,4,2,2,5,0,0
13917,-100,4,2,2,87,0,0
20147,-166.666666666667,4,2,2,87,0,0
24737,-166.666666666667,4,2,2,35,0,0
25065,-166.666666666667,4,2,3,35,0,0
25393,-166.666666666667,4,2,2,45,0,0
25720,-166.666666666667,4,2,3,45,0,0
26048,-166.666666666667,4,2,2,45,0,0
26376,-166.666666666667,4,2,3,45,0,0
26704,-166.666666666667,4,2,2,45,0,0
27032,-166.666666666667,4,2,3,45,0,0
27360,-250.000000000001,4,2,2,45,0,0
28015,-166.666666666667,4,2,2,45,0,0
28343,-166.666666666667,4,2,3,45,0,0
28671,-166.666666666667,4,2,2,45,0,0
28999,-166.666666666667,4,2,3,45,0,0
29327,-166.666666666667,4,2,2,45,0,0
29655,-166.666666666667,4,2,3,45,0,0
29983,-166.666666666667,4,2,2,45,0,0
30311,-166.666666666667,4,2,3,45,0,0
30638,-166.666666666667,4,2,2,45,0,0
30966,-166.666666666667,4,2,3,45,0,0
31294,-166.666666666667,4,2,2,45,0,0
31622,-166.666666666667,4,2,3,45,0,0
31950,-166.666666666667,4,2,2,45,0,0
32278,-166.666666666667,4,2,3,45,0,0
32606,-250.000000000001,4,2,2,45,0,0
33261,-166.666666666667,4,2,2,45,0,0
33589,-166.666666666667,4,2,3,45,0,0
33917,-166.666666666667,4,2,2,45,0,0
34245,-166.666666666667,4,2,3,45,0,0
34573,-250.000000000001,4,2,2,45,0,0
34901,-250.000000000001,4,2,3,45,0,0
35229,-250.000000000001,4,2,2,45,0,0
35556,-166.666666666667,4,2,2,45,0,0
35884,-166.666666666667,4,2,2,60,0,0
44573,-250.000000000001,4,2,2,60,0,0
44901,-125,4,2,2,60,0,0
46376,-111.111111111111,4,2,2,70,0,0
48917,-111.111111111111,4,2,2,5,0,0
48999,-111.111111111111,4,2,2,70,0,0
51540,-111.111111111111,4,2,2,5,0,0
51622,-111.111111111111,4,2,2,70,0,0
54163,-111.111111111111,4,2,2,5,0,0
54245,-111.111111111111,4,2,2,70,0,0
55802,-111.111111111111,4,2,2,5,0,0
55884,-111.111111111111,4,2,2,70,0,0
56868,-100,4,2,2,80,0,0
62114,-117.647058823529,4,2,2,72,0,0
62360,-117.647058823529,4,2,2,5,0,0
62442,-117.647058823529,4,2,2,72,0,0
67360,-100,4,2,2,85,0,0
67688,-100,4,2,2,60,0,0
68015,-100,4,2,2,70,0,0
68343,-100,4,2,2,80,0,0
68671,-100,4,2,2,85,0,0
69491,-100,4,2,2,100,0,0
69983,-83.3333333333333,4,2,2,100,0,1
72114,-83.3333333333333,4,2,2,85,0,1
74737,-83.3333333333333,4,2,2,100,0,1
77524,-83.3333333333333,4,2,2,85,0,1
79983,-83.3333333333333,4,2,2,100,0,1
80474,-83.3333333333333,4,2,2,92,0,1
82114,-83.3333333333333,4,2,2,87,0,1
82442,-83.3333333333333,4,2,2,82,0,1
82770,-83.3333333333333,4,2,2,90,0,1
83425,-83.3333333333333,4,2,2,85,0,1
83753,-83.3333333333333,4,2,2,80,0,1
84245,-83.3333333333333,4,2,2,90,0,1
90966,-100,4,2,2,78,0,0
91294,-100,4,2,2,78,0,0
91950,-100,4,2,2,78,0,0
92278,-100,4,2,2,78,0,0
92606,-100,4,2,2,78,0,0
93261,-100,4,2,2,78,0,0
93589,-166.666666666667,4,2,2,78,0,0
94901,-166.666666666667,4,2,2,85,0,0
95229,-166.666666666667,4,2,2,35,0,0
95393,-166.666666666667,4,2,2,45,0,0
95556,-166.666666666667,4,2,2,55,0,0
95720,-166.666666666667,4,2,2,65,0,0
95884,-166.666666666667,4,2,2,75,0,0
96048,-166.666666666667,4,2,2,85,0,0
96212,-166.666666666667,4,2,2,95,0,0
97524,-166.666666666667,4,2,2,85,0,0
98835,-166.666666666667,4,2,2,75,0,0
100147,-166.666666666667,4,2,2,65,0,0
101458,-166.666666666667,4,2,2,55,0,0
102770,-166.666666666667,4,2,2,45,0,0
103753,-166.666666666667,4,2,2,35,0,0

[Colours]
Combo1 : 45,85,168
Combo2 : 204,103,85
Combo3 : 93,177,241
Combo4 : 211,186,179

[HitObjects]
84,257,802,5,2,0:0:0:0:
86,263,1130,1,2,0:0:0:0:
88,269,1458,1,2,0:0:0:0:
152,346,1786,6,0,B|246:368|223:277|334:295,1,180,2|0,0:0|0:0,0:0:0:0:
315,293,2770,1,2,0:0:0:0:
385,351,3097,5,2,0:0:0:0:
315,293,3425,1,2,0:0:0:0:
348,208,3753,1,2,0:0:0:0:
439,213,4081,1,2,0:0:0:0:
462,301,4409,6,0,P|465:224|474:146,1,135,2|0,0:0|0:0,0:0:0:0:
490,75,5065,1,2,0:0:0:0:
403,108,5393,1,2,0:0:0:0:
326,47,5720,6,0,B|249:34|268:110|163:82,1,157.5,2|0,0:0|0:0,0:0:0:0:
159,78,6376,5,2,0:0:0:0:
60,142,6540,1,2,0:0:0:0:
60,142,6622,1,2,0:0:0:0:
60,142,6704,2,0,P|92:142|126:165,1,67.5,2|0,0:0|0:0,0:0:0:0:
130,177,7032,6,0,P|122:218|114:276,1,72,6|0,3:2|0:0,0:0:0:0:
158,341,7360,1,0,3:2:0:0:
158,341,7524,2,0,P|152:305|145:270,1,72,2|0,0:0|3:2,0:0:0:0:
42,237,7852,1,0,0:0:0:0:
42,237,8015,2,0,P|34:278|26:336,1,72,2|0,3:2|0:0,0:0:0:0:
161,254,8343,5,0,3:2:0:0:
161,254,8507,2,0,P|155:218|148:183,2,72,2|0|0,0:0|3:2|0:0,0:0:0:0:
244,312,8999,2,0,P|308:321|341:301,1,80.9999975280763,2|0,3:2|0:0,0:0:0:0:
411,281,9327,2,0,P|405:316|398:362,1,80.9999975280763,2|0,3:2|0:0,0:0:0:0:
285,240,9655,6,0,P|296:157|312:73,1,135,6|0,3:2|0:0,0:0:0:0:
309,82,9983,2,0,P|262:74|217:93,1,90,8|0,0:0|0:0,0:0:0:0:
410,184,10311,2,0,P|403:136|397:92,1,90,2|0,3:2|0:0,0:0:0:0:
200,110,10638,2,0,P|193:158|187:202,1,90,10|0,0:0|0:0,0:0:0:0:
188,321,10966,6,0,L|158:355,3,45,2|0|0|0,3:2|3:2|3:2|3:2,0:0:0:0:
122,257,11294,2,0,L|77:260,3,45,8|0|0|0,3:2|3:2|3:2|3:2,0:0:0:0:
224,231,11622,5,10,3:2:0:0:
247,224,11703,1,0,3:2:0:0:
270,223,11785,1,0,3:2:0:0:
294,226,11867,1,0,3:2:0:0:
320,240,11949,1,10,0:0:0:0:
345,259,12031,1,8,0:0:0:0:
374,271,12113,1,8,0:0:0:0:
406,273,12195,1,8,0:0:0:0:
435,271,12278,6,0,P|419:211|413:169,1,90,6|0,3:2|0:0,0:0:0:0:
283,135,12606,1,8,0:0:0:0:
320,240,12770,1,0,3:2:0:0:
385,112,12934,2,0,P|429:107|468:129,1,90,2|0,0:0|3:2,0:0:0:0:
419,286,13261,1,10,0:0:0:0:
307,157,13425,1,2,0:0:0:0:
247,327,13590,6,0,P|203:285|103:313,1,135,0|0,3:2|0:0,0:0:0:0:
112,304,13917,1,8,0:0:0:0:
234,210,14081,1,0,3:2:0:0:
161,109,14245,2,0,P|114:71|72:62,1,90,2|0,0:0|3:2,0:0:0:0:
154,218,14573,2,0,P|210:196|239:164,1,90,10|0,0:0|0:0,0:0:0:0:
64,158,14901,6,0,P|54:217|67:258,1,90,2|0,3:2|0:0,0:0:0:0:
132,302,15229,1,10,0:0:0:0:
267,174,15393,1,0,3:2:0:0:
235,336,15556,2,0,P|220:267|225:237,1,90,2|0,0:0|3:2,0:0:0:0:
343,211,15884,1,10,0:0:0:0:
216,100,16048,1,2,0:0:0:0:
110,189,16212,6,0,P|68:199|12:200,1,90,2|0,3:2|3:0,0:0:0:0:
130,102,16540,1,10,0:0:0:0:
198,262,16704,2,0,B|297:239|259:322|374:289,1,180,2|0,3:2|3:2,0:0:0:0:
420,195,17196,2,0,P|340:209|330:220,1,90,10|0,0:0|0:0,0:0:0:0:
235,364,17524,6,0,P|235:319|229:274,1,90,6|0,3:2|0:0,0:0:0:0:
281,120,17852,2,0,P|325:115|364:137,1,90,8|0,0:0|3:2,0:0:0:0:
183,148,18179,1,2,0:0:0:0:
304,205,18343,1,0,3:2:0:0:
216,54,18507,1,10,0:0:0:0:
203,258,18671,1,2,0:0:0:0:
93,160,18836,6,0,P|137:151|182:147,1,90,0|0,3:2|3:0,0:0:0:0:
375,149,19163,1,14,3:2:0:0:
375,149,19245,1,0,3:0:0:0:
375,149,19327,1,0,3:2:0:0:
297,221,19491,2,0,P|283:263|283:308,1,90,14|0,0:0|3:2,0:0:0:0:
212,137,19819,1,10,3:2:0:0:
395,282,19983,1,0,3:2:0:0:
395,282,20065,1,0,3:2:0:0:
395,282,20147,1,6,3:2:0:0:
256,192,20229,12,2,24737,0:0:0:0:
72,68,25065,6,0,L|146:55,1,53.9999983520508,2|0,0:0|0:0,0:0:0:0:
208,96,25393,1,6,0:0:0:0:
208,96,25720,2,0,L|282:83,1,53.9999983520508,2|0,0:0|0:0,0:0:0:0:
344,124,26048,1,2,0:0:0:0:
344,124,26376,2,0,L|418:111,1,53.9999983520508,2|0,0:0|0:0,0:0:0:0:
261,86,26704,6,0,L|208:96,1,53.9999983520508,2|0,0:0|0:0,0:0:0:0:
344,124,27032,2,0,L|418:111,1,53.9999983520508,2|0,0:0|0:0,0:0:0:0:
480,152,27360,1,2,0:0:0:0:
480,152,28015,5,2,0:0:0:0:
327,272,28343,2,0,P|337:247|352:224,1,53.9999983520508,2|0,0:0|0:0,0:0:0:0:
426,257,28671,2,0,P|451:245|478:240,1,53.9999983520508,2|0,0:0|0:0,0:0:0:0:
386,326,28998,1,2,0:0:0:0:
352,224,29163,1,0,0:0:0:0:
268,356,29327,5,2,0:0:0:0:
327,272,29655,1,2,0:0:0:0:
427,257,29983,1,2,0:0:0:0:
395,155,30311,2,0,L|321:142,1,53.9999983520508,2|0,0:0|0:0,0:0:0:0:
259,183,30639,5,2,0:0:0:0:
259,183,30966,2,0,L|185:170,1,53.9999983520508,2|0,0:0|0:0,0:0:0:0:
123,211,31294,1,2,0:0:0:0:
123,211,31622,2,0,L|49:198,1,53.9999983520508,2|0,0:0|0:0,0:0:0:0:
205,173,31950,6,0,L|259:183,1,53.9999983520508,2|0,0:0|0:0,0:0:0:0:
123,211,32278,2,0,L|49:198,1,53.9999983520508,2|0,0:0|0:0,0:0:0:0:
131,125,32606,1,2,0:0:0:0:
242,316,33261,5,2,0:0:0:0:
172,258,33589,1,2,0:0:0:0:
205,173,33917,1,2,0:0:0:0:
295,177,34245,2,0,L|304:123,1,53.9999983520508,2|0,0:0|0:0,0:0:0:0:
342,258,34573,5,2,0:0:0:0:
295,177,34901,1,2,0:0:0:0:
249,257,35229,1,2,0:0:0:0:
333,311,35556,2,0,L|342:257,1,53.9999983520508,2|2,0:0|0:0,0:0:0:0:
163,204,35884,6,0,L|172:258,1,53.9999983520508,6|0,3:2|0:0,0:0:0:0:
86,161,36212,1,2,0:0:0:0:
86,161,36376,1,2,0:0:0:0:
166,119,36540,2,0,P|190:108|217:103,1,53.9999983520508,2|0,0:0|0:0,0:0:0:0:
286,158,36868,1,2,0:0:0:0:
286,158,37032,1,2,0:0:0:0:
347,86,37196,6,0,L|338:32,1,53.9999983520508,2|0,3:2|0:0,0:0:0:0:
378,175,37524,1,2,3:2:0:0:
378,175,37688,1,2,0:0:0:0:
445,111,37852,1,2,1:2:0:0:
445,111,38507,6,0,L|436:165,1,53.9999983520508,2|0,3:2|0:0,0:0:0:0:
420,280,38835,1,2,0:0:0:0:
420,280,38999,1,2,0:0:0:0:
345,205,39163,2,0,P|318:210|294:222,1,53.9999983520508,2|0,0:0|0:0,0:0:0:0:
234,279,39491,2,0,P|207:274|182:262,1,53.9999983520508,2|0,0:0|0:0,0:0:0:0:
84,236,39819,6,0,P|93:261|95:288,1,53.9999983520508,2|0,3:2|0:0,0:0:0:0:
128,384,40147,2,0,P|145:363|167:347,1,53.9999983520508,2|0,3:2|0:0,0:0:0:0:
258,354,40474,1,2,1:2:0:0:
258,354,40802,2,0,L|249:300,1,53.9999983520508,2|0,0:0|0:0,0:0:0:0:
246,199,41130,6,0,P|221:187|194:182,1,53.9999983520508,2|0,3:2|0:0,0:0:0:0:
115,216,41458,1,2,0:0:0:0:
115,216,41622,1,2,0:0:0:0:
132,121,41786,2,0,P|154:106|180:97,1,53.9999983520508,2|0,0:0|0:0,0:0:0:0:
267,130,42114,1,2,0:0:0:0:
267,130,42278,1,2,0:0:0:0:
329,190,42442,6,0,P|353:201|380:206,1,53.9999983520508,2|0,3:2|0:0,0:0:0:0:
460,173,42770,1,2,3:2:0:0:
460,173,42934,1,2,0:0:0:0:
442,268,43097,1,2,1:2:0:0:
273,339,43753,5,2,3:2:0:0:
380,206,44081,1,2,0:0:0:0:
217,250,44409,5,2,0:0:0:0:
283,169,44573,1,2,0:0:0:0:
374,312,44901,6,0,L|379:218,1,72,6|0,3:2|0:0,0:0:0:0:
445,351,45229,1,0,3:2:0:0:
296,267,45393,1,8,0:0:0:0:
286,183,45556,1,0,3:2:0:0:
397,162,45720,1,0,3:2:0:0:
386,205,45884,1,0,3:0:0:0:
341,106,46048,1,10,0:0:0:0:
341,106,46212,1,2,0:0:0:0:
350,334,46376,6,0,P|276:351|211:264,2,161.999995056153,6|0|0,3:2|3:2|3:2,0:0:0:0:
51,321,47360,1,2,3:2:0:0:
51,321,47524,1,2,0:0:0:0:
135,204,47688,2,0,L|138:297,1,80.9999975280763,2|0,3:2|0:0,0:0:0:0:
49,235,48015,2,0,L|52:142,1,80.9999975280763,2|0,3:2|0:0,0:0:0:0:
209,140,48343,2,0,P|189:175|156:197,1,80.9999975280763,2|0,3:2|0:0,0:0:0:0:
190,56,48671,2,0,P|230:55|286:115,1,121.499996292114,10|0,0:0|0:0,0:0:0:0:
292,137,48999,6,0,L|454:156,2,161.999995056153,2|0|0,3:2|3:2|3:2,0:0:0:0:
465,348,49983,1,2,3:2:0:0:
465,348,50147,1,2,0:0:0:0:
340,243,50311,2,0,P|380:242|415:260,1,80.9999975280763,2|0,3:2|0:0,0:0:0:0:
251,262,50638,2,0,L|248:181,1,80.9999975280763,2|0,3:2|0:0,0:0:0:0:
359,338,50966,2,8,P|323:355|282:355,1,80.9999975280763,2|0,3:2|0:0,0:0:0:0:
158,290,51294,2,0,L|154:151,1,121.499996292114,10|0,0:0|0:0,0:0:0:0:
159,140,51622,6,0,P|85:157|20:70,2,161.999995056153,6|0|0,3:2|3:2|3:2,0:0:0:0:
159,140,52606,1,2,3:2:0:0:
159,140,52770,1,2,0:0:0:0:
95,200,52934,2,0,P|162:226|196:215,1,80.9999975280763,2|0,3:2|0:0,0:0:0:0:
351,174,53261,2,0,L|341:254,1,80.9999975280763,2|0,3:2|0:0,0:0:0:0:
254,192,53589,2,0,L|264:112,1,80.9999975280763,2|0,3:2|0:0,0:0:0:0:
292,326,53917,2,0,P|221:341|169:302,1,121.499996292114,10|0,0:0|0:0,0:0:0:0:
165,300,54245,6,0,L|184:139,1,161.999995056153,2|0,3:2|3:2,0:0:0:0:
193,59,54737,1,0,0:0:0:0:
108,181,54901,2,0,B|176:221|176:221|255:192,1,161.999995056153,2|0,3:2|3:2,0:0:0:0:
423,144,55393,1,0,0:0:0:0:
355,293,55556,2,0,B|334:305|334:305|339:170,1,121.499996292114,2|0,3:2|0:0,0:0:0:0:
339,184,55884,6,0,L|344:69,1,80.9999975280763,4|0,3:2|0:0,0:0:0:0:
252,189,56212,5,10,0:0:0:0:
424,228,56485,5,0,3:2:0:0:
372,60,56704,5,0,3:2:0:0:
231,208,56868,6,0,L|107:222,1,90,6|0,3:2|0:0,0:0:0:0:
264,102,57196,1,8,0:0:0:0:
209,230,57360,2,0,L|85:244,1,90,0|0,0:0|3:2,0:0:0:0:
39,190,57688,1,2,3:2:0:0:
91,317,57852,1,10,0:0:0:0:
146,157,58015,1,2,0:0:0:0:
242,336,58179,6,0,L|366:350,1,90,2|0,3:2|0:0,0:0:0:0:
209,230,58507,1,8,0:0:0:0:
264,358,58671,2,0,L|388:372,1,90,0|0,3:2|0:0,0:0:0:0:
512,285,58999,1,2,3:2:0:0:
440,371,59163,1,10,0:0:0:0:
381,244,59326,1,2,0:0:0:0:
450,97,59491,6,0,L|464:221,1,90,2|0,3:2|0:0,0:0:0:0:
344,64,59819,1,8,0:0:0:0:
472,119,59983,2,0,L|486:243,1,90,0|0,0:0|3:2,0:0:0:0:
460,24,60311,1,2,3:2:0:0:
388,168,60474,1,10,0:0:0:0:
329,44,60638,1,2,0:0:0:0:
241,167,60802,6,0,L|117:181,1,90,2|0,3:2|3:2,0:0:0:0:
304,74,61130,1,8,0:0:0:0:
219,189,61294,2,0,L|95:203,1,90,0|0,3:2|0:0,0:0:0:0:
44,136,61622,1,0,3:2:0:0:
152,93,61786,1,8,0:0:0:0:
51,247,61949,1,8,0:0:0:0:
51,247,62032,1,8,0:0:0:0:
51,247,62114,6,0,P|100:284|155:284,1,114.750002188683,4|0,3:2|0:0,0:0:0:0:
185,271,62442,2,0,L|203:362,1,76.5000014591217,2|0,3:2|0:0,0:0:0:0:
266,265,62770,2,0,L|251:189,1,76.5000014591217,10|0,0:0|0:0,0:0:0:0:
284,351,63097,1,10,0:0:0:0:
334,172,63261,6,0,L|349:248,1,76.5000014591217,6|0,3:2|0:0,0:0:0:0:
309,79,63589,1,2,3:2:0:0:
403,117,63753,2,0,L|418:193,1,76.5000014591217,10|0,0:0|3:2,0:0:0:0:
355,283,64081,2,0,L|340:207,1,76.5000014591217,10|0,0:0|3:2,0:0:0:0:
256,158,64409,2,0,P|227:183|191:192,1,76.5000014591217,2|0,3:2|3:2,0:0:0:0:
110,101,64737,5,6,3:2:0:0:
110,101,65065,1,0,3:2:0:0:
334,18,65393,1,8,0:0:0:0:
110,101,65720,5,0,3:2:0:0:
247,119,65884,1,8,0:0:0:0:
247,119,66212,1,8,0:0:0:0:
247,119,66540,1,0,3:2:0:0:
182,249,66704,5,10,0:0:0:0:
121,179,66950,5,2,0:0:0:0:
31,217,67196,5,2,3:2:0:0:
45,303,67360,6,0,P|94:332|138:321,1,90,12|0,0:0|0:0,0:0:0:0:
256,196,67688,1,0,3:2:0:0:
226,333,67852,1,0,3:2:0:0:
226,333,67934,1,0,3:2:0:0:
226,333,68015,1,8,3:2:0:0:
86,227,68179,1,0,3:2:0:0:
86,227,68261,1,0,3:2:0:0:
86,227,68343,1,8,3:2:0:0:
273,181,68507,2,0,L|330:189,1,45,0|0,3:2|3:2,0:0:0:0:
445,176,68671,6,0,P|403:202|396:240,1,90,8|0,3:2|3:2,0:0:0:0:
406,261,68917,1,0,3:2:0:0:
426,282,68999,2,0,B|318:270|361:344|253:323,1,180,4|0,3:2|0:0,0:0:0:0:
176,271,69491,1,2,0:0:0:0:
276,244,69655,1,2,0:0:0:0:
112,174,69819,1,2,0:0:0:0:
158,353,69983,6,0,P|170:298|170:203,1,107.999996704102,6|0,3:2|0:0,0:0:0:0:
53,75,70311,1,10,0:0:0:0:
90,199,70474,2,0,P|147:154|198:159,1,107.999996704102,2|0,3:2|0:0,0:0:0:0:
371,254,70802,1,2,3:2:0:0:
268,119,70966,1,10,0:0:0:0:
258,324,71130,1,2,0:0:0:0:
438,217,71294,6,0,P|385:209|348:171,1,107.999996704102,2|0,3:2|0:0,0:0:0:0:
477,123,71622,1,10,0:0:0:0:
367,288,71786,2,0,P|313:291|260:303,2,107.999996704102,2|0|0,3:2|0:0|3:2,0:0:0:0:
490,357,72278,1,10,0:0:0:0:
512,224,72442,1,2,0:0:0:0:
351,155,72606,6,0,P|361:217|366:265,1,107.999996704102,2|0,3:2|0:0,0:0:0:0:
477,143,72934,2,0,P|481:86|489:32,1,107.999996704102,10|0,0:0|0:0,0:0:0:0:
333,163,73261,2,0,P|343:225|347:281,1,107.999996704102,2|0,3:2|3:2,0:0:0:0:
485,220,73589,1,10,0:0:0:0:
314,146,73753,1,2,0:0:0:0:
227,263,73917,6,0,P|174:271|114:290,1,107.999996704102,0|0,3:2|0:0,0:0:0:0:
54,190,74245,2,0,P|73:140|86:82,1,107.999996704102,8|0,0:0|0:0,0:0:0:0:
259,65,74573,1,0,3:2:0:0:
137,204,74737,1,2,3:2:0:0:
172,49,74901,1,10,0:0:0:0:
237,233,75065,1,2,0:0:0:0:
336,82,75229,6,0,P|348:137|348:232,1,107.999996704102,6|0,3:2|0:0,0:0:0:0:
197,335,75557,1,10,0:0:0:0:
268,236,75720,2,0,P|325:281|376:276,1,107.999996704102,2|0,3:2|0:0,0:0:0:0:
452,178,76048,1,2,3:2:0:0:
254,97,76212,1,10,0:0:0:0:
351,188,76376,1,2,0:0:0:0:
219,264,76540,6,0,P|174:271|110:292,1,107.999996704102,2|0,3:2|0:0,0:0:0:0:
158,181,76868,1,10,0:0:0:0:
82,361,77032,2,0,P|37:304|42:253,2,107.999996704102,2|0|0,3:2|0:0|3:2,0:0:0:0:
210,338,77524,2,0,P|218:285|239:221,1,107.999996704102,10|0,0:0|0:0,0:0:0:0:
342,102,77852,6,0,P|251:149|173:84,2,215.999993408203,2|8|2,3:2|0:0|3:2,0:0:0:0:
315,229,78671,1,0,3:2:0:0:
261,53,78835,1,10,0:0:0:0:
73,147,78999,6,0,P|87:84|95:13,1,107.999996704102,6|0,3:2|0:0,0:0:0:0:
8,197,79327,1,0,3:2:0:0:
232,191,79491,2,0,P|205:138|152:124,1,107.999996704102,8|0,0:0|3:2,0:0:0:0:
74,282,79819,1,0,3:2:0:0:
147,206,79983,1,2,3:2:0:0:
216,305,80147,5,10,0:2:0:0:
241,314,80228,1,0,3:2:0:0:
267,321,80310,1,2,3:2:0:0:
294,324,80392,1,0,3:2:0:0:
321,326,80474,6,0,P|367:314|439:302,1,107.999996704102,6|0,3:2|0:0,0:0:0:0:
291,230,80802,1,10,0:0:0:0:
500,306,80966,2,0,P|486:255|441:230,2,107.999996704102,2|0|0,3:2|0:0|3:2,0:0:0:0:
389,368,81458,1,10,0:0:0:0:
338,153,81622,1,2,0:0:0:0:
162,281,81786,6,0,P|215:272|268:259,1,107.999996704102,2|0,3:2|3:2,0:0:0:0:
234,69,82114,2,0,P|216:119|202:172,1,107.999996704102,10|0,0:0|3:2,0:0:0:0:
268,259,82442,1,2,0:0:0:0:
396,126,82606,1,0,3:2:0:0:
392,253,82770,2,0,P|357:211|320:173,1,107.999996704102,10|0,0:0|0:0,0:0:0:0:
370,41,83097,6,0,P|422:36|462:70,1,107.999996704102,2|0,3:2|0:0,0:0:0:0:
218,157,83425,2,0,P|177:190|125:186,1,107.999996704102,10|0,0:0|0:0,0:0:0:0:
144,60,83753,1,2,3:2:0:0:
317,202,83917,1,0,3:2:0:0:
252,56,84081,1,10,0:0:0:0:
187,245,84245,6,0,P|120:275|42:163,1,215.999993408203,6|0,3:2|3:2,0:0:0:0:
158,83,84737,2,0,P|139:134|125:186,1,107.999996704102,8|0,0:0|0:0,0:0:0:0:
43,79,85065,1,0,3:2:0:0:
169,49,85229,1,0,3:2:0:0:
224,158,85393,1,10,0:0:0:0:
324,63,85556,1,10,0:0:0:0:
324,63,85638,1,8,0:0:0:0:
324,63,85720,6,0,P|332:118|353:198,1,107.999996704102,6|0,3:2|0:0,0:0:0:0:
350,320,86048,1,8,0:0:0:0:
463,299,86212,1,0,3:2:0:0:
389,229,86377,2,0,P|337:215|287:233,1,107.999996704102,2|0,0:0|3:2,0:0:0:0:
448,165,86704,2,0,P|456:110|477:30,1,107.999996704102,8|0,0:0|0:0,0:0:0:0:
345,169,87032,5,2,3:2:0:0:
235,78,87196,1,0,3:2:0:0:
287,232,87360,1,8,0:0:0:0:
375,47,87524,1,0,3:2:0:0:
199,165,87689,2,0,P|147:181|93:189,1,107.999996704102,2|0,0:0|3:2,0:0:0:0:
219,261,88015,2,0,P|283:234|335:273,1,107.999996704102,8|0,0:0|0:0,0:0:0:0:
385,360,88343,5,2,3:2:0:0:
419,203,88507,1,0,3:0:0:0:
386,337,88671,2,0,P|394:282|415:202,1,107.999996704102,14|2,0:0|0:0,0:0:0:0:
278,329,88999,5,0,3:2:0:0:
244,172,89163,1,2,3:2:0:0:
277,306,89327,2,0,P|269:251|248:171,1,107.999996704102,12|2,0:0|0:0,0:0:0:0:
157,268,89655,5,0,3:2:0:0:
315,135,89819,1,0,3:2:0:0:
259,326,89983,1,12,0:0:0:0:
206,128,90147,1,0,3:2:0:0:
145,291,90311,5,12,0:0:0:0:
94,120,90474,1,0,3:2:0:0:
178,206,90638,1,2,3:2:0:0:
59,212,90802,1,2,3:2:0:0:
200,98,90966,5,6,3:2:0:0:
310,198,91294,1,2,3:0:0:0:
310,198,91950,1,2,3:0:0:0:
391,23,92278,5,6,3:2:0:0:
281,123,92606,1,2,3:0:0:0:
281,123,93262,1,2,3:0:0:0:
392,302,93589,6,0,L|408:174,1,107.999996704102,6|2,3:2|0:0,0:0:0:0:
318,207,94081,1,2,0:0:0:0:
305,315,94245,2,0,L|321:187,1,107.999996704102,4|0,3:2|0:0,0:0:0:0:
228,229,94737,1,2,0:0:0:0:
215,337,94901,6,0,L|231:209,1,107.999996704102,4|8,3:2|3:2,0:0:0:0:
241,129,95393,1,8,3:2:0:0:
134,231,95556,1,10,0:0:0:0:
263,129,95720,1,10,0:0:0:0:
242,256,95884,1,10,0:0:0:0:
141,69,96048,1,10,0:0:0:0:
116,256,96212,1,6,3:2:0:0:
256,192,96294,12,2,103753,0:0:0:0:
