osu file format v14

[General]
AudioFilename: audio.mp3
AudioLeadIn: 0
PreviewTime: 18879
Countdown: 0
SampleSet: Soft
StackLeniency: 0.5
Mode: 2
LetterboxInBreaks: 0
WidescreenStoryboard: 1

[Editor]
Bookmarks: 37239
DistanceSpacing: 0.7
BeatDivisor: 4
GridSize: 32
TimelineZoom: 1.1

[Metadata]
Title:Senbonzakura
TitleUnicode:千本桜
Artist:Poppin'Party
ArtistUnicode:Poppin'Party
Creator:Benita
Version:wonjae & Benita's Salad
Source:バンドリ!ガールズバンドパーティ!
Tags:bandori garupa バンドリ! ホシノコドウ shuwa Toyama Kasumi Hanazono Tae Ushigome Rimi Yamabuki Saaya Ichigaya Arisa Aimi Otsuka Sae Nishimoto Ohashi Ayaka Itou Ayasa 愛美 大塚紗英 牛込 りみ 山吹 沙綾 市ヶ谷 有咲 girls band project Vocaloid Kurousa-P girls band party
BeatmapID:1871494
BeatmapSetID:888280

[Difficulty]
HPDrainRate:4
CircleSize:3.2
OverallDifficulty:7
ApproachRate:7
SliderMultiplier:1.7
SliderTickRate:1

[Events]
//Background and Video events
0,0,"07c3e82da1e728aec52c370bff95debd8c7a2e71_s2_n1.jpg",0,0
//Break Periods
2,31595,36339
//Storyboard Layer 0 (Background)
//Storyboard Layer 1 (Fail)
//Storyboard Layer 2 (Pass)
//Storyboard Layer 3 (Foreground)
//Storyboard Layer 4 (Overlay)
//Storyboard Sound Samples

[TimingPoints]
227,389.61038961039,4,2,2,70,1,0
5681,-100,4,2,3,70,0,0
6071,-100,4,2,2,70,0,0
12110,-100,4,2,3,70,0,0
12304,-100,4,2,2,70,0,0
24772,-100,4,2,3,70,0,0
25162,-100,4,2,2,70,0,0
31395,-100,4,2,2,50,0,0
37239,-100,4,2,2,70,0,0
55941,-100,4,2,3,70,0,0
56330,-100,4,2,2,80,0,1
62369,-100,4,2,3,100,0,1
62564,-100,4,2,2,80,0,1
68408,-100,4,2,3,80,0,0
68798,-100,4,2,2,80,0,1
74642,-100,4,2,3,80,0,1
75032,-100,4,2,2,80,0,1
80876,-100,4,2,3,80,0,1
81265,-100,4,2,2,70,0,0
87110,-100,4,2,3,70,0,0
87499,-100,4,2,2,70,0,0
95584,-100,4,2,2,5,0,0
95778,-100,4,2,2,40,0,0
95973,-100,4,2,2,53,0,0

[Colours]
Combo1 : 152,109,239
Combo2 : 239,118,37
Combo3 : 224,113,240
Combo4 : 232,111,104

[HitObjects]
363,211,32,5,8,0:0:0:0:
176,183,227,6,0,L|41:181,2,127.5,6|2|2,0:0|0:0|0:0,0:0:0:0:
277,122,1006,2,0,L|427:122,2,127.5,2|2|2,0:0|0:0|0:0,0:0:0:0:
184,131,1785,6,0,L|186:291,1,127.5,2|2,0:0|0:0,0:0:0:0:
288,304,2369,1,2,0:0:0:0:
100,314,2564,2,0,P|35:266|97:180,1,170,6|6,0:0|0:0,0:0:0:0:
375,203,3343,6,0,L|484:129,2,127.5,6|2|2,0:0|0:0|0:0,0:0:0:0:
280,260,4123,2,0,L|151:260,2,127.5,2|2|2,0:0|0:0|0:0,0:0:0:0:
376,204,4902,5,6,0:0:0:0:
378,87,5291,1,8,0:0:0:0:
259,32,5681,1,8,0:0:0:0:
129,34,6071,1,8,0:0:0:0:
435,177,6460,6,0,L|433:268,1,85,6|0,0:0|0:0,0:0:0:0:
337,291,6850,2,0,L|338:355,2,42.5,2|0|8,0:0|0:0|0:0,0:0:0:0:
252,255,7239,2,0,L|251:144,1,85,2|0,0:0|0:0,0:0:0:0:
345,124,7629,2,0,L|347:80,2,42.5,2|0|8,0:0|0:0|0:0,0:0:0:0:
248,143,8019,1,2,0:0:0:0:
360,155,8408,6,0,L|358:263,1,85,2|8,0:0|0:0,0:0:0:0:
170,290,8798,2,0,L|56:290,2,85,6|8|12,0:0|0:0|0:0,0:0:0:0:
451,327,9577,6,0,L|452:234,1,85,2|0,0:0|0:0,0:0:0:0:
359,223,9967,2,0,L|288:225,2,42.5,2|0|8,0:0|0:0|0:0,0:0:0:0:
455,179,10356,2,0,L|457:76,1,85,2|0,0:0|0:0,0:0:0:0:
361,91,10746,2,0,L|295:94,2,42.5,2|0|8,0:0|0:0|0:0,0:0:0:0:
460,54,11136,1,2,0:0:0:0:
373,179,11525,6,0,L|258:181,1,85,2|8,0:0|0:0,0:0:0:0:
100,285,11915,1,6,0:0:0:0:
60,272,12012,1,0,0:0:0:0:
44,235,12109,1,8,0:0:0:0:
61,197,12207,1,8,0:0:0:0:
101,186,12304,1,8,0:0:0:0:
392,159,12694,6,0,L|486:161,1,85,6|0,0:0|0:0,0:0:0:0:
388,245,13084,2,0,L|342:244,2,42.5,2|0|8,0:0|0:0|0:0,0:0:0:0:
476,319,13473,2,0,L|382:317,1,85,2|0,0:0|0:0,0:0:0:0:
301,247,13863,2,0,L|298:181,2,42.5,2|0|8,0:0|0:0|0:0,0:0:0:0:
421,256,14252,1,2,0:0:0:0:
335,145,14642,6,0,L|335:49,1,85,2|8,0:0|0:0,0:0:0:0:
148,169,15032,1,2,0:0:0:0:
86,164,15227,2,0,L|32:119,2,42.5,8|0|12,0:0|0:0|0:0,0:0:0:0:
148,169,15616,1,0,0:0:0:0:
337,328,15811,6,0,L|429:327,2,85,2|0|2,0:0|0:0|0:0,0:0:0:0:
181,210,16590,2,0,L|73:212,2,85,2|0|2,0:0|0:0|0:0,0:0:0:0:
494,129,17369,6,0,L|362:184,2,127.5,12|8|8,0:0|0:0|0:0,0:0:0:0:
430,107,18149,1,12,0:0:0:0:
363,97,18343,1,2,0:0:0:0:
430,107,18538,1,8,0:0:0:0:
115,236,18928,6,0,L|117:110,1,85,6|0,0:0|0:0,0:0:0:0:
28,76,19317,2,0,L|31:19,2,42.5,2|0|8,0:0|0:0|0:0,0:0:0:0:
118,147,19707,2,0,L|118:254,1,85,2|0,0:0|0:0,0:0:0:0:
209,266,20097,2,0,L|210:315,2,42.5,2|0|8,0:0|0:0|0:0,0:0:0:0:
87,186,20486,1,2,0:0:0:0:
210,114,20876,6,0,L|214:19,1,85,2|8,0:0|0:0,0:0:0:0:
400,215,21265,2,0,L|462:136,1,85,2|8,0:0|0:0,0:0:0:0:
471,93,21558,1,0,0:0:0:0:
452,148,21655,2,0,L|399:78,1,85,8|0,0:0|0:0,0:0:0:0:
218,122,22045,6,0,L|105:125,1,85,2|0,0:0|0:0,0:0:0:0:
41,193,22434,2,0,L|36:257,2,42.5,2|0|8,0:0|0:0|0:0,0:0:0:0:
146,235,22824,2,0,L|271:230,2,85,2|0|2,0:0|0:0|0:0,0:0:0:0:
19,125,23603,6,0,L|103:121,1,85,2|0,0:0|0:0,0:0:0:0:
294,210,23993,2,0,L|391:205,2,85,2|8|6,0:0|0:0|0:0,0:0:0:0:
216,250,24577,1,8,0:0:0:0:
130,287,24772,1,8,0:0:0:0:
496,299,25162,6,0,L|495:188,1,85,6|0,0:0|0:0,0:0:0:0:
421,170,25551,2,0,L|364:168,1,42.5,2|0,0:0|0:0,0:0:0:0:
339,168,25746,1,8,0:0:0:0:
271,120,25941,2,0,L|275:18,1,85,2|0,0:0|0:0,0:0:0:0:
366,28,26330,2,0,L|410:29,1,42.5,2|0,0:0|0:0,0:0:0:0:
442,29,26525,1,8,0:0:0:0:
479,120,26720,1,2,0:0:0:0:
391,224,27110,6,0,L|288:227,1,85,2|8,0:0|0:0,0:0:0:0:
118,290,27499,2,0,L|26:294,1,85,2|8,0:0|0:0,0:0:0:0:
66,176,27889,2,0,L|157:174,1,85,8|0,0:0|0:0,0:0:0:0:
338,132,28278,1,6,0:0:0:0:
440,65,28668,6,0,L|438:176,1,85,2|8,0:0|0:0,0:0:0:0:
351,190,29058,2,0,L|246:190,1,85,6|8,0:0|0:0,0:0:0:0:
171,240,29447,2,0,L|173:342,1,85,2|8,0:0|0:0,0:0:0:0:
361,333,29837,5,2,0:0:0:0:
433,325,30129,2,0,L|431:160,1,127.5,2|2,0:0|0:0,0:0:0:0:
212,199,30616,2,0,B|139:185|24:189|16:122|114:60|236:66,1,340,2|6,0:0|0:0,0:0:0:0:
171,293,37239,5,8,0:0:0:0:
416,257,37629,2,0,P|449:215|404:99,1,170,6|2,0:0|0:0,0:0:0:0:
264,118,38408,2,0,L|258:215,1,85,2|0,0:0|0:0,0:0:0:0:
361,198,38798,2,0,L|372:296,1,85,2|0,0:0|0:0,0:0:0:0:
265,297,39188,6,0,L|104:291,2,127.5,2|0|0,0:0|0:0|0:0,0:0:0:0:
353,203,39967,2,0,P|398:159|338:69,1,170,2|2,0:0|0:0,0:0:0:0:
80,88,40746,6,0,L|271:83,1,170,2|2,0:0|0:0,0:0:0:0:
413,133,41525,2,0,L|420:234,1,85,2|0,0:0|0:0,0:0:0:0:
319,218,41915,2,0,L|312:309,1,85,2|0,0:0|0:0,0:0:0:0:
496,309,42304,6,0,P|501:248|409:170,1,170,6|6,0:0|0:0,0:0:0:0:
172,195,43084,2,0,P|134:157|192:49,1,170,6|6,0:0|0:0,0:0:0:0:
455,112,43863,6,0,L|302:193,1,170,2|8,0:0|0:0,0:0:0:0:
93,148,44642,2,2,L|17:194,2,85,2|2|8,0:0|0:0|0:0,0:0:0:0:
254,209,45421,6,0,L|353:213,1,85,2|2,0:0|0:0,0:0:0:0:
231,200,45811,2,0,L|226:109,1,85,8|0,0:0|0:0,0:0:0:0:
333,116,46201,2,0,L|496:239,1,170,2|8,0:0|0:0,0:0:0:0:
297,220,46980,5,2,0:0:0:0:
211,209,47175,1,0,0:0:0:0:
128,199,47369,1,8,0:0:0:0:
405,141,47759,2,0,P|444:198|412:310,1,170,2|8,0:0|0:0,0:0:0:0:
137,311,48538,6,0,P|86:290|97:175,1,170,6|8,0:0|0:0,0:0:0:0:
270,194,49317,2,0,L|439:182,1,170,8|2,0:0|0:0,0:0:0:0:
137,195,50097,6,0,P|91:161|138:75,1,170,6|8,0:0|0:0,0:0:0:0:
318,82,50876,2,0,L|426:76,2,85,2|2|8,0:0|0:0|0:0,0:0:0:0:
111,157,51655,6,0,L|103:247,1,85,2|2,0:0|0:0,0:0:0:0:
204,241,52045,2,0,L|205:330,1,85,8|0,0:0|0:0,0:0:0:0:
98,344,52434,2,0,P|48:313|96:207,1,170,2|8,0:0|0:0,0:0:0:0:
162,198,53019,1,0,0:0:0:0:
349,191,53214,6,0,L|358:103,1,85,6|2,0:0|0:0,0:0:0:0:
181,116,53798,2,0,L|179:19,1,85,0|2,0:0|0:0,0:0:0:0:
265,32,54188,2,0,L|360:34,1,85,2|8,0:0|0:0,0:0:0:0:
52,205,54772,5,2,0:0:0:0:
182,243,55064,1,2,0:0:0:0:
58,197,55356,1,2,0:0:0:0:
245,144,55551,1,6,0:0:0:0:
106,124,55941,2,8,L|103:34,1,85
290,41,56330,6,0,L|442:46,2,127.5,6|8|8,0:0|0:0|0:0,0:0:0:0:
205,50,57110,2,0,P|163:80|219:173,1,170,2|2,0:0|0:0,0:0:0:0:
365,171,57889,6,0,L|373:261,1,85,2|0,0:0|0:0,0:0:0:0:
269,261,58278,2,0,L|253:358,1,85,2|8,0:0|0:0,0:0:0:0:
371,355,58668,2,0,L|182:343,1,170,2|2,0:0|0:0,0:0:0:0:
111,338,59252,1,8,0:0:0:0:
299,309,59447,6,0,L|440:304,2,127.5,2|8|8,0:0|0:0|0:0,0:0:0:0:
210,313,60227,2,0,P|165:285|207:181,1,170,2|2,0:0|0:0,0:0:0:0:
353,194,61006,6,0,L|441:197,1,85,2|0,0:0|0:0,0:0:0:0:
322,149,61395,2,0,L|229:138,1,85,2|8,0:0|0:0,0:0:0:0:
359,123,61785,2,0,P|400:86|344:7,1,170,2|2,0:0|0:0,0:0:0:0:
270,16,62369,1,8,0:0:0:0:
83,143,62564,6,0,P|41:177|61:258,1,127.5,6|8,0:0|0:0,0:0:0:0:
172,302,63149,1,8,0:0:0:0:
260,310,63343,2,0,P|310:276|277:171,1,170,2|2,0:0|0:0,0:0:0:0:
136,182,64123,6,0,L|128:76,1,85,2|0,0:0|0:0,0:0:0:0:
236,96,64512,2,0,L|328:98,1,85,2|8,0:0|0:0,0:0:0:0:
231,66,64902,2,0,L|57:60,1,170,2|2,0:0|0:0,0:0:0:0:
120,132,65486,1,8,0:0:0:0:
306,172,65681,6,0,L|502:205,1,170,6|2,0:0|0:0,0:0:0:0:
159,294,66460,2,0,L|354:280,1,170,6|2,0:0|0:0,0:0:0:0:
416,274,67045,1,8,0:0:0:0:
230,242,67239,6,0,P|203:209|196:166,1,85,6|2,0:0|0:0,0:0:0:0:
285,170,67629,2,0,L|376:164,1,85,8|2,0:0|0:0,0:0:0:0:
284,94,68019,2,8,L|252:53,2,42.5
374,106,68408,2,8,L|411:184,1,85
222,39,68798,6,0,L|70:44,2,127.5,6|2|8,0:0|0:0|0:0,0:0:0:0:
307,48,69578,2,0,P|349:78|293:171,1,170,2|0,0:0|0:0,0:0:0:0:
147,171,70357,6,0,L|139:261,1,85,2|8,0:0|0:0,0:0:0:0:
243,261,70746,2,0,L|259:358,1,85,0|8,0:0|0:0,0:0:0:0:
141,355,71136,2,0,L|330:343,1,170,2|0,0:0|0:0,0:0:0:0:
401,338,71720,1,8,0:0:0:0:
214,310,71915,6,0,L|73:305,2,127.5,2|2|8,0:0|0:0|0:0,0:0:0:0:
303,314,72695,2,0,P|348:286|306:182,1,170,2|0,0:0|0:0,0:0:0:0:
159,194,73474,6,0,L|71:197,1,85,2|8,0:0|0:0,0:0:0:0:
190,149,73863,2,0,L|283:138,1,85,0|8,0:0|0:0,0:0:0:0:
153,123,74253,2,2,P|112:86|168:7,1,170,2|8,0:0|0:0,0:0:0:0:
242,16,74837,1,8,0:0:0:0:
429,143,75032,6,0,P|471:177|451:258,1,127.5,6|2,0:0|0:0,0:0:0:0:
332,307,75617,1,8,0:0:0:0:
232,309,75811,2,0,P|182:275|215:170,1,170,2|0,0:0|0:0,0:0:0:0:
376,182,76591,6,0,L|384:76,1,85,2|8,0:0|0:0,0:0:0:0:
276,96,76980,2,0,L|184:98,1,85,0|8,0:0|0:0,0:0:0:0:
281,66,77370,2,0,L|455:60,1,170,2|0,0:0|0:0,0:0:0:0:
392,132,77954,1,8,0:0:0:0:
206,174,78149,6,0,L|10:207,1,170,6|0,0:0|0:0,0:0:0:0:
353,297,78928,2,0,L|158:283,1,170,6|0,0:0|0:0,0:0:0:0:
96,277,79513,1,8,0:0:0:0:
282,242,79707,6,0,P|309:209|316:166,1,85,6|2,0:0|0:0,0:0:0:0:
227,170,80097,2,0,P|207:129|214:88,1,85,12|2,0:0|0:0,0:0:0:0:
306,88,80487,2,0,L|338:47,2,42.5,2|0|8,0:0|0:0|0:0,0:0:0:0:
210,101,80876,2,8,L|196:186,1,85
384,199,81265,6,0,P|424:234|371:325,1,170,6|2,0:0|0:0,0:0:0:0:
271,328,81850,1,8,0:0:0:0:
169,328,82045,2,0,P|138:295|189:179,1,170,2|2,0:0|0:0,0:0:0:0:
452,174,82824,6,0,L|254:154,1,170,2|2,0:0|0:0,0:0:0:0:
187,148,83408,1,8,0:0:0:0:
285,202,83603,2,0,P|291:260|280:297,1,85,2|12,0:0|0:0,0:0:0:0:
198,248,83993,2,0,P|188:300|210:345,1,85,12|0,0:0|0:0,0:0:0:0:
385,338,84382,6,0,P|493:297|506:215,1,170,2|2,0:0|0:0,0:0:0:0:
414,231,84967,1,8,0:0:0:0:
317,224,85162,2,0,L|113:215,1,170,2|2,0:0|0:0,0:0:0:0:
407,198,85941,6,0,L|419:105,1,85,6|0,0:0|0:0,0:0:0:0:
326,113,86330,2,0,L|321:20,1,85,6|8,0:0|0:0,0:0:0:0:
425,33,86720,2,8,L|446:-16,2,42.5
319,43,87110,2,8,L|274:135,1,85
468,132,87499,6,0,P|491:169|471:296,1,170,6|2,0:0|0:0,0:0:0:0:
372,293,88084,1,8,0:0:0:0:
269,293,88278,2,0,L|459:308,1,170,2|2,0:0|0:0,0:0:0:0:
166,272,89058,6,0,P|126:245|163:138,1,170,2|2,0:0|0:0,0:0:0:0:
254,135,89642,1,8,0:0:0:0:
349,129,89837,1,2,0:0:0:0:
254,135,90032,1,12,0:0:0:0:
349,129,90227,1,12,0:0:0:0:
57,174,90616,6,0,L|42:292,1,85,8|0,0:0|0:0,0:0:0:0:
83,285,90908,1,8,0:0:0:0:
114,296,91006,1,2,0:0:0:0:
198,295,91201,1,8,0:0:0:0:
283,260,91395,2,0,P|289:214|266:166,1,85,6|0,0:0|0:0,0:0:0:0:
230,159,91688,1,0,0:0:0:0:
187,150,91785,1,2,0:0:0:0:
104,143,91980,1,8,0:0:0:0:
294,115,92175,6,0,L|428:112,2,127.5,2|2|2,0:0|0:0|0:0,0:0:0:0:
200,131,92954,2,0,P|156:183|218:263,1,170,2|0,0:0|0:0,0:0:0:0:
496,268,93733,6,0,L|339:251,2,127.5,6|6|6,0:0|0:0|0:0,0:0:0:0:
308,178,94512,5,6,0:0:0:0:
256,192,94902,12,2,95973,0:0:0:0:
