osu file format v14

[General]
AudioFilename: audio.mp3
AudioLeadIn: 0
PreviewTime: 18879
Countdown: 0
SampleSet: Soft
StackLeniency: 0.5
Mode: 2
LetterboxInBreaks: 0
WidescreenStoryboard: 1

[Editor]
Bookmarks: 18923,37629,56325,56330,68798,81265
DistanceSpacing: 0.3
BeatDivisor: 4
GridSize: 32
TimelineZoom: 2.999999

[Metadata]
Title:Senbonzakura
TitleUnicode:千本桜
Artist:Poppin'Party
ArtistUnicode:Poppin'Party
Creator:Benita
Version:Platter
Source:バンドリ!ガールズバンドパーティ!
Tags:bandori garupa バンドリ! ホシノコドウ shuwa Toyama Kasumi Hanazono Tae Ushigome Rimi Yamabuki Saaya Ichigaya Arisa Aimi Otsuka Sae Nishimoto Ohashi Ayaka Itou Ayasa 愛美 大塚紗英 牛込 りみ 山吹 沙綾 市ヶ谷 有咲 girls band project Vocaloid Kurousa-P girls band party wonja paranoid_grapes xetopia nanachii benny- bennybananas
BeatmapID:1856731
BeatmapSetID:888280

[Difficulty]
HPDrainRate:5
CircleSize:3
OverallDifficulty:8
ApproachRate:8
SliderMultiplier:1.6
SliderTickRate:1

[Events]
//Background and Video events
0,0,"07c3e82da1e728aec52c370bff95debd8c7a2e71_s2_n1.jpg",0,0
//Break Periods
2,31595,36295
//Storyboard Layer 0 (Background)
//Storyboard Layer 1 (Fail)
//Storyboard Layer 2 (Pass)
//Storyboard Layer 3 (Foreground)
//Storyboard Layer 4 (Overlay)
//Storyboard Sound Samples

[TimingPoints]
227,389.61038961039,4,2,2,70,1,0
5681,-100,4,2,3,70,0,0
6071,-100,4,2,2,70,0,0
6460,-100,4,2,2,70,0,0
12110,-100,4,2,3,70,0,0
12304,-100,4,2,2,70,0,0
18928,-100,4,2,2,70,0,0
24772,-100,4,2,3,70,0,0
25162,-100,4,2,2,70,0,0
31395,-100,4,2,2,50,0,0
36850,-100,4,2,2,50,0,0
37239,-100,4,2,2,70,0,0
42304,-100,4,2,2,70,0,0
43084,-100,4,2,2,70,0,0
43473,-100,4,2,2,70,0,0
43863,-100,4,2,2,70,0,0
55551,-100,4,2,2,70,0,0
55843,-100,4,2,2,70,0,0
55941,-100,4,2,3,70,0,0
56330,-100,4,2,2,80,0,1
62369,-100,4,2,3,100,0,1
62564,-100,4,2,2,80,0,1
68408,-100,4,2,3,80,0,0
68798,-100,4,2,2,80,0,1
74642,-100,4,2,3,80,0,1
75032,-100,4,2,2,80,0,1
80876,-100,4,2,3,80,0,1
81265,-100,4,2,2,70,0,0
87110,-100,4,2,3,70,0,0
87499,-100,4,2,2,70,0,0
95584,-100,4,2,2,5,0,0
95778,-100,4,2,2,40,0,0
95973,-100,4,2,2,53,0,0

[Colours]
Combo1 : 152,109,239
Combo2 : 239,118,37
Combo3 : 224,113,240
Combo4 : 232,111,104

[HitObjects]
204,330,227,6,0,L|330:323,2,120,6|2|2,0:0|0:0|0:0,0:0:0:0:
284,243,1006,2,0,L|158:236,2,120,2|2|2,0:0|0:0|0:0,0:0:0:0:
380,249,1785,6,0,P|446:231|476:178,2,120,2|2|2,0:0|0:0|0:0,0:0:0:0:
204,249,2564,2,0,L|99:245,1,80,6|0,0:0|0:0,0:0:0:0:
301,176,2954,2,0,L|397:177,1,80,6|0,0:0|0:0,0:0:0:0:
120,142,3343,6,0,P|55:135|13:89,2,120,6|2|2,0:0|0:0|0:0,0:0:0:0:
218,99,4123,2,0,L|70:89,2,120,2|2|2,0:0|0:0|0:0,0:0:0:0:
483,216,4902,6,0,L|489:316,1,80,6|8,0:0|0:0,0:0:0:0:
302,310,5291,1,8,0:0:0:0:
267,292,5388,1,8,0:0:0:0:
251,256,5485,1,8,0:0:0:0:
260,218,5583,1,8,0:0:0:0:
351,217,5681,1,8,0:0:0:0:
386,197,5778,1,8,0:0:0:0:
408,164,5875,1,8,0:0:0:0:
414,125,5973,1,8,0:0:0:0:
321,122,6071,1,8,0:0:0:0:
372,96,6168,1,8,0:0:0:0:
423,74,6265,1,8,0:0:0:0:
158,86,6460,6,0,L|147:192,1,80,6|0,0:0|0:0,0:0:0:0:
245,202,6850,1,2,0:0:0:0:
285,201,6947,1,0,0:0:0:0:
325,200,7044,1,8,0:0:0:0:
141,196,7239,2,0,L|254:179,1,80,2|0,0:0|0:0,0:0:0:0:
103,137,7629,1,2,0:0:0:0:
64,135,7726,1,0,0:0:0:0:
24,133,7823,1,8,0:0:0:0:
320,239,8019,6,0,L|318:145,1,80,2|0,0:0|0:0,0:0:0:0:
223,187,8408,1,2,0:0:0:0:
183,187,8506,1,0,0:0:0:0:
144,186,8603,1,8,0:0:0:0:
405,167,8798,1,6,0:0:0:0:
318,205,8993,2,0,L|322:296,1,80,8|12,0:0|0:0,0:0:0:0:
420,314,9382,1,0,0:0:0:0:
128,228,9577,6,0,L|44:232,1,80,2|0,0:0|0:0,0:0:0:0:
154,133,9967,1,2,0:0:0:0:
114,133,10065,1,0,0:0:0:0:
75,132,10162,1,8,0:0:0:0:
252,118,10356,2,0,L|365:101,1,80,2|0,0:0|0:0,0:0:0:0:
223,34,10746,1,2,0:0:0:0:
263,34,10844,1,0,0:0:0:0:
302,33,10941,1,8,0:0:0:0:
37,233,11136,6,0,L|39:133,1,80,2|0,0:0|0:0,0:0:0:0:
125,139,11525,1,2,0:0:0:0:
47,115,11720,1,8,0:0:0:0:
310,99,11915,2,0,L|365:117,1,40,6|0,0:0|0:0,0:0:0:0:
335,173,12110,2,8,L|296:180,1,40
225,190,12304,2,8,L|121:191,1,80
407,102,12694,6,0,L|411:199,1,80,6|0,0:0|0:0,0:0:0:0:
311,242,13084,1,2,0:0:0:0:
271,242,13182,1,0,0:0:0:0:
232,241,13279,1,8,0:0:0:0:
407,190,13473,2,0,L|294:173,1,80,2|0,0:0|0:0,0:0:0:0:
438,132,13863,2,0,L|448:89,2,40,2|0|8,0:0|0:0|0:0,0:0:0:0:
176,247,14253,6,0,L|178:163,1,80,2|0,0:0|0:0,0:0:0:0:
273,195,14642,1,2,0:0:0:0:
313,195,14740,1,0,0:0:0:0:
352,194,14837,1,8,0:0:0:0:
91,160,15032,1,2,0:0:0:0:
177,204,15227,2,0,L|173:295,1,80,8|12,0:0|0:0,0:0:0:0:
76,307,15616,1,0,0:0:0:0:
384,228,15811,6,0,L|468:232,1,80,2|0,0:0|0:0,0:0:0:0:
383,144,16103,1,8,0:0:0:0:
302,85,16201,2,0,L|208:84,1,80,2|8,0:0|0:0,0:0:0:0:
305,39,16493,1,0,0:0:0:0:
388,38,16590,2,0,P|430:77|401:136,1,120,2|8,0:0|0:0,0:0:0:0:
348,141,16980,2,0,L|341:199,1,40,2|0,0:0|0:0,0:0:0:0:
400,209,17175,1,8,0:0:0:0:
141,223,17369,6,0,L|-1:219,2,120,12|8|8,0:0|0:0|0:0,0:0:0:0:
414,228,18149,2,0,L|512:227,1,80,12|2,0:0|0:0,0:0:0:0:
383,147,18538,1,8,0:0:0:0:
423,147,18636,1,8,0:0:0:0:
463,149,18733,1,8,0:0:0:0:
137,57,18928,6,0,L|79:125,1,80,6|0,0:0|0:0,0:0:0:0:
198,227,19318,2,0,L|221:183,2,40,2|0|8,0:0|0:0|0:0,0:0:0:0:
374,212,19707,2,0,L|261:195,1,80,2|0,0:0|0:0,0:0:0:0:
179,174,20097,2,0,L|169:131,2,40,2|0|8,0:0|0:0|0:0,0:0:0:0:
451,200,20486,6,0,L|466:92,1,80,2|0,0:0|0:0,0:0:0:0:
363,105,20876,1,2,0:0:0:0:
323,105,20974,1,0,0:0:0:0:
284,104,21071,1,8,0:0:0:0:
20,157,21266,1,2,0:0:0:0:
105,199,21461,2,0,L|101:290,1,80,8|8,0:0|0:0,0:0:0:0:
5,304,21850,1,0,0:0:0:0:
298,239,22045,6,0,L|382:243,1,80,2|0,0:0|0:0,0:0:0:0:
287,153,22435,1,2,0:0:0:0:
247,153,22533,1,0,0:0:0:0:
208,152,22630,1,8,0:0:0:0:
383,145,22824,2,0,L|377:51,1,80,2|0,0:0|0:0,0:0:0:0:
270,48,23214,1,2,0:0:0:0:
230,48,23312,1,0,0:0:0:0:
191,47,23409,1,8,0:0:0:0:
457,228,23604,6,0,L|463:128,1,80,2|0,0:0|0:0,0:0:0:0:
375,142,23993,1,2,0:0:0:0:
461,148,24188,1,8,0:0:0:0:
198,106,24383,2,0,L|134:107,1,40,6|0,0:0|0:0,0:0:0:0:
198,106,24578,2,8,L|248:107,1,40
191,222,24772,1,8,0:0:0:0:
94,220,24967,1,8,0:0:0:0:
354,182,25162,6,0,L|465:185,1,80,6|0,0:0|0:0,0:0:0:0:
329,266,25552,1,2,0:0:0:0:
369,266,25650,1,0,0:0:0:0:
408,265,25747,1,8,0:0:0:0:
233,195,25941,2,0,L|167:106,1,80,2|0,0:0|0:0,0:0:0:0:
290,109,26331,2,0,L|300:66,2,40,2|0|8,0:0|0:0|0:0,0:0:0:0:
29,262,26721,6,0,L|21:149,1,80,2|0,0:0|0:0,0:0:0:0:
129,96,27110,1,2,0:0:0:0:
169,96,27208,1,0,0:0:0:0:
208,95,27305,1,8,0:0:0:0:
470,116,27500,1,2,0:0:0:0:
386,158,27695,2,0,L|390:249,1,80,8|8,0:0|0:0,0:0:0:0:
485,263,28084,1,0,0:0:0:0:
128,228,28279,6,0,L|44:232,1,80,6|0,0:0|0:0,0:0:0:0:
118,179,28571,1,8,0:0:0:0:
187,181,28668,2,0,L|195:244,1,40,2|0,0:0|0:0,0:0:0:0:
151,255,28863,1,8,0:0:0:0:
68,249,29058,2,0,P|42:213|64:174,1,80,6|8,0:0|0:0,0:0:0:0:
146,171,29350,1,8,0:0:0:0:
238,167,29447,2,0,P|256:120|244:79,1,80,2|8,0:0|0:0,0:0:0:0:
73,72,29837,6,0,L|215:68,2,120,2|2|2,0:0|0:0|0:0,0:0:0:0:
251,173,30617,2,0,L|433:178,1,160,2|2,0:0|0:0,0:0:0:0:
88,97,31395,5,6,0:0:0:0:
124,237,37045,6,2,L|101:190,2,40,2|2|8,0:0|0:0|0:0,0:0:0:0:
458,237,37629,6,0,P|493:191|462:121,1,120,6|0,0:0|0:0,0:0:0:0:
444,111,38019,2,0,L|344:102,1,80,2|0,0:0|0:0,0:0:0:0:
227,170,38408,2,0,L|229:258,1,80,2|0,0:0|0:0,0:0:0:0:
329,263,38798,2,0,L|326:354,1,80,2|0,0:0|0:0,0:0:0:0:
64,341,39188,6,0,P|46:296|90:222,1,120,2|0,0:0|0:0,0:0:0:0:
117,223,39577,2,0,L|210:221,1,80,2|0,0:0|0:0,0:0:0:0:
83,174,39967,2,0,P|53:140|76:82,1,80,2|0,0:0|0:0,0:0:0:0:
157,80,40356,1,2,0:0:0:0:
68,56,40551,1,0,0:0:0:0:
333,62,40746,6,0,P|356:122|318:173,1,120,2|0,0:0|0:0,0:0:0:0:
276,179,41136,2,0,L|171:187,1,80,2|0,0:0|0:0,0:0:0:0:
371,172,41525,2,0,L|375:82,1,80,2|0,0:0|0:0,0:0:0:0:
276,73,41915,2,0,L|372:64,1,80,2|0,0:0|0:0,0:0:0:0:
93,286,42304,6,0,L|86:201,1,80,6|0,0:0|0:0,0:0:0:0:
266,200,42694,2,0,L|353:195,1,80,6|0,0:0|0:0,0:0:0:0:
167,142,43084,2,0,L|171:52,1,80,6|0,0:0|0:0,0:0:0:0:
347,75,43473,2,0,L|447:77,1,80,6|8,0:0|0:0,0:0:0:0:
99,201,43863,6,0,P|63:160|111:76,1,160,2|8,0:0|0:0,0:0:0:0:
203,71,44447,1,0,0:0:0:0:
379,76,44642,2,2,L|480:74,2,80,2|2|8,0:0|0:0|0:0,0:0:0:0:
187,149,45421,6,0,L|180:247,1,80,2|2,0:0|0:0,0:0:0:0:
278,237,45811,2,0,L|310:346,1,80,8|0,0:0|0:0,0:0:0:0:
205,351,46201,2,0,L|178:304,2,40,2|0|0,0:0|0:0|0:0,0:0:0:0:
331,350,46590,1,8,0:0:0:0:
130,324,46980,6,0,L|122:231,1,80,2|0,0:0|0:0,0:0:0:0:
299,248,47369,2,0,P|323:211|277:134,1,120,8|8,0:0|0:0,0:0:0:0:
240,136,47759,2,0,L|124:135,1,80,2|2,0:0|0:0,0:0:0:0:
280,90,48149,2,0,L|378:85,1,80,8|0,0:0|0:0,0:0:0:0:
62,113,48538,6,0,L|42:209,1,80,6|2,0:0|0:0,0:0:0:0:
229,210,48928,2,0,L|332:198,1,80,8|2,0:0|0:0,0:0:0:0:
132,165,49317,2,0,P|113:123|137:84,1,80,8|2,0:0|0:0,0:0:0:0:
302,72,49707,2,0,L|344:71,2,40,2|2|2,0:0|0:0|0:0,0:0:0:0:
34,141,50097,6,0,L|170:247,1,160,6|8,0:0|0:0,0:0:0:0:
280,275,50778,2,0,L|290:219,1,40,8|2,0:0|0:0,0:0:0:0:
191,192,51071,1,2,0:0:0:0:
293,175,51265,2,0,L|408:166,1,80,8|0,0:0|0:0,0:0:0:0:
196,109,51655,6,0,L|90:94,2,80,2|2|8,0:0|0:0|0:0,0:0:0:0:
294,136,52239,1,0,0:0:0:0:
181,188,52434,2,0,L|155:231,2,40,2|0|2,0:0|0:0|0:0,0:0:0:0:
295,198,52824,1,8,0:0:0:0:
174,192,53019,1,0,0:0:0:0:
438,214,53214,6,0,L|441:124,1,80,6|2,0:0|0:0,0:0:0:0:
343,127,53603,1,8,0:0:0:0:
166,134,53798,2,0,L|75:133,2,80,0|2|2,0:0|0:0|0:0,0:0:0:0:
342,160,54382,2,0,L|427:153,1,80,8|0,0:0|0:0,0:0:0:0:
156,195,54772,6,0,L|29:179,2,120,2|2|2,0:0|0:0|0:0,0:0:0:0:
420,194,55551,5,6,0:0:0:0:
310,243,55941,2,8,L|321:308,1,40
367,308,56136,1,8,0:0:0:0:
108,319,56330,6,0,P|73:282|111:225,1,120,6|8,0:0|0:0,0:0:0:0:
150,218,56720,2,0,L|233:222,1,80,2|8,0:0|0:0,0:0:0:0:
51,161,57110,2,0,P|28:120|73:47,1,120,2|8,0:0|0:0,0:0:0:0:
103,57,57499,2,0,L|221:64,1,80,2|8,0:0|0:0,0:0:0:0:
449,132,57889,6,0,L|451:228,1,80,2|0,0:0|0:0,0:0:0:0:
359,234,58278,1,2,0:0:0:0:
454,271,58473,1,8,0:0:0:0:
274,314,58668,2,0,P|255:252|293:185,1,120,2|8,0:0|0:0,0:0:0:0:
323,196,59058,2,0,L|403:203,1,80,2|8,0:0|0:0,0:0:0:0:
138,278,59447,6,0,P|106:240|144:165,1,120,2|8,0:0|0:0,0:0:0:0:
180,164,59837,2,0,L|282:161,1,80,2|8,0:0|0:0,0:0:0:0:
437,184,60227,2,0,P|468:241|437:314,1,120,2|8,0:0|0:0,0:0:0:0:
391,306,60616,2,0,L|305:306,1,80,2|8,0:0|0:0,0:0:0:0:
27,206,61006,6,0,P|13:154|40:114,1,80,2|0,0:0|0:0,0:0:0:0:
115,104,61395,1,2,0:0:0:0:
29,88,61590,1,8,0:0:0:0:
204,97,61785,2,0,P|249:132|243:202,1,120,2|8,0:0|0:0,0:0:0:0:
201,201,62175,2,0,L|89:206,1,80,2|8,0:0|0:0,0:0:0:0:
393,313,62564,6,0,P|434:277|393:216,1,120,6|8,0:0|0:0,0:0:0:0:
364,208,62954,2,0,L|281:212,1,80,2|8,0:0|0:0,0:0:0:0:
461,161,63344,2,0,P|484:120|426:71,1,120,2|8,0:0|0:0,0:0:0:0:
392,51,63733,2,0,L|274:58,1,80,2|8,0:0|0:0,0:0:0:0:
43,167,64123,6,0,L|31:262,1,80,2|0,0:0|0:0,0:0:0:0:
132,275,64512,1,2,0:0:0:0:
32,306,64707,1,8,0:0:0:0:
209,311,64902,2,0,P|228:249|190:182,1,120,2|8,0:0|0:0,0:0:0:0:
158,186,65292,2,0,L|44:175,1,80,2|8,0:0|0:0,0:0:0:0:
461,199,65681,6,0,P|493:161|455:86,1,120,6|8,0:0|0:0,0:0:0:0:
419,85,66071,2,0,L|317:82,1,80,2|8,0:0|0:0,0:0:0:0:
64,118,66461,2,0,P|33:175|64:248,1,120,6|8,0:0|0:0,0:0:0:0:
110,240,66850,2,0,L|196:240,1,80,2|8,0:0|0:0,0:0:0:0:
485,206,67240,6,0,P|499:154|472:114,1,80,6|2,0:0|0:0,0:0:0:0:
396,111,67629,1,8,0:0:0:0:
483,88,67824,1,2,0:0:0:0:
308,97,68019,2,8,L|211:104,1,80
407,216,68409,2,8,L|460:310,1,80
177,317,68798,5,6,0:0:0:0:
77,274,68993,2,0,L|81:222,1,40,8|2,0:0|0:0,0:0:0:0:
195,205,69285,2,0,L|187:158,1,40,2|8,0:0|0:0,0:0:0:0:
12,113,69577,2,0,L|166:106,2,120,2|2|8,0:0|0:0|0:0,0:0:0:0:
272,188,70356,5,2,0:0:0:0:
375,243,70551,2,0,L|380:296,1,40,8|2,0:0|0:0,0:0:0:0:
282,312,70843,2,0,L|275:363,1,40,2|8,0:0|0:0,0:0:0:0:
455,342,71136,1,2,0:0:0:0:
281,323,71330,2,0,L|282:221,1,80,8|0,0:0|0:0,0:0:0:0:
381,199,71720,1,8,0:0:0:0:
117,163,71915,5,2,0:0:0:0:
211,221,72110,2,0,L|219:277,1,40,8|2,0:0|0:0,0:0:0:0:
116,286,72402,2,0,L|113:336,1,40,2|8,0:0|0:0,0:0:0:0:
291,346,72694,2,0,L|163:338,1,120,2|2,0:0|0:0,0:0:0:0:
24,324,73278,1,8,0:0:0:0:
289,289,73473,5,2,0:0:0:0:
196,234,73668,2,0,L|191:182,1,40,8|2,0:0|0:0,0:0:0:0:
291,172,73960,2,0,L|295:114,1,40,2|8,0:0|0:0,0:0:0:0:
118,111,74252,2,2,L|109:73,2,40,2|2|12,0:0|0:0|0:0,0:0:0:0:
192,167,74642,1,8,0:0:0:0:
98,202,74837,1,8,0:0:0:0:
362,314,75032,5,6,0:0:0:0:
433,254,75227,2,0,L|429:202,1,40,8|2,0:0|0:0,0:0:0:0:
328,208,75519,2,0,L|322:161,1,40,2|8,0:0|0:0,0:0:0:0:
500,113,75811,2,0,L|346:106,2,120,2|2|8,0:0|0:0|0:0,0:0:0:0:
221,183,76590,5,2,0:0:0:0:
118,241,76785,2,0,L|113:294,1,40,8|2,0:0|0:0,0:0:0:0:
229,307,77077,2,0,L|236:358,1,40,2|8,0:0|0:0,0:0:0:0:
57,342,77369,2,0,L|57:235,1,80,2|8,0:0|0:0,0:0:0:0:
142,223,77759,1,0,0:0:0:0:
53,189,77954,1,8,0:0:0:0:
379,167,78149,5,6,0:0:0:0:
301,227,78344,2,0,L|293:283,1,40,8|2,0:0|0:0,0:0:0:0:
396,293,78636,2,0,L|399:343,1,40,2|8,0:0|0:0,0:0:0:0:
223,346,78928,2,0,L|351:338,1,120,6|2,0:0|0:0,0:0:0:0:
488,325,79512,1,8,0:0:0:0:
224,289,79707,6,0,L|110:290,1,80,6|2,0:0|0:0,0:0:0:0:
321,246,80097,2,0,L|417:245,1,80,12|2,0:0|0:0,0:0:0:0:
137,216,80486,2,0,P|96:175|150:96,1,160,2|8,0:0|0:0,0:0:0:0:
218,94,81071,1,8,0:0:0:0:
482,78,81265,6,0,L|411:153,1,80,6|0,0:0|0:0,0:0:0:0:
314,227,81655,2,0,L|291:183,2,40,2|0|8,0:0|0:0|0:0,0:0:0:0:
138,212,82044,2,0,L|251:195,1,80,2|0,0:0|0:0,0:0:0:0:
333,174,82434,2,0,L|343:131,2,40,2|0|8,0:0|0:0|0:0,0:0:0:0:
61,200,82823,6,0,L|46:92,1,80,2|0,0:0|0:0,0:0:0:0:
149,105,83213,1,2,0:0:0:0:
189,105,83311,1,0,0:0:0:0:
228,104,83408,1,8,0:0:0:0:
492,157,83603,1,2,0:0:0:0:
407,199,83798,2,0,L|411:290,1,80,12|12,0:0|0:0,0:0:0:0:
507,304,84187,1,0,0:0:0:0:
214,239,84382,6,0,L|130:243,1,80,2|0,0:0|0:0,0:0:0:0:
225,153,84772,1,2,0:0:0:0:
265,153,84870,1,0,0:0:0:0:
304,152,84967,1,8,0:0:0:0:
129,145,85161,2,0,L|135:51,1,80,2|0,0:0|0:0,0:0:0:0:
242,48,85551,1,2,0:0:0:0:
282,48,85649,1,0,0:0:0:0:
321,47,85746,1,8,0:0:0:0:
55,228,85941,6,0,L|49:128,1,80,6|0,0:0|0:0,0:0:0:0:
137,142,86330,1,6,0:0:0:0:
51,148,86525,1,8,0:0:0:0:
314,106,86720,2,8,L|378:107,1,40
314,106,86915,2,8,L|264:107,1,40
321,222,87109,1,8,0:0:0:0:
418,220,87304,1,8,0:0:0:0:
158,182,87499,6,0,L|47:185,1,80,6|0,0:0|0:0,0:0:0:0:
183,266,87889,1,2,0:0:0:0:
143,266,87987,1,0,0:0:0:0:
104,265,88084,1,8,0:0:0:0:
279,195,88278,2,0,L|345:106,1,80,2|0,0:0|0:0,0:0:0:0:
222,109,88668,2,0,L|212:66,2,40,2|0|8,0:0|0:0|0:0,0:0:0:0:
483,262,89058,6,0,L|491:149,1,80,2|0,0:0|0:0,0:0:0:0:
383,96,89447,1,2,0:0:0:0:
343,96,89545,1,0,0:0:0:0:
304,95,89642,1,8,0:0:0:0:
42,116,89837,1,2,0:0:0:0:
126,158,90032,2,0,L|122:249,1,80,12|12,0:0|0:0,0:0:0:0:
27,263,90421,1,0,0:0:0:0:
384,228,90616,6,0,L|468:232,1,80,8|0,0:0|0:0,0:0:0:0:
394,179,90908,1,8,0:0:0:0:
325,181,91005,2,0,L|317:244,1,40,2|0,0:0|0:0,0:0:0:0:
361,255,91200,1,8,0:0:0:0:
444,249,91395,2,0,P|470:213|448:174,1,80,6|0,0:0|0:0,0:0:0:0:
366,171,91687,1,0,0:0:0:0:
274,167,91784,2,0,P|256:120|268:79,1,80,2|8,0:0|0:0,0:0:0:0:
439,72,92174,6,0,L|297:68,2,120,2|2|2,0:0|0:0|0:0,0:0:0:0:
261,173,92954,2,0,L|79:178,1,160,2|0,0:0|0:0,0:0:0:0:
424,97,93733,6,0,L|279:83,2,120,6|6|6,0:0|0:0|0:0,0:0:0:0:
149,193,94512,5,6,0:0:0:0:
256,192,94707,12,2,95973,0:0:0:0:
