osu file format v14

[General]
AudioFilename: audio.mp3
AudioLeadIn: 0
PreviewTime: 66086
Countdown: 0
SampleSet: Soft
StackLeniency: 0.7
Mode: 0
LetterboxInBreaks: 0
WidescreenStoryboard: 0

[Editor]
Bookmarks: 16702,22855,32702,54855,69317,75778,129855
DistanceSpacing: 1.1
BeatDivisor: 4
GridSize: 4
TimelineZoom: 2.2

[Metadata]
Title:STAR BEAT!~Hoshi no Kodou~
TitleUnicode:STAR BEAT!~ホシノコドウ~
Artist:Poppin'Party
ArtistUnicode:Poppin'Party
Creator:[ L u k a s ]
Version:wkyik's InsanE!
Source:BanG Dream!
Tags:Firis_Mistlud Suzuki_1112 Gaia kawaiwkyik Rizia Lukas Asuka_- joker- kurantemelodii
BeatmapID:1402930
BeatmapSetID:650607

[Difficulty]
HPDrainRate:6
CircleSize:4
OverallDifficulty:7
ApproachRate:9
SliderMultiplier:1.8
SliderTickRate:1

[Events]
//Background and Video events
0,0,"sta beet.jpg",0,0
//Break Periods
//Storyboard Layer 0 (Background)
//Storyboard Layer 1 (Fail)
//Storyboard Layer 2 (Pass)
//Storyboard Layer 3 (Foreground)
//Storyboard Sound Samples

[TimingPoints]
702,307.692307692308,4,2,1,60,1,0
2240,-133.333333333333,4,2,1,60,0,0
18548,-142.857142857143,4,2,1,60,0,0
19163,-153.846153846154,4,2,1,60,0,0
19778,-166.666666666667,4,2,1,60,0,0
22855,-200,4,2,5,40,0,0
23471,-200,4,2,1,5,0,0
23625,-200,4,2,5,40,0,0
24086,-200,4,2,6,40,0,0
24702,-200,4,2,1,5,0,0
24855,-200,4,2,6,40,0,0
25317,-200,4,2,11,40,0,0
25933,-200,4,2,1,5,0,0
26087,-200,4,2,11,40,0,0
26855,-200,4,2,8,40,0,0
27009,-200,4,2,9,40,0,0
27317,-200,4,2,11,40,0,0
27778,-200,4,2,5,40,0,0
28009,-200,4,2,5,5,0,0
28086,-200,4,2,10,40,0,0
28394,-200,4,2,10,5,0,0
28548,-200,4,2,5,40,0,0
29009,-200,4,2,6,40,0,0
29240,-200,4,2,6,5,0,0
29317,-200,4,2,6,40,0,0
29625,-200,4,2,6,5,0,0
29778,-200,4,2,6,40,0,0
30240,-200,4,2,11,40,0,0
31471,-200,4,2,8,40,0,0
32317,-200,4,1,11,40,0,0
32702,-100,4,2,1,50,0,0
45009,-100,4,2,1,30,0,0
45317,-100,4,2,1,50,0,0
47471,-100,4,2,1,30,0,0
47778,-100,4,2,1,50,0,0
54855,-100,4,2,1,30,0,0
55163,-100,4,2,1,50,0,0
57317,-100,4,2,1,30,0,0
57625,-100,4,2,1,50,0,0
62240,-100,4,2,1,60,0,0
65009,-133.333333333333,4,2,1,60,0,0
65163,-133.333333333333,4,2,1,65,0,0
65317,-133.333333333333,4,2,1,70,0,0
65471,-133.333333333333,4,2,1,75,0,0
65625,-133.333333333333,4,2,1,80,0,0
65778,-133.333333333333,4,2,1,85,0,0
65932,-133.333333333333,4,2,1,40,0,0
66778,-133.333333333333,4,2,1,5,0,0
66855,-133.333333333333,4,2,1,100,0,0
67163,-100,4,2,1,100,0,1
86855,-100,4,2,1,60,0,0
99163,-100,4,2,1,75,0,0
100380,307.692307692308,4,2,1,40,1,0
120687,-200,4,2,1,70,0,0
121303,-200,4,2,1,60,0,0
129841,-200,4,2,1,5,0,0

[Colours]
Combo1 : 128,0,128
Combo2 : 240,152,0
Combo3 : 255,0,0
Combo4 : 255,255,0
Combo5 : 255,128,192
Combo6 : 255,0,128

[HitObjects]
256,192,702,5,4,0:0:0:0:
256,192,778,12,0,1932,0:0:0:0:
188,128,2240,5,0,0:0:0:0:
188,128,2394,2,0,P|248:120|344:104,1,135,8|8,0:3|0:3,0:0:0:0:
296,204,2855,2,0,P|344:208|388:216,1,67.5000025749208,4|4,0:3|0:3,0:0:0:0:
456,240,3163,1,4,0:0:0:0:
256,192,3240,12,0,4394,0:0:0:0:
288,55,4702,5,0,0:0:0:0:
288,55,5009,2,0,L|276:144,1,67.5000025749208,8|8,0:3|0:3,0:0:0:0:
176,272,5317,2,0,L|166:205,1,67.5000025749208,4|4,0:3|0:3,0:0:0:0:
256,332,5625,1,4,0:0:0:0:
256,192,5702,12,0,6855,0:0:0:0:
124,104,7163,5,0,0:0:0:0:
224,148,7317,1,8,0:3:0:0:
104,96,7471,2,0,P|108:152|112:192,1,67.5000025749208,8|8,0:0|0:3,0:0:0:0:
40,32,7778,1,4,0:3:0:0:
208,228,7932,2,0,P|210:194|213:160,1,67.5000025749208,4|4,0:3|0:0,0:0:0:0:
256,192,8163,12,0,9317,0:0:0:0:
108,116,9471,6,0,P|152:124|248:80,1,135.000005149842,12|0,0:0|0:0,0:0:0:0:
344,132,9932,2,0,L|332:260,1,101.250003862381,8|0,0:0|0:0,0:0:0:0:
332,252,10240,2,0,P|376:244|420:252,1,67.5000025749208,8|4,0:3|0:3,0:0:0:0:
480,296,10548,1,6,0:0:0:0:
484,308,10855,6,0,L|464:376,1,67.5000025749208,2|0,0:0|0:0,0:0:0:0:
384,264,11163,2,0,P|388:312|396:348,1,67.5000025749208,2|0,0:0|0:0,0:0:0:0:
276,320,11471,2,0,P|303:359|328:386,1,67.5000025749208,2|0,0:0|0:0,0:0:0:0:
296,224,11778,6,0,P|304:176|316:80,2,135.000005149842,2|2|2,0:0|0:0|0:0,0:0:0:0:
296,224,12702,1,2,0:0:0:0:
40,192,13009,1,6,0:0:0:0:
48,180,13317,2,0,L|136:160,1,67.5000025749208,2|0,0:0|0:0,0:0:0:0:
148,272,13625,2,0,L|208:312,1,67.5000025749208,2|0,0:0|0:0,0:0:0:0:
272,168,13932,2,0,L|296:84,1,67.5000025749208,2|0,0:0|0:0,0:0:0:0:
408,224,14240,1,2,0:0:0:0:
408,224,14548,5,8,0:3:0:0:
408,224,14702,1,8,0:3:0:0:
336,272,14855,2,0,L|324:344,1,67.5000025749208,8|4,0:3|0:3,0:0:0:0:
484,176,15163,2,0,L|495:109,1,67.5000025749208,4|4,0:3|0:3,0:0:0:0:
282,191,15471,6,0,P|341:223|408:224,1,135.000005149842,6|2,0:0|0:0,0:0:0:0:
328,120,16086,2,0,P|269:152|202:152,1,135.000005149842,2|2,0:0|0:0,0:0:0:0:
152,88,16548,1,2,0:0:0:0:
152,88,16625,1,2,0:0:0:0:
152,88,16702,2,0,P|210:120|277:120,1,135.000005149842,4|2,0:0|0:0,0:0:0:0:
476,104,17317,6,0,L|488:32,1,67.5000025749208,8|8,0:3|0:3,0:0:0:0:
376,112,17625,2,0,L|364:178,1,67.5000025749208,4|4,0:3|0:3,0:0:0:0:
447,244,17932,6,0,L|424:377,1,135.000005149842,4|2,0:0|0:0,0:0:0:0:
365,236,18548,6,0,L|342:369,1,125.999996154785,2|2,0:0|0:0,0:0:0:0:
281,224,19163,6,0,L|258:357,1,116.999994644165,2|2,0:0|0:0,0:0:0:0:
193,204,19778,6,0,L|173:323,1,107.999996704102,2|2,0:0|0:0,0:0:0:0:
256,192,20394,12,0,22548,0:0:0:0:
201,93,22855,6,0,P|156:95|112:96,1,90,8|0,0:0|0:0,0:0:0:0:
112,96,23317,2,0,L|104:140,1,45,0|0,0:0|0:0,0:0:0:0:
90,230,23625,1,8,0:0:0:0:
194,70,24086,6,0,P|238:67|283:67,1,90,8|0,0:0|0:0,0:0:0:0:
301,81,24548,1,0,0:0:0:0:
380,130,24702,2,0,P|388:98|392:70,1,45,0|8,0:0|0:0,0:0:0:0:
298,175,25009,2,0,P|290:207|286:235,1,45,0|0,0:0|0:0,0:0:0:0:
334,320,25317,6,0,P|374:304|438:312,2,90,8|0|0,0:0|0:0|0:0,0:0:0:0:
260,368,26086,2,0,P|215:369|173:353,1,90,8|0,0:0|0:0,0:0:0:0:
108,308,26548,6,0,B|128:268|128:268|120:212,1,90,8|8,0:0|0:0,0:0:0:0:
0,292,27009,2,0,B|-6:247|-6:247|13:207,1,90,8|8,0:0|0:0,0:0:0:0:
80,160,27471,2,0,L|88:116,2,45,0|0|8,0:0|0:0|0:0,0:0:0:0:
240,52,28086,2,0,L|248:96,2,45,8|0|0,0:0|0:0|0:0,0:0:0:0:
324,112,28548,2,0,P|356:124|420:120,1,90,8|0,0:0|0:0,0:0:0:0:
468,184,29009,6,0,L|456:288,1,90,8|0,0:0|0:0,0:0:0:0:
304,272,29625,1,0,0:0:0:0:
304,272,29778,2,0,L|292:376,1,90,8|0,0:0|0:0,0:0:0:0:
293,361,30240,6,0,P|256:340|160:336,1,135,8|0,0:0|0:0,0:0:0:0:
76,364,30855,2,0,P|60:328|64:268,1,90,0|8,0:0|0:0,0:0:0:0:
96,80,31471,5,8,0:0:0:0:
96,80,31778,2,0,L|104:24,2,45,0|0|0,0:0|0:0|0:0,0:0:0:0:
80,172,32394,1,4,1:0:0:0:
80,172,32702,6,0,B|168:148|156:216|256:192,2,180,6|10|2,0:0|0:0|0:0,0:0:0:0:
126,342,33471,2,0,P|128:297|112:256,1,90,0|10,0:0|0:0,0:0:0:0:
172,184,33778,1,0,0:0:0:0:
172,184,33932,6,0,P|192:128|184:0,1,180,2|10,0:0|0:0,0:0:0:0:
186,9,34394,1,0,0:0:0:0:
72,104,34548,2,0,L|168:92,1,90,2|0,0:0|0:0,0:0:0:0:
272,144,34855,2,0,L|368:132,1,90,10|0,0:0|0:0,0:0:0:0:
488,224,35163,6,0,B|416:216|416:216|384:236|384:236|308:228,2,180,2|10|2,0:0|0:0|0:0,0:0:0:0:
441,374,35932,2,0,B|416:340|416:340|432:296,1,90,0|10,0:0|0:0,0:0:0:0:
360,148,36240,1,0,0:0:0:0:
360,148,36394,6,0,P|304:168|232:88,1,180,2|10,0:0|0:0,0:0:0:0:
424,76,36855,1,0,0:0:0:0:
424,76,37163,1,0,0:0:0:0:
360,148,37317,2,0,L|372:268,2,90,10|0|2,0:0|0:0|0:0,0:0:0:0:
72,112,37932,6,0,P|40:156|52:224,1,90,10|0,0:0|0:0,0:0:0:0:
204,236,38240,2,0,P|181:186|117:162,1,90,2|0,0:0|0:0,0:0:0:0:
96,312,38548,1,10,0:0:0:0:
190,341,38702,1,0,0:0:0:0:
283,308,38855,2,0,P|314:263|303:195,1,90,2|0,0:0|0:0,0:0:0:0:
170,162,39163,2,0,L|189:340,1,180,10|2,0:0|0:0,0:0:0:0:
189,340,39625,1,0,0:0:0:0:
64,257,39778,2,0,P|67:212|71:167,1,90,10|0,0:0|0:0,0:0:0:0:
170,162,40086,6,0,P|214:158|362:150,1,180,2|10,0:0|0:0,0:0:0:0:
436,104,40548,1,0,0:0:0:0:
344,66,40702,2,0,P|299:69|254:72,1,90,2|0,0:0|0:0,0:0:0:0:
222,247,41009,2,0,P|266:243|311:240,1,90,10|0,0:0|0:0,0:0:0:0:
182,158,41317,6,0,P|138:162|-10:170,1,180,2|10,0:0|0:0,0:0:0:0:
6,269,41779,1,0,0:0:0:0:
68,348,41932,2,0,P|120:344|216:340,1,135,2|0,0:0|0:0,0:0:0:0:
202,340,42240,2,0,P|196:296|188:232,1,90,10|0,0:0|0:0,0:0:0:0:
284,100,42548,6,0,P|278:144|271:189,1,90,6|0,0:0|0:0,0:0:0:0:
352,344,42855,2,0,P|304:304|260:276,1,90,10|0,0:0|0:0,0:0:0:0:
116,100,43163,2,0,P|164:140|208:168,1,90,2|0,0:0|0:0,0:0:0:0:
190,251,43471,2,0,P|101:251|30:304,1,180,14|6,0:0|0:0,0:0:0:0:
24,188,43932,1,0,0:0:0:0:
96,96,44086,6,0,L|188:128,1,90,10|0,0:0|0:0,0:0:0:0:
280,60,44394,2,0,L|298:155,1,90,10|0,0:0|0:0,0:0:0:0:
404,196,44702,2,0,L|330:259,1,90,0|0,0:0|0:0,0:0:0:0:
340,372,45009,6,0,L|247:340,1,90,0|0,0:0|0:0,0:0:0:0:
254,342,45317,6,0,B|304:320|304:320|360:352|360:352|440:348,1,180,14|2,0:0|0:0,0:0:0:0:
389,183,45778,2,0,B|372:224|372:224|384:268,2,90,0|10|0,0:0|0:0|0:0,0:0:0:0:
436,104,46240,6,0,B|453:63|453:63|441:19,1,90,2|0,0:0|0:0,0:0:0:0:
252,112,46548,2,0,L|364:104,1,90,10|0,0:0|0:0,0:0:0:0:
176,216,46855,2,0,L|86:209,1,90,2|0,0:0|0:0,0:0:0:0:
60,64,47163,2,0,P|104:61|172:56,1,90,10|0,0:0|0:0,0:0:0:0:
252,112,47471,6,0,P|255:156|257:201,1,90,0|0,0:0|0:0,0:0:0:0:
257,201,47778,6,0,P|284:148|248:40,1,180,14|2,0:0|0:0,0:0:0:0:
160,12,48240,1,0,0:0:0:0:
72,28,48394,1,10,0:0:0:0:
16,100,48548,1,0,0:0:0:0:
20,192,48702,6,0,P|32:240|40:288,1,90,2|0,0:0|0:0,0:0:0:0:
112,384,49009,2,0,P|119:339|130:296,1,90,10|0,0:0|0:0,0:0:0:0:
192,228,49317,2,0,P|232:248|344:172,1,180,2|0,0:0|0:0,0:0:0:0:
316,100,49778,1,0,0:0:0:0:
316,100,49855,1,0,0:0:0:0:
316,100,49932,6,0,L|328:8,2,90,0|0|14,0:0|0:0|0:0,0:0:0:0:
164,132,50548,2,0,L|72:120,2,90,0|0|14,0:0|0:0|0:0,0:0:0:0:
196,284,51163,2,0,L|184:376,2,90,0|0|14,0:0|0:0|0:0,0:0:0:0:
348,252,51779,2,0,L|440:264,2,90,0|0|14,0:0|0:0|0:0,0:0:0:0:
280,192,52240,1,8,0:0:0:0:
280,192,52394,6,0,P|212:212|104:204,2,180,14|10|2,0:0|0:0|0:0,0:0:0:0:
344,128,53163,1,0,0:0:0:0:
332,40,53317,1,10,0:0:0:0:
152,56,53625,5,2,0:0:0:0:
92,120,53778,1,0,0:0:0:0:
180,140,53932,2,0,P|188:192|192:244,1,90,10|0,0:0|0:0,0:0:0:0:
120,284,54240,2,0,P|109:335|95:385,1,90,2|8,0:0|0:0,0:0:0:0:
204,324,54548,2,0,L|268:312,3,45,8|8|8|8,0:0|0:0|0:0|0:0,0:0:0:0:
236,348,54855,6,0,P|280:352|340:364,1,90,0|0,0:0|0:0,0:0:0:0:
412,316,55163,6,0,P|325:337|236:348,1,180,4|2,0:0|0:0,0:0:0:0:
172,284,55625,1,0,0:0:0:0:
172,284,55778,2,0,P|176:232|208:188,1,90,10|0,0:0|0:0,0:0:0:0:
168,96,56086,6,0,P|212:104|268:108,1,90,2|0,0:0|0:0,0:0:0:0:
416,156,56394,2,0,P|372:164|316:168,1,90,10|0,0:0|0:0,0:0:0:0:
172,284,56702,2,0,P|259:264|349:256,1,180,2|2,0:0|0:0,0:0:0:0:
349,256,57163,1,0,0:0:0:0:
236,92,57317,6,0,L|248:196,1,90,0|0,0:0|0:0,0:0:0:0:
254,1,57625,6,0,L|246:181,1,180,14|2,0:0|0:0,0:0:0:0:
172,132,58086,1,0,0:0:0:0:
92,172,58240,1,10,0:0:0:0:
164,228,58394,1,0,0:0:0:0:
80,256,58548,6,0,P|68:308|80:360,1,90,2|0,0:0|0:0,0:0:0:0:
172,132,58855,2,0,P|184:80|172:28,1,90,10|0,0:0|0:0,0:0:0:0:
164,228,59163,2,0,P|252:184|368:212,1,180,2|0,0:0|0:0,0:0:0:0:
408,240,59625,1,0,0:0:0:0:
416,328,59778,5,0,0:0:0:0:
416,328,59932,2,0,L|320:344,1,90,0|14,0:0|0:0,0:0:0:0:
164,264,60394,5,0,0:0:0:0:
248,296,60548,1,0,0:0:0:0:
240,208,60702,1,14,0:0:0:0:
464,112,61009,5,0,0:0:0:0:
380,144,61163,1,0,0:0:0:0:
388,56,61317,1,14,0:0:0:0:
80,128,61625,5,0,0:0:0:0:
388,56,61933,1,14,0:0:0:0:
256,192,62240,12,14,64702,0:0:0:0:
205,185,65009,6,0,L|219:112,1,67.5000025749208,8|8,0:0|0:0,0:0:0:0:
307,199,65317,2,0,L|293:272,1,67.5000025749208,8|8,0:0|0:0,0:0:0:0:
176,149,65625,2,0,P|186:132|214:85,1,67.5000025749208,8|8,0:0|0:0,0:0:0:0:
336,235,65932,1,8,0:0:0:0:
360,112,66240,5,0,0:0:0:0:
152,272,66548,1,0,0:0:0:0:
256,192,66702,1,0,0:0:0:0:
360,272,66855,1,2,0:0:0:0:
104,188,67163,6,0,P|152:184|288:176,1,180,4|8,0:0|0:0,0:0:0:0:
340,84,67625,1,0,0:0:0:0:
224,4,67778,2,0,P|226:48|231:93,1,90
111,277,68086,2,0,P|109:232|104:188,1,90,8|0,0:0|0:0,0:0:0:0:
200,180,68394,6,0,P|204:284|216:388,1,180,0|8,0:0|0:0,0:0:0:0:
372,292,68855,1,0,0:0:0:0:
372,292,69009,2,0,P|328:296|272:300,1,90,0|0,0:0|0:0,0:0:0:0:
32,240,69317,2,0,P|76:236|121:232,1,90,8|0,0:0|0:0,0:0:0:0:
72,156,69625,6,0,P|48:116|124:16,1,180,0|8,0:0|0:0,0:0:0:0:
168,112,70086,1,0,0:0:0:0:
256,52,70240,1,0,0:0:0:0:
296,132,70394,2,0,P|292:180|284:232,1,90,0|8,0:0|0:0,0:0:0:0:
344,52,70702,6,0,P|384:32|484:120,1,180,0|0,0:0|0:0,0:0:0:0:
428,172,71163,1,8,0:0:0:0:
480,244,71317,2,0,B|412:252|412:252|380:284|380:284|304:292,1,180,0|0,0:0|0:0,0:0:0:0:
244,232,71778,1,8,0:0:0:0:
244,232,71932,1,0,0:0:0:0:
180,296,72086,6,0,P|140:272|0:268,1,180,0|8,0:0|0:0,0:0:0:0:
52,184,72548,1,0,0:0:0:0:
12,104,72702,2,0,P|20:52|136:40,1,180,0|8,0:0|0:0,0:0:0:0:
440,64,73317,6,0,P|380:72|308:76,1,90,0|0,0:0|0:0,0:0:0:0:
320,160,73625,2,0,P|380:152|452:148,1,90,8|0,0:0|0:0,0:0:0:0:
228,212,73932,2,0,P|220:152|216:80,1,90,0|0,0:0|0:0,0:0:0:0:
316,256,74240,1,8,0:0:0:0:
316,256,74394,6,0,P|280:296|152:272,1,180,0|0,0:0|0:0,0:0:0:0:
72,284,74855,1,8,0:0:0:0:
116,204,75009,1,0,0:0:0:0:
76,124,75163,2,0,P|72:84|68:28,1,90,0|0,0:0|0:0,0:0:0:0:
200,160,75471,2,0,P|204:200|208:256,1,90,8|0,0:0|0:0,0:0:0:0:
312,160,75778,6,0,P|308:200|304:256,1,90,0|0,0:0|0:0,0:0:0:0:
436,124,76086,2,0,P|440:84|444:28,1,90,12|0,0:0|0:0,0:0:0:0:
396,204,76394,1,0,0:0:0:0:
440,284,76548,1,0,0:0:0:0:
348,284,76702,6,0,P|264:308|215:275,1,135,8|0,0:0|0:0,0:0:0:0:
226,287,77009,2,0,P|234:349|219:393,1,90,4|0,0:0|0:0,0:0:0:0:
141,325,77317,1,8,0:0:0:0:
62,264,77471,2,0,P|54:232|62:172,1,90,0|0,0:0|0:0,0:0:0:0:
143,121,77778,1,0,0:0:0:0:
233,233,77932,2,0,P|189:241|145:233,1,90,8|0,0:0|0:0,0:0:0:0:
280,292,78240,6,0,P|221:314|104:299,1,180,0|8,0:0|0:0,0:0:0:0:
52,236,78702,1,0,0:0:0:0:
104,164,78855,2,0,P|140:152|216:168,1,90,0|0,0:0|0:0,0:0:0:0:
280,176,79163,2,0,L|292:76,1,90,8|0,0:0|0:0,0:0:0:0:
368,204,79471,6,0,P|372:252|388:388,2,180,0|8|0,0:0|0:0|0:0,0:0:0:0:
428,136,80240,2,0,P|419:90|407:37,1,90,0|8,0:0|0:0,0:0:0:0:
272,192,80548,1,0,0:0:0:0:
188,156,80702,6,0,P|141:152|92:148,2,90,0|0|8,0:0|0:0|0:0,0:0:0:0:
272,192,81163,2,0,P|328:184|456:176,1,180,0|0,0:0|0:0,0:0:0:0:
492,96,81625,1,8,0:0:0:0:
416,48,81778,1,0,0:0:0:0:
364,208,81932,6,0,P|394:291|374:378,1,180,4|8,0:0|0:0,0:0:0:0:
280,240,82394,1,0,0:0:0:0:
196,268,82548,2,0,P|170:214|193:83,1,180,0|8,0:0|0:0,0:0:0:0:
356,44,83163,6,0,P|404:77|450:202,1,180,0|8,0:0|0:0,0:0:0:0:
400,260,83625,2,0,P|384:308|388:368,1,90,0|0,0:0|0:0,0:0:0:0:
292,344,83932,2,0,P|244:360|184:356,1,90,0|8,0:0|0:0,0:0:0:0:
116,348,84240,6,0,B|96:308|44:300|44:300|8:272|16:200,1,180,0|0,0:0|0:0,0:0:0:0:
88,168,84702,1,8,0:0:0:0:
48,88,84855,1,0,0:0:0:0:
136,100,85009,2,0,P|204:112|272:60,1,135,0|0,0:0|0:0,0:0:0:0:
284,44,85317,2,0,L|296:192,1,135,0|0,0:0|0:0,0:0:0:0:
300,224,85625,6,0,P|339:203|383:208,1,90,0|0,0:0|0:0,0:0:0:0:
468,180,85932,2,0,P|508:240|456:368,1,180,12|0,0:0|0:0,0:0:0:0:
400,368,86394,1,0,0:0:0:0:
312,356,86548,1,0,0:0:0:0:
224,340,86702,1,0,0:0:0:0:
136,324,86855,5,12,0:0:0:0:
88,40,87163,1,8,0:0:0:0:
108,128,87317,1,0,0:0:0:0:
128,216,87471,1,0,0:0:0:0:
212,184,87625,1,0,0:0:0:0:
296,152,87778,1,8,0:0:0:0:
296,152,88086,6,0,L|404:140,1,90,0|0,0:0|0:0,0:0:0:0:
452,80,88394,1,8,0:0:0:0:
440,248,88548,2,0,L|332:236,1,90,0|0,0:0|0:0,0:0:0:0:
296,152,88855,1,0,0:0:0:0:
252,244,89009,6,0,P|220:276|88:260,1,180,8|0,0:0|0:0,0:0:0:0:
64,180,89471,1,0,0:0:0:0:
32,96,89625,1,8,0:0:0:0:
296,152,89932,1,0,0:0:0:0:
284,240,90086,1,0,0:0:0:0:
272,328,90240,1,8,0:0:0:0:
396,52,90548,5,0,0:0:0:0:
448,284,90855,1,8,0:0:0:0:
256,192,91163,1,8,0:0:0:0:
256,192,91317,2,0,B|188:184|188:184|156:212|156:212|56:224,1,180,12|0,0:0|0:0,0:0:0:0:
112,128,91778,5,12,0:0:0:0:
112,128,92086,2,0,L|124:24,1,90,8|0,0:0|0:0,0:0:0:0:
216,276,92394,2,0,L|248:392,1,90,0|0,0:0|0:0,0:0:0:0:
304,188,92702,2,0,L|431:176,1,90,8|0,0:0|0:0,0:0:0:0:
501,50,93009,2,0,L|302:38,1,180,0|8,0:0|0:0,0:0:0:0:
244,120,93471,5,0,0:0:0:0:
304,188,93625,1,0,0:0:0:0:
248,260,93778,1,0,0:0:0:0:
308,328,93932,2,0,P|356:336|408:300,1,90,8|0,0:0|0:0,0:0:0:0:
248,260,94240,6,0,P|192:252|80:308,1,180,12|8,0:0|0:0,0:0:0:0:
32,228,94702,1,0,0:0:0:0:
24,140,94855,1,0,0:0:0:0:
68,64,95009,1,0,0:0:0:0:
152,36,95163,1,8,0:0:0:0:
152,36,95471,6,0,P|188:52|268:40,1,90,0|8,0:0|0:0,0:0:0:0:
320,12,95778,1,8,0:0:0:0:
404,44,95932,2,0,P|440:84|440:148,1,90,0|0,0:0|0:0,0:0:0:0:
424,208,96240,1,0,0:0:0:0:
460,292,96394,1,8,0:0:0:0:
324,240,96548,1,0,0:0:0:0:
188,188,96702,1,4,0:0:0:0:
188,188,97009,6,0,L|200:292,1,90,0|0,0:0|0:0,0:0:0:0:
324,196,97317,2,0,L|312:92,1,90,0|0,0:0|0:0,0:0:0:0:
198,277,97625,2,0,L|186:381,1,90,0|0,0:0|0:0,0:0:0:0:
314,107,97932,2,0,L|326:3,1,90,0|0,0:0|0:0,0:0:0:0:
200,48,98240,2,0,P|152:88|60:64,1,135,0|0,0:0|0:0,0:0:0:0:
56,68,98548,2,0,L|72:160,1,90,0|0,0:0|0:0,0:0:0:0:
152,336,98855,2,0,L|144:240,1,90,0|0,0:0|0:0,0:0:0:0:
224,196,99163,6,0,P|276:212|428:228,1,180,12|8,0:0|0:0,0:0:0:0:
468,168,99625,1,8,0:0:0:0:
396,116,99778,1,8,0:0:0:0:
476,76,99932,1,8,0:0:0:0:
356,136,100086,1,8,0:0:0:0:
476,200,100240,1,8,0:0:0:0:
356,264,100380,1,12,0:0:0:0:
356,264,101610,5,6,0:0:0:0:
356,264,101918,1,2,0:0:0:0:
356,264,102226,2,0,L|348:160,2,90,2|0|2,0:0|0:0|0:0,0:0:0:0:
300,336,102687,1,0,0:0:0:0:
300,336,102841,2,0,P|244:312|124:328,1,180,0|2,0:0|0:0,0:0:0:0:
40,168,103456,1,2,0:0:0:0:
60,80,103610,1,0,0:0:0:0:
124,144,103764,1,2,0:0:0:0:
104,232,103918,1,0,0:0:0:0:
192,208,104072,6,0,B|256:192|256:192|300:216|300:216|392:192,1,180,6|2,0:0|0:0,0:0:0:0:
456,44,104687,2,0,B|420:16|420:16|368:28,1,90,2|0,0:0|0:0,0:0:0:0:
400,112,104995,1,2,0:0:0:0:
400,112,105149,1,0,0:0:0:0:
484,148,105303,2,0,P|440:192|316:156,1,180,0|2,0:0|0:0,0:0:0:0:
264,116,105764,2,0,L|172:108,1,90,0|0,0:0|0:0,0:0:0:0:
112,196,106072,2,0,L|201:203,1,90,0|2,0:0|0:0,0:0:0:0:
320,288,106380,2,0,L|230:295,1,90,0|6,0:0|0:0,0:0:0:0:
230,294,106841,6,0,L|418:310,2,180,2|2|2,0:0|0:0|0:0,0:0:0:0:
168,232,107610,2,0,P|120:248|36:160,1,180,0|0,0:0|0:0,0:0:0:0:
72,84,108072,2,0,P|112:64|144:24,1,90,2|0,0:0|0:0,0:0:0:0:
228,56,108380,1,2,0:0:0:0:
260,140,108533,2,0,P|280:180|408:224,1,180,4|0,0:0|0:0,0:0:0:0:
484,196,108995,6,0,P|468:256|476:316,1,90,2|0,0:0|0:0,0:0:0:0:
380,300,109303,2,0,P|396:359|433:407,1,90,2|0,0:0|0:0,0:0:0:0:
296,308,109610,2,0,P|236:292|176:300,1,90,2|0,0:0|0:0,0:0:0:0:
332,228,109918,2,0,P|375:184|398:128,1,90,2|2,0:0|0:0,0:0:0:0:
264,44,110226,2,0,P|280:103|317:151,1,90,2|0,0:0|0:0,0:0:0:0:
228,208,110533,2,0,P|188:164|60:160,1,180,2|2,0:0|0:0,0:0:0:0:
28,232,110995,1,0,0:0:0:0:
52,320,111149,1,2,0:0:0:0:
120,260,111303,1,0,0:0:0:0:
144,348,111456,5,6,0:0:0:0:
144,348,111764,1,2,0:0:0:0:
144,348,112072,2,0,L|240:340,2,90,2|0|2,0:0|0:0|0:0,0:0:0:0:
300,272,112533,1,0,0:0:0:0:
300,272,112687,2,0,P|312:328|432:344,1,180,0|2,0:0|0:0,0:0:0:0:
432,128,113303,1,2,0:0:0:0:
432,128,113456,2,0,P|388:152|260:136,1,180,4|0,0:0|0:0,0:0:0:0:
208,68,113918,6,0,L|232:272,1,180,2|2,0:0|0:0,0:0:0:0:
96,368,114533,2,0,P|72:316|84:272,1,90,2|0,0:0|0:0,0:0:0:0:
164,308,114841,1,0,0:0:0:0:
248,336,114995,1,0,0:0:0:0:
332,364,115149,2,0,P|384:372|452:276,1,180,2|2,0:0|0:0,0:0:0:0:
396,108,115764,2,0,L|300:96,1,90,2|0,0:0|0:0,0:0:0:0:
236,40,116072,2,0,L|296:16,2,60,2|0|0,0:0|0:0|0:0,0:0:0:0:
164,72,116380,5,2,0:0:0:0:
164,72,116687,2,0,B|96:88|96:88|72:116|72:116|-8:104,1,180,2|2,0:0|0:0,0:0:0:0:
144,164,117149,2,0,L|164:272,2,90,0|2|0,0:0|0:0|0:0,0:0:0:0:
240,304,117610,2,0,P|244:256|256:192,1,90,2|0,0:0|0:0,0:0:0:0:
344,276,117918,2,0,P|351:320|354:365,1,90,2|0,0:0|0:0,0:0:0:0:
436,308,118226,1,2,0:0:0:0:
344,276,118380,1,0,0:0:0:0:
416,212,118533,1,2,0:0:0:0:
320,180,118687,1,0,0:0:0:0:
396,116,118841,6,0,P|400:68|408:20,1,90,2|0,0:0|0:0,0:0:0:0:
312,96,119149,2,0,P|308:140|301:185,1,90,0|0,0:0|0:0,0:0:0:0:
204,208,119456,1,2,0:0:0:0:
192,108,119610,1,0,0:0:0:0:
312,216,119764,2,0,P|293:256|271:296,1,90,2|0,0:0|0:0,0:0:0:0:
180,336,120072,6,0,B|128:268|28:296|28:296|108:212|50:106,1,360,0|8,0:0|0:0,0:0:0:0:
20,32,120841,2,0,L|14:3,6,22.5,8|0|8|0|8|8|12,0:0|0:0|0:0|0:0|0:0|0:0|0:0,0:0:0:0:
256,192,121380,12,0,129918,0:0:0:0:
