osu file format v14

[General]
AudioFilename: audio.mp3
AudioLeadIn: 0
PreviewTime: 66086
Countdown: 0
SampleSet: Soft
StackLeniency: 0.7
Mode: 0
LetterboxInBreaks: 0
WidescreenStoryboard: 0

[Editor]
Bookmarks: 702,10548,64394,129855
DistanceSpacing: 1.5
BeatDivisor: 4
GridSize: 4
TimelineZoom: 1.7

[Metadata]
Title:STAR BEAT!~Hoshi no Kodou~
TitleUnicode:STAR BEAT!~ホシノコドウ~
Artist:Poppin'Party
ArtistUnicode:Poppin'Party
Creator:[ L u k a s ]
Version:joker's HarD!
Source:BanG Dream!
Tags:Firis_Mistlud Suzuki_1112 Gaia kawaiwkyik Rizia Lukas Asuka_- joker- kurantemelodii
BeatmapID:1385472
BeatmapSetID:650607

[Difficulty]
HPDrainRate:5
CircleSize:3.8
OverallDifficulty:6
ApproachRate:7.5
SliderMultiplier:1.3
SliderTickRate:1

[Events]
//Background and Video events
0,0,"sta beet.jpg",0,0
//Break Periods
//Storyboard Layer 0 (Background)
//Storyboard Layer 1 (Fail)
//Storyboard Layer 2 (Pass)
//Storyboard Layer 3 (Foreground)
//Storyboard Sound Samples

[TimingPoints]
702,307.692307692308,4,2,1,60,1,0
702,-111.111111111111,4,2,1,60,0,0
20394,-125,4,2,1,60,0,0
22855,-125,4,2,5,40,0,0
23471,-125,4,2,1,5,0,0
23625,-125,4,2,5,40,0,0
24086,-125,4,2,6,40,0,0
24702,-125,4,2,1,5,0,0
24855,-125,4,2,6,40,0,0
25317,-125,4,2,11,40,0,0
25933,-125,4,2,1,5,0,0
26087,-125,4,2,11,40,0,0
26855,-125,4,2,8,40,0,0
27009,-125,4,2,9,40,0,0
27317,-125,4,2,11,40,0,0
27778,-125,4,2,5,40,0,0
28009,-125,4,2,5,5,0,0
28086,-125,4,2,10,40,0,0
28394,-125,4,2,10,5,0,0
28548,-125,4,2,5,40,0,0
29009,-125,4,2,6,40,0,0
29240,-125,4,2,6,5,0,0
29317,-125,4,2,6,40,0,0
29625,-125,4,2,6,5,0,0
29778,-125,4,2,6,40,0,0
30240,-125,4,2,11,40,0,0
31471,-125,4,2,8,40,0,0
32317,-125,4,1,11,40,0,0
32702,-111.111111111111,4,2,1,50,0,0
45009,-111.111111111111,4,2,1,30,0,0
45317,-111.111111111111,4,2,1,50,0,0
47471,-111.111111111111,4,2,1,30,0,0
47778,-111.111111111111,4,2,1,50,0,0
54855,-111.111111111111,4,2,1,30,0,0
55163,-111.111111111111,4,2,1,50,0,0
57317,-111.111111111111,4,2,1,30,0,0
57625,-111.111111111111,4,2,1,50,0,0
62240,-111.111111111111,4,2,1,60,0,0
65009,-111.111111111111,4,2,1,60,0,0
65163,-111.111111111111,4,2,1,65,0,0
65317,-111.111111111111,4,2,1,70,0,0
65471,-111.111111111111,4,2,1,75,0,0
65625,-111.111111111111,4,2,1,80,0,0
65778,-111.111111111111,4,2,1,85,0,0
65932,-111.111111111111,4,2,1,40,0,0
66778,-111.111111111111,4,2,1,5,0,0
66855,-111.111111111111,4,2,1,100,0,0
67163,-100,4,2,1,100,0,1
76086,-100,4,2,1,100,0,1
76394,-100,4,2,1,100,0,1
85932,-100,4,2,1,100,0,1
86240,-100,4,2,1,100,0,1
86855,-111.111111111111,4,2,1,60,0,0
96702,-111.111111111111,4,2,1,60,0,0
97317,-111.111111111111,4,2,1,60,0,0
97932,-111.111111111111,4,2,1,60,0,0
98548,-111.111111111111,4,2,1,60,0,0
99163,-111.111111111111,4,2,1,75,0,0
100380,307.692307692308,4,2,1,40,1,0
100380,-111.111111111111,4,2,1,40,0,0
101610,-111.111111111111,4,2,1,40,0,0
120687,-111.111111111111,4,2,1,70,0,0
121303,-111.111111111111,4,2,1,60,0,0
129841,-111.111111111111,4,2,1,5,0,0
129918,-111.111111111111,4,2,1,5,0,0

[Colours]
Combo1 : 128,0,128
Combo2 : 240,152,0
Combo3 : 255,0,0
Combo4 : 255,255,0
Combo5 : 255,128,192
Combo6 : 255,0,128

[HitObjects]
263,290,702,6,0,B|345:223|409:337|486:265,2,233.999992858887,4|0|0,0:0|0:0|0:0,0:0:0:0:
135,206,2240,2,0,P|119:173|117:131,1,58.4999982147217,0|8,0:0|0:3,0:0:0:0:
191,34,2548,2,0,P|170:64|135:87,1,58.4999982147217,0|8,0:0|0:3,0:0:0:0:
16,71,2855,2,0,P|52:73|89:92,1,58.4999982147217,4|4,0:3|0:3,0:0:0:0:
200,147,3163,6,0,B|264:150|309:185|309:185|358:134|424:128,2,233.999992858887,4|0|0,0:0|0:0|0:0,0:0:0:0:
46,202,4702,2,0,P|19:224|-10:262,1,58.4999982147217,0|0,0:0|0:0,0:0:0:0:
98,274,5009,2,0,P|83:305|73:352,1,58.4999982147217,8|8,0:3|0:3,0:0:0:0:
173,321,5317,2,0,P|174:355|188:401,1,58.4999982147217,4|4,0:3|0:3,0:0:0:0:
256,295,5625,6,0,B|317:285|364:326|364:326|430:291|437:211,2,233.999992858887,4|0|0,0:0|0:0|0:0,0:0:0:0:
98,274,7163,2,0,L|114:198,1,58.4999982147217,0|8,0:0|0:3,0:0:0:0:
211,228,7471,2,0,L|195:152,1,58.4999982147217,8|8,0:0|0:3,0:0:0:0:
106,133,7778,2,0,L|122:57,1,58.4999982147217,4|4,0:3|0:3,0:0:0:0:
216,78,8086,6,0,B|294:93|294:93|365:63|365:63|446:79,2,233.999992858887,4|0|4,0:0|0:0|0:3,0:0:0:0:
118,75,9471,2,0,P|108:155|128:210,1,116.999996429443,12|0,0:0|0:0,0:0:0:0:
158,259,9932,1,8,0:0:0:0:
306,190,10240,1,8,0:3:0:0:
274,350,10548,6,0,P|344:355|401:323,1,116.999996429443,6|2,0:0|0:0,0:0:0:0:
498,217,11163,2,0,P|444:196|386:203,1,116.999996429443,2|2,0:0|0:0,0:0:0:0:
238,132,11778,1,2,0:0:0:0:
240,124,12086,2,0,P|230:85|213:50,1,58.4999982147217,2|0,0:0|0:0,0:0:0:0:
141,57,12394,2,0,P|112:84|90:116,1,58.4999982147217,2|0,0:0|0:0,0:0:0:0:
119,180,12702,2,0,P|157:190|196:193,1,58.4999982147217,2|8,0:0|0:0,0:0:0:0:
276,229,13009,6,0,P|259:312|254:353,1,116.999996429443,6|2,0:0|0:0,0:0:0:0:
93,376,13625,2,0,P|76:293|71:252,1,116.999996429443,2|2,0:0|0:0,0:0:0:0:
127,106,14240,1,2,0:0:0:0:
132,100,14548,2,0,L|116:34,1,58.4999982147217,8|8,0:3|0:3,0:0:0:0:
211,136,14855,2,0,L|219:68,1,58.4999982147217,8|4,0:3|0:3,0:0:0:0:
283,192,15163,2,0,L|309:128,1,58.4999982147217,4|4,0:3|0:3,0:0:0:0:
309,30,15471,6,0,P|356:33|432:48,1,116.999996429443,6|2,0:0|0:0,0:0:0:0:
493,194,16086,2,0,P|473:276|467:334,1,116.999996429443,2|2,0:0|0:0,0:0:0:0:
316,364,16702,1,4,0:0:0:0:
320,357,17009,2,0,P|312:308|292:281,1,58.4999982147217,2|0,0:0|0:0,0:0:0:0:
175,249,17317,2,0,P|221:266|254:262,1,58.4999982147217,8|8,0:3|0:3,0:0:0:0:
341,188,17625,2,0,P|302:219|289:250,1,58.4999982147217,4|4,0:3|0:3,0:0:0:0:
424,215,17932,6,0,P|425:161|367:104,1,116.999996429443,4|2,0:0|0:0,0:0:0:0:
233,62,18548,2,0,P|185:88|165:166,1,116.999996429443,2|2,0:0|0:0,0:0:0:0:
219,298,19163,1,2,0:0:0:0:
223,305,19471,1,2,0:0:0:0:
227,312,19778,2,0,B|280:301|280:301|342:320|342:320|393:277,1,175.499994644165,2|0,0:0|0:0,0:0:0:0:
412,177,20394,6,0,L|419:125,2,52
203,111,21009,2,0,L|194:51,2,52
84,196,21625,2,0,L|91:144,2,52
196,288,22240,1,0,0:0:0:0:
196,288,22394,1,0,0:0:0:0:
196,288,22548,1,0,0:0:0:0:
320,380,22855,6,0,P|331:293|350:205,1,156,8|0,0:0|0:0,0:0:0:0:
393,164,23471,1,0,0:0:0:0:
342,105,23625,2,0,P|300:77|231:91,1,104,8|0,0:0|0:0,0:0:0:0:
191,143,24086,6,0,B|208:246|208:246|183:317,1,156,8|0,0:0|0:0,0:0:0:0:
118,325,24702,2,0,L|60:315,1,52,0|8,0:0|0:0,0:0:0:0:
24,250,25009,1,0,0:0:0:0:
37,94,25317,6,0,P|85:74|151:84,1,104,8|0,0:0|0:0,0:0:0:0:
264,167,25932,1,0,0:0:0:0:
264,167,26086,2,0,P|312:187|378:177,1,104,8|0,0:0|0:0,0:0:0:0:
425,134,26548,6,0,P|440:192|410:246,1,104,8|8,0:0|0:0,0:0:0:0:
228,359,27317,1,8,0:0:0:0:
228,359,27471,2,0,L|238:286,1,52,0|0,0:0|0:0,0:0:0:0:
194,240,27778,6,0,P|143:245|89:207,1,104,8|8,0:0|0:0,0:0:0:0:
53,155,28240,1,0,0:0:0:0:
53,155,28394,1,0,0:0:0:0:
108,100,28548,2,0,P|159:95|213:133,1,104,8|0,0:0|0:0,0:0:0:0:
269,162,29009,6,0,P|322:153|389:147,2,104,8|0|0,0:0|0:0|0:0,0:0:0:0:
219,222,29778,1,8,0:0:0:0:
346,312,30086,1,0,0:0:0:0:
346,312,30240,5,8,0:0:0:0:
464,209,30548,2,0,P|482:146|485:92,1,104,0|0,0:0|0:0,0:0:0:0:
350,29,31163,2,0,P|286:44|238:69,1,104,8|8,0:0|0:0,0:0:0:0:
246,217,31778,5,0,0:0:0:0:
246,217,31932,1,0,0:0:0:0:
246,217,32086,2,0,P|203:212|174:200,1,52,0|0,0:0|0:0,0:0:0:0:
128,167,32394,1,4,1:0:0:0:
40,319,32702,6,0,P|125:310|176:307,1,116.999996429443,6|10,0:0|0:0,0:0:0:0:
240,332,33163,1,0,0:0:0:0:
240,332,33317,1,2,0:0:0:0:
291,260,33471,2,0,P|329:235|421:247,1,116.999996429443,0|0,0:0|0:0,0:0:0:0:
470,184,33932,6,0,B|489:149|489:149|474:63,1,116.999996429443,2|10,0:0|0:0,0:0:0:0:
397,31,34394,1,0,0:0:0:0:
397,31,34548,2,0,P|327:29|279:64,1,116.999996429443,2|10,0:0|0:0,0:0:0:0:
154,166,35163,6,0,P|138:97|126:29,2,116.999996429443,2|10|2,0:0|0:0|0:0,0:0:0:0:
193,244,35932,1,0,0:0:0:0:
193,244,36086,2,0,P|236:233|274:220,1,58.4999982147217,10|0,0:0|0:0,0:0:0:0:
303,158,36394,6,0,P|356:132|426:148,1,116.999996429443,2|10,0:0|0:0,0:0:0:0:
445,220,36855,2,0,P|434:270|429:301,1,58.4999982147217,0|2,0:0|0:0,0:0:0:0:
359,327,37163,1,0,0:0:0:0:
359,327,37317,2,0,P|364:355|371:384,1,58.4999982147217,10|0,0:0|0:0,0:0:0:0:
287,274,37625,6,0,P|232:269|150:263,1,116.999996429443,2|10,0:0|0:0,0:0:0:0:
95,217,38086,1,0,0:0:0:0:
95,217,38240,2,0,P|78:155|93:103,1,116.999996429443,2|10,0:0|0:0,0:0:0:0:
148,38,38702,1,0,0:0:0:0:
148,38,38855,6,0,P|204:28|283:22,2,116.999996429443,2|10|2,0:0|0:0|0:0,0:0:0:0:
91,105,39625,1,0,0:0:0:0:
91,105,39778,2,0,P|102:162|106:173,1,58.4999982147217,10|0,0:0|0:0,0:0:0:0:
174,213,40086,6,0,P|237:201|290:197,1,116.999996429443,2|10,0:0|0:0,0:0:0:0:
378,199,40548,1,0,0:0:0:0:
378,199,40702,2,0,P|386:132|398:79,1,116.999996429443,2|10,0:0|0:0,0:0:0:0:
222,64,41317,6,0,P|180:76|158:78,1,58.4999982147217,2|0,0:0|0:0,0:0:0:0:
119,156,41625,1,10,0:0:0:0:
119,156,41778,1,0,0:0:0:0:
119,156,41932,2,0,P|130:221|134:281,1,116.999996429443,2|10,0:0|0:0,0:0:0:0:
276,375,42548,6,0,P|329:347|401:358,1,116.999996429443,6|10,0:0|0:0,0:0:0:0:
462,309,43009,1,0,0:0:0:0:
462,309,43163,2,0,P|490:255|478:196,1,116.999996429443,2|14,0:0|0:0,0:0:0:0:
344,91,43778,6,0,P|353:167|363:221,1,116.999996429443,6|10,0:0|0:0,0:0:0:0:
292,263,44240,1,0,0:0:0:0:
292,263,44394,2,0,P|244:246|212:240,1,58.4999982147217,10|0,0:0|0:0,0:0:0:0:
149,260,44702,2,0,P|132:230|122:205,1,58.4999982147217,0|0,0:0|0:0,0:0:0:0:
162,111,45009,5,0,0:0:0:0:
165,104,45317,2,0,P|228:104|292:108,1,116.999996429443,14|2,0:0|0:0,0:0:0:0:
352,173,45778,1,0,0:0:0:0:
352,173,45932,2,0,P|401:162|432:149,1,58.4999982147217,10|0,0:0|0:0,0:0:0:0:
488,121,46240,6,0,P|496:46|511:-12,2,116.999996429443,2|10|2,0:0|0:0|0:0,0:0:0:0:
482,208,47009,1,0,0:0:0:0:
482,208,47163,2,0,P|473:254|471:275,1,58.4999982147217,10|0,0:0|0:0,0:0:0:0:
397,329,47471,5,0,0:0:0:0:
392,336,47778,2,0,P|346:304|267:311,1,116.999996429443,14|2,0:0|0:0,0:0:0:0:
213,337,48240,1,0,0:0:0:0:
213,337,48394,2,0,P|165:327|142:317,1,58.4999982147217,10|0,0:0|0:0,0:0:0:0:
89,265,48702,6,0,P|76:207|56:142,2,116.999996429443,2|10|2,0:0|0:0|0:0,0:0:0:0:
164,219,49471,1,0,0:0:0:0:
164,219,49625,2,0,P|210:206|239:201,1,58.4999982147217,0|0,0:0|0:0,0:0:0:0:
285,144,49932,6,0,P|325:154|359:160,1,58.4999982147217,0|0,0:0|0:0,0:0:0:0:
419,115,50240,1,14,0:0:0:0:
497,272,50548,2,0,P|457:282|423:288,1,58.4999982147217,0|0,0:0|0:0,0:0:0:0:
363,243,50856,1,14,0:0:0:0:
232,359,51163,6,0,P|227:325|219:294,1,58.4999982147217,0|0,0:0|0:0,0:0:0:0:
197,216,51471,1,14,0:0:0:0:
35,283,51778,2,0,P|40:249|48:218,1,58.4999982147217,0|0,0:0|0:0,0:0:0:0:
70,140,52086,1,14,0:0:0:0:
233,74,52394,6,0,P|291:75|367:84,1,116.999996429443,14|10,0:0|0:0,0:0:0:0:
428,119,52855,2,0,P|447:191|427:236,1,116.999996429443,0|0,0:0|0:0,0:0:0:0:
365,285,53317,2,0,P|308:268|286:266,1,58.4999982147217,10|0,0:0|0:0,0:0:0:0:
231,309,53625,6,0,P|158:309|123:276,1,116.999996429443,2|10,0:0|0:0,0:0:0:0:
123,194,54086,1,0,0:0:0:0:
123,194,54240,2,0,P|136:157|146:127,1,58.4999982147217,2|8,0:0|0:0,0:0:0:0:
225,108,54548,2,0,P|262:121|292:131,1,58.4999982147217,8|8,0:0|0:0,0:0:0:0:
353,193,54855,5,0,0:0:0:0:
359,199,55163,2,0,P|427:209|481:165,1,116.999996429443,4|2,0:0|0:0,0:0:0:0:
505,103,55625,1,0,0:0:0:0:
505,103,55778,2,0,P|460:73|432:63,1,58.4999982147217,10|0,0:0|0:0,0:0:0:0:
373,39,56086,2,0,P|311:47|246:51,2,116.999996429443,2|10|2,0:0|0:0|0:0,0:0:0:0:
394,124,56855,1,0,0:0:0:0:
394,124,57009,2,0,P|386:170|386:196,1,58.4999982147217,2|0,0:0|0:0,0:0:0:0:
310,264,57317,5,0,0:0:0:0:
307,272,57625,2,0,P|245:265|183:290,1,116.999996429443,14|2,0:0|0:0,0:0:0:0:
125,336,58086,1,0,0:0:0:0:
125,336,58240,2,0,P|81:317|54:300,1,58.4999982147217,10|0,0:0|0:0,0:0:0:0:
27,235,58548,2,0,P|36:181|7:114,2,116.999996429443,2|10|2,0:0|0:0|0:0,0:0:0:0:
119,233,59317,1,0,0:0:0:0:
119,233,59471,2,0,P|161:223|199:205,1,58.4999982147217,0|0,0:0|0:0,0:0:0:0:
244,163,59778,6,0,P|312:167|325:170,1,58.4999982147217,0|0,0:0|0:0,0:0:0:0:
381,203,60086,1,14,0:0:0:0:
490,340,60394,2,0,P|422:344|409:347,1,58.4999982147217,0|0,0:0|0:0,0:0:0:0:
353,380,60702,1,14,0:0:0:0:
196,302,61009,6,0,L|181:220,1,58.4999982147217,0|0,0:0|0:0,0:0:0:0:
213,160,61317,1,14,0:0:0:0:
365,73,61625,2,0,L|380:155,1,58.4999982147217,0|0,0:0|0:0,0:0:0:0:
348,215,61933,1,14,0:0:0:0:
352,222,62240,6,0,P|336:304|330:351,1,116.999996429443,14|0,0:0|0:0,0:0:0:0:
245,364,62702,2,0,P|196:375|119:335,1,116.999996429443,14|0,0:0|0:0,0:0:0:0:
74,288,63163,1,12,0:0:0:0:
74,288,63317,2,0,P|87:240|94:210,1,58.4999982147217,0|0,0:0|0:0,0:0:0:0:
120,148,63625,6,0,P|182:128|243:141,1,116.999996429443,12|0,0:0|0:0,0:0:0:0:
288,203,64086,2,0,P|340:216|369:217,1,58.4999982147217,12|0,0:0|0:0,0:0:0:0:
421,172,64394,2,0,P|434:120|435:91,1,58.4999982147217,12|0,0:0|0:0,0:0:0:0:
381,44,64702,6,0,P|314:33|266:60,1,116.999996429443,8|8,0:0|0:0,0:0:0:0:
232,136,65163,1,8,0:0:0:0:
232,136,65317,2,0,P|193:130|160:120,1,58.4999982147217,8|8,0:0|0:0,0:0:0:0:
99,78,65625,1,8,0:0:0:0:
99,78,65778,1,8,0:0:0:0:
40,143,65932,5,8,0:0:0:0:
105,306,66240,2,0,P|155:281|215:277,1,116.999996429443,0|0,0:0|0:0,0:0:0:0:
291,321,66702,1,0,0:0:0:0:
291,321,66855,1,2,0:0:0:0:
457,218,67163,6,0,P|407:193|322:186,1,130,4|8,0:0|0:0,0:0:0:0:
238,209,67625,1,0,0:0:0:0:
238,209,67778,2,0,P|219:160|213:136,1,65,0|0,0:0|0:0,0:0:0:0:
147,77,68086,2,0,P|128:126|122:150,1,65,8|0,0:0|0:0,0:0:0:0:
90,230,68394,6,0,P|118:307|136:379,1,130,0|8,0:0|0:0,0:0:0:0:
227,364,68855,1,0,0:0:0:0:
227,364,69009,2,0,P|278:341|316:337,1,65,0|0,0:0|0:0,0:0:0:0:
383,322,69317,1,8,0:0:0:0:
388,330,69625,6,0,P|439:321|509:360,2,130,0|8|0,0:0|0:0|0:0,0:0:0:0:
302,266,70394,2,0,P|312:223|327:188,1,65,0|8,0:0|0:0,0:0:0:0:
372,121,70702,1,0,0:0:0:0:
372,121,70855,6,0,P|317:80|247:91,1,130,0|8,0:0|0:0,0:0:0:0:
178,142,71317,2,0,P|133:157|95:161,1,65,0|0,0:0|0:0,0:0:0:0:
21,131,71625,1,0,0:0:0:0:
21,131,71778,2,0,P|6:192|6:199,1,65,8|0,0:0|0:0,0:0:0:0:
73,265,72086,6,0,P|138:272|197:230,1,130,0|8,0:0|0:0,0:0:0:0:
266,176,72548,1,0,0:0:0:0:
266,176,72702,2,0,P|320:142|383:149,1,130,0|8,0:0|0:0,0:0:0:0:
479,319,73317,6,0,P|408:300|336:290,1,130,0|8,0:0|0:0,0:0:0:0:
257,316,73778,1,0,0:0:0:0:
257,316,73932,2,0,P|202:295|172:278,1,65,0|0,0:0|0:0,0:0:0:0:
116,235,74240,1,8,0:0:0:0:
116,235,74394,1,0,0:0:0:0:
186,167,74548,6,0,P|217:131|236:98,1,65,0|0,0:0|0:0,0:0:0:0:
291,43,74855,2,0,P|331:45|357:52,1,65,8|0,0:0|0:0,0:0:0:0:
429,115,75163,2,0,P|405:189|399:245,1,130,0|0,0:0|0:0,0:0:0:0:
411,338,75625,2,0,L|429:389,2,32.5,0|0|0,0:0|0:0|0:0,0:0:0:0:
261,232,76086,5,12,0:0:0:0:
261,232,76240,1,0,0:0:0:0:
196,304,76394,2,0,P|136:308|67:266,1,130,0|8,0:0|0:0,0:0:0:0:
10,203,76855,1,8,0:0:0:0:
81,123,77009,6,0,P|180:107|214:102,1,130,12|8,0:0|0:0,0:0:0:0:
285,40,77471,1,0,0:0:0:0:
285,40,77625,2,0,P|329:51|359:53,1,65,0|0,0:0|0:0,0:0:0:0:
445,38,77932,2,0,P|456:82|458:112,1,65,8|0,0:0|0:0,0:0:0:0:
399,180,78240,6,0,P|330:166|264:218,1,130,0|8,0:0|0:0,0:0:0:0:
219,270,78702,1,0,0:0:0:0:
219,270,78855,2,0,P|172:250|139:244,1,65,0|0,0:0|0:0,0:0:0:0:
61,262,79163,1,8,0:0:0:0:
55,256,79471,6,0,P|45:178|30:123,2,130,0|8|0,0:0|0:0|0:0,0:0:0:0:
116,331,80240,2,0,P|158:344|201:350,1,65,0|8,0:0|0:0,0:0:0:0:
274,367,80548,1,0,0:0:0:0:
274,367,80702,6,0,P|293:278|307:237,1,130,0|8,0:0|0:0,0:0:0:0:
397,207,81163,2,0,P|433:182|451:160,1,65,0|0,0:0|0:0,0:0:0:0:
394,88,81471,1,0,0:0:0:0:
394,88,81625,2,0,P|371:64|339:45,1,65,8|0,0:0|0:0,0:0:0:0:
249,69,81932,6,0,P|198:77|104:88,1,130,12|8,0:0|0:0,0:0:0:0:
47,152,82394,1,0,0:0:0:0:
47,152,82548,2,0,P|34:210|64:274,1,130,0|8,0:0|0:0,0:0:0:0:
239,354,83163,6,0,P|259:235|264:201,1,130,0|8,0:0|0:0,0:0:0:0:
302,137,83625,1,0,0:0:0:0:
302,137,83778,2,0,P|365:126|396:120,1,65,0|0,0:0|0:0,0:0:0:0:
456,163,84086,1,8,0:0:0:0:
456,163,84240,1,0,0:0:0:0:
412,250,84394,6,0,P|394:302|387:324,1,65,0|0,0:0|0:0,0:0:0:0:
303,359,84702,2,0,P|261:354|225:353,1,65,8|0,0:0|0:0,0:0:0:0:
154,303,85009,2,0,P|135:261|163:183,1,130,0|0,0:0|0:0,0:0:0:0:
242,130,85471,2,0,L|231:80,2,32.5,0|0|0,0:0|0:0|0:0,0:0:0:0:
362,288,85932,5,12,0:0:0:0:
362,288,86086,1,0,0:0:0:0:
424,213,86240,2,0,P|435:170|448:83,1,130,0|0,0:0|0:0,0:0:0:0:
387,7,86702,1,0,0:0:0:0:
331,91,86855,5,12,0:0:0:0:
165,31,87163,2,0,P|124:46|96:55,1,58.4999982147217,8|0,0:0|0:0,0:0:0:0:
52,118,87471,1,0,0:0:0:0:
52,118,87625,1,0,0:0:0:0:
69,203,87778,2,0,P|80:240|97:272,1,58.4999982147217,8|0,0:0|0:0,0:0:0:0:
169,294,88086,6,0,P|234:269|285:282,1,116.999996429443,0|8,0:0|0:0,0:0:0:0:
352,327,88548,1,0,0:0:0:0:
352,327,88702,2,0,P|390:310|415:291,1,58.4999982147217,0|0,0:0|0:0,0:0:0:0:
449,225,89009,1,8,0:0:0:0:
355,76,89317,6,0,P|343:128|340:150,1,58.4999982147217,0|0,0:0|0:0,0:0:0:0:
315,217,89625,2,0,P|260:242|194:222,1,116.999996429443,8|0,0:0|0:0,0:0:0:0:
136,177,90086,1,0,0:0:0:0:
136,177,90240,2,0,P|129:143|117:104,1,58.4999982147217,8|0,0:0|0:0,0:0:0:0:
179,52,90548,6,0,P|228:41|299:79,1,116.999996429443,0|8,0:0|0:0,0:0:0:0:
348,130,91009,2,0,P|391:122|413:115,1,58.4999982147217,0|8,0:0|0:0,0:0:0:0:
485,153,91317,1,12,0:0:0:0:
485,153,91471,2,0,P|476:199|472:225,1,58.4999982147217,0|0,0:0|0:0,0:0:0:0:
416,276,91778,6,0,P|362:265|291:313,1,116.999996429443,12|8,0:0|0:0,0:0:0:0:
242,231,92240,2,0,B|224:198|224:198|242:110,1,116.999996429443,0|0,0:0|0:0,0:0:0:0:
192,45,92702,1,8,0:0:0:0:
52,150,93009,6,0,P|65:214|73:273,1,116.999996429443,0|8,0:0|0:0,0:0:0:0:
131,330,93471,2,0,P|188:342|249:297,1,116.999996429443,0|0,0:0|0:0,0:0:0:0:
297,250,93932,1,8,0:0:0:0:
234,87,94240,6,0,P|283:94|368:100,1,116.999996429443,12|8,0:0|0:0,0:0:0:0:
423,148,94702,2,0,P|436:203|412:271,1,116.999996429443,0|0,0:0|0:0,0:0:0:0:
370,332,95163,1,8,0:0:0:0:
195,352,95471,6,0,P|199:296|223:215,1,116.999996429443,0|8,0:0|0:0,0:0:0:0:
246,155,95932,2,0,P|201:124|124:142,1,116.999996429443,0|0,0:0|0:0,0:0:0:0:
70,183,96394,1,8,0:0:0:0:
70,183,96548,1,0,0:0:0:0:
85,269,96702,6,0,P|144:285|212:296,1,116.999996429443,4|0,0:0|0:0,0:0:0:0:
269,241,97163,1,0,0:0:0:0:
269,241,97317,2,0,P|310:231|406:223,1,116.999996429443,0|0,0:0|0:0,0:0:0:0:
464,66,97932,6,0,P|411:60|346:97,1,116.999996429443,0|0,0:0|0:0,0:0:0:0:
283,139,98394,1,0,0:0:0:0:
283,139,98548,2,0,P|236:132|201:121,1,58.4999982147217,0|0,0:0|0:0,0:0:0:0:
160,70,98855,2,0,P|143:117|154:173,1,87.7499973220826,0|0,0:0|0:0,0:0:0:0:
157,196,99163,6,0,P|169:266|177:335,1,116.999996429443,12|8,0:0|0:0,0:0:0:0:
251,356,99625,1,8,0:0:0:0:
251,356,99778,2,0,P|295:336|328:330,1,58.4999982147217,8|8,0:0|0:0,0:0:0:0:
390,355,100086,1,8,0:0:0:0:
390,355,100240,1,8,0:0:0:0:
450,291,100380,5,12,0:0:0:0:
322,40,101610,6,0,L|334:168,1,116.999996429443,6|2,0:0|0:0,0:0:0:0:
273,222,102072,1,0,0:0:0:0:
273,222,102226,2,0,P|212:232|150:192,1,116.999996429443,2|2,0:0|0:0,0:0:0:0:
96,152,102687,1,0,0:0:0:0:
148,81,102841,6,0,P|189:66|225:56,1,58.4999982147217,0|0,0:0|0:0,0:0:0:0:
287,36,103149,2,0,P|351:47|430:48,2,116.999996429443,2|2|2,0:0|0:0|0:0,0:0:0:0:
267,121,103918,1,0,0:0:0:0:
267,121,104072,6,0,P|254:198|286:252,1,116.999996429443,6|2,0:0|0:0,0:0:0:0:
425,310,104687,2,0,P|452:320|480:328,2,58.4999982147217,2|0|2,0:0|0:0|0:0,0:0:0:0:
412,222,105148,1,0,0:0:0:0:
412,222,105303,6,0,P|374:212|339:209,1,58.4999982147217,0|0,0:0|0:0,0:0:0:0:
268,231,105610,2,0,P|217:249|142:243,2,116.999996429443,2|0|2,0:0|0:0|0:0,0:0:0:0:
296,147,106380,1,0,0:0:0:0:
296,147,106533,6,0,P|302:97|324:20,1,116.999996429443,6|2,0:0|0:0,0:0:0:0:
456,143,107149,2,0,P|483:98|491:86,2,58.4999982147217,2|0|2,0:0|0:0|0:0,0:0:0:0:
458,230,107610,1,0,0:0:0:0:
458,230,107764,2,0,P|416:238|376:250,1,58.4999982147217,0|0,0:0|0:0,0:0:0:0:
349,314,108072,6,0,P|281:314|233:360,1,116.999996429443,2|2,0:0|0:0,0:0:0:0:
172,290,108533,1,4,0:0:0:0:
172,290,108687,2,0,P|157:253|149:221,1,58.4999982147217,0|0,0:0|0:0,0:0:0:0:
185,153,108995,6,0,P|205:97|179:32,1,116.999996429443,2|2,0:0|0:0,0:0:0:0:
45,146,109610,2,0,P|56:195|59:223,1,58.4999982147217,2|0,0:0|0:0,0:0:0:0:
45,290,109918,1,2,0:0:0:0:
205,219,110226,6,0,P|255:197|330:218,1,116.999996429443,2|2,0:0|0:0,0:0:0:0:
444,326,110841,2,0,P|457:286|465:263,1,58.4999982147217,2|0,0:0|0:0,0:0:0:0:
410,198,111149,2,0,P|400:170|391:142,1,58.4999982147217,2|0,0:0|0:0,0:0:0:0:
408,56,111456,6,0,P|342:31|283:49,1,116.999996429443,6|2,0:0|0:0,0:0:0:0:
172,163,112072,1,2,0:0:0:0:
172,163,112226,2,0,P|179:218|191:284,1,116.999996429443,0|0,0:0|0:0,0:0:0:0:
261,328,112687,6,0,P|307:313|330:311,1,58.4999982147217,0|0,0:0|0:0,0:0:0:0:
376,246,112995,2,0,P|392:178|369:119,1,116.999996429443,2|2,0:0|0:0,0:0:0:0:
332,59,113456,1,4,0:0:0:0:
332,59,113610,2,0,P|284:69|254:68,1,58.4999982147217,0|0,0:0|0:0,0:0:0:0:
194,31,113918,6,0,P|126:23|74:56,2,116.999996429443,2|2|2,0:0|0:0|0:0,0:0:0:0:
208,117,114687,1,0,0:0:0:0:
208,117,114841,2,0,P|191:161|181:195,1,58.4999982147217,0|0,0:0|0:0,0:0:0:0:
194,259,115149,2,0,P|179:295|163:323,1,58.4999982147217,2|0,0:0|0:0,0:0:0:0:
99,364,115456,6,0,P|88:318|57:232,2,116.999996429443,2|2|2,0:0|0:0|0:0,0:0:0:0:
267,313,116380,6,0,P|319:300|386:300,1,116.999996429443,2|2,0:0|0:0,0:0:0:0:
453,139,116995,2,0,P|465:105|477:72,2,58.4999982147217,2|0|2,0:0|0:0|0:0,0:0:0:0:
392,202,117456,1,0,0:0:0:0:
392,202,117610,2,0,P|346:187|309:180,1,58.4999982147217,2|0,0:0|0:0,0:0:0:0:
251,209,117918,6,0,P|205:226|134:216,2,116.999996429443,2|2|2,0:0|0:0|0:0,0:0:0:0:
269,123,118687,1,0,0:0:0:0:
269,123,118841,6,0,P|315:106|386:116,1,116.999996429443,2|0,0:0|0:0,0:0:0:0:
475,262,119456,2,0,P|459:314|456:329,1,58.4999982147217,2|0,0:0|0:0,0:0:0:0:
371,335,119764,2,0,P|340:328|293:303,1,58.4999982147217,2|0,0:0|0:0,0:0:0:0:
276,237,120072,6,0,P|232:211|157:222,1,116.999996429443,0|0,0:0|0:0,0:0:0:0:
92,261,120533,1,0,0:0:0:0:
92,261,120687,2,0,P|74:228|63:202,1,58.4999982147217,8|8,0:0|0:0,0:0:0:0:
102,128,120995,2,0,P|120:85|126:64,1,58.4999982147217,8|8,0:0|0:0,0:0:0:0:
48,26,121303,5,12,0:0:0:0:
256,192,121380,12,0,129918,0:0:0:0:
