osu file format v14

[General]
AudioFilename: audio.mp3
AudioLeadIn: 0
PreviewTime: 66086
Countdown: 0
SampleSet: Soft
StackLeniency: 0.7
Mode: 0
LetterboxInBreaks: 0
WidescreenStoryboard: 0

[Editor]
Bookmarks: 129855
DistanceSpacing: 1
BeatDivisor: 4
GridSize: 4
TimelineZoom: 1.7

[Metadata]
Title:STAR BEAT!~Hoshi no Kodou~
TitleUnicode:STAR BEAT!~ホシノコドウ~
Artist:Poppin'Party
ArtistUnicode:Poppin'Party
Creator:[ L u k a s ]
Version:NormaL!
Source:BanG Dream!
Tags:Firis_Mistlud Suzuki_1112 Gaia kawaiwkyik Rizia Lukas Asuka_- joker- kurantemelodii
BeatmapID:1378624
BeatmapSetID:650607

[Difficulty]
HPDrainRate:3
CircleSize:3
OverallDifficulty:6
ApproachRate:5
SliderMultiplier:0.999999999999999
SliderTickRate:1

[Events]
//Background and Video events
0,0,"sta beet.jpg",0,0
//Break Periods
//Storyboard Layer 0 (Background)
//Storyboard Layer 1 (Fail)
//Storyboard Layer 2 (Pass)
//Storyboard Layer 3 (Foreground)
//Storyboard Sound Samples

[TimingPoints]
702,307.692307692308,4,2,1,60,1,0
22855,-117.647058823529,4,2,5,40,0,0
23471,-117.647058823529,4,2,1,5,0,0
23625,-117.647058823529,4,2,5,40,0,0
24086,-117.647058823529,4,2,6,40,0,0
24702,-117.647058823529,4,2,1,5,0,0
24855,-117.647058823529,4,2,6,40,0,0
25317,-117.647058823529,4,2,11,40,0,0
25933,-117.647058823529,4,2,1,5,0,0
26087,-117.647058823529,4,2,11,40,0,0
26855,-117.647058823529,4,2,8,40,0,0
27009,-117.647058823529,4,2,9,40,0,0
27317,-117.647058823529,4,2,11,40,0,0
27778,-117.647058823529,4,2,5,40,0,0
28009,-117.647058823529,4,2,5,5,0,0
28086,-117.647058823529,4,2,10,40,0,0
28394,-117.647058823529,4,2,10,5,0,0
28548,-117.647058823529,4,2,5,40,0,0
29009,-117.647058823529,4,2,6,40,0,0
29240,-117.647058823529,4,2,6,5,0,0
29317,-117.647058823529,4,2,6,40,0,0
29625,-117.647058823529,4,2,6,5,0,0
29778,-117.647058823529,4,2,6,40,0,0
30240,-117.647058823529,4,2,11,40,0,0
31471,-117.647058823529,4,2,8,40,0,0
32317,-117.647058823529,4,1,11,40,0,0
32702,-100,4,2,1,50,0,0
45009,-100,4,2,1,30,0,0
45317,-100,4,2,1,50,0,0
47471,-100,4,2,1,30,0,0
47778,-100,4,2,1,50,0,0
54855,-100,4,2,1,30,0,0
55163,-100,4,2,1,50,0,0
57317,-100,4,2,1,30,0,0
57625,-100,4,2,1,50,0,0
62240,-100,4,2,1,60,0,0
65163,-100,4,2,1,65,0,0
65317,-100,4,2,1,70,0,0
65471,-100,4,2,1,75,0,0
65625,-100,4,2,1,80,0,0
65778,-100,4,2,1,85,0,0
65932,-100,4,2,1,40,0,0
66778,-100,4,2,1,5,0,0
66855,-100,4,2,1,100,0,0
67163,-83.3333333333333,4,2,1,100,0,1
86855,-100,4,2,1,60,0,0
99163,-100,4,2,1,75,0,0
100380,307.692307692308,4,2,1,40,1,0
120687,-133.333333333333,4,2,1,70,0,0
121303,-133.333333333333,4,2,1,60,0,0
129841,-133.333333333333,4,2,1,5,0,0

[Colours]
Combo1 : 128,0,128
Combo2 : 240,152,0
Combo3 : 255,0,0
Combo4 : 255,255,0
Combo5 : 255,128,192
Combo6 : 255,0,128

[HitObjects]
100,192,702,6,0,P|56:108|184:184,1,400,4|0,0:0|0:0,0:0:0:0:
76,330,3163,6,0,B|227:196|249:452|442:287,1,400,4|0,0:0|0:0,0:0:0:0:
143,18,5625,6,0,B|107:86|107:86|146:339|146:339|79:298,1,400,4|0,0:0|0:0,0:0:0:0:
17,117,7471,1,8,0:0:0:0:
186,222,8086,6,0,B|288:197|347:236|391:266|478:206|478:206|427:204|386:178|386:178,1,400,4|4,0:0|0:3,0:0:0:0:
341,136,9471,1,12,0:0:0:0:
246,19,9932,2,0,P|178:7|142:11,1,99.9999999999999,8|8,0:0|0:3,0:0:0:0:
110,103,10548,6,0,L|118:307,1,200,6|2,0:0|0:0,0:0:0:0:
308,361,11778,2,0,L|315:161,1,200,2|2,0:0|0:0,0:0:0:0:
331,64,12702,1,2,0:0:0:0:
245,116,13009,6,0,P|165:148|41:128,1,200,6|2,0:0|0:0,0:0:0:0:
58,334,14240,2,0,L|170:314,1,99.9999999999999,2|8,0:0|0:3,0:0:0:0:
225,243,14855,2,0,L|337:263,1,99.9999999999999,8|4,0:3|0:3,0:0:0:0:
416,298,15471,6,0,P|436:182|412:82,1,200,6|2,0:0|0:0,0:0:0:0:
233,30,16702,2,0,P|181:22|121:42,1,99.9999999999999,4|2,0:0|0:0,0:0:0:0:
89,122,17317,2,0,P|137:133|186:125,1,99.9999999999999,8|4,0:3|0:3,0:0:0:0:
286,117,17932,6,0,B|306:221|306:221|294:317,1,200,4|2,0:0|0:0,0:0:0:0:
94,324,19163,2,0,B|82:230|82:230|102:126,1,200,2|2,0:0|0:0,0:0:0:0:
264,9,20394,5,0,0:0:0:0:
370,308,22855,6,0,L|146:328,1,212.500004053116,8|0,0:0|0:0,0:0:0:0:
89,219,24086,2,0,L|316:196,1,212.500004053116,8|0,0:0|0:0,0:0:0:0:
416,249,25317,6,0,P|387:171|463:64,1,212.500004053116,8|0,0:0|0:0,0:0:0:0:
326,44,26548,2,0,P|248:73|175:31,1,170.000003242493,8|0,0:0|0:0,0:0:0:0:
92,22,27471,1,0,0:0:0:0:
62,101,27778,6,0,L|80:331,1,212.500004053116,8|0,0:0|0:0,0:0:0:0:
200,350,29009,2,0,L|210:131,1,212.500004053116,8|0,0:0|0:0,0:0:0:0:
162,18,30240,6,0,L|255:10,1,85.0000016212463,8|0,0:0|0:0,0:0:0:0:
331,7,30855,2,0,L|422:17,1,85.0000016212463,0|8,0:0|0:0,0:0:0:0:
488,169,31778,2,0,P|505:212|500:266,1,85.0000016212463
439,314,32394,1,4,1:0:0:0:
361,353,32702,6,0,L|200:366,1,150,6|0,0:0|0:0,0:0:0:0:
161,357,33317,2,0,P|141:304|150:246,1,99.9999999999999
214,190,33932,2,0,P|234:137|225:79,1,99.9999999999999
201,53,34394,1,0,0:0:0:0:
201,53,34548,2,0,L|315:35,1,99.9999999999999
384,90,35163,6,0,L|395:211,2,99.9999999999999
479,120,36086,1,10,0:0:0:0:
480,220,36394,2,0,P|377:221|334:306,1,200,2|2,0:0|0:0,0:0:0:0:
243,340,37317,1,0,0:0:0:0:
144,358,37625,6,0,B|134:252,1,99.9999999999999,2|2,0:0|0:0,0:0:0:0:
128,208,38086,1,0,0:0:0:0:
128,208,38240,2,0,P|183:228|238:213,1,99.9999999999999
278,138,38855,2,0,P|354:118|387:132,2,99.9999999999999,2|2|0,0:0|0:0|0:0,0:0:0:0:
346,210,39778,1,0,0:0:0:0:
441,180,40086,5,2,0:0:0:0:
496,96,40394,2,0,P|500:44|478:0,2,99.9999999999999
441,180,41317,2,0,P|364:121|251:152,1,200,2|2,0:0|0:0,0:0:0:0:
192,203,42240,1,10,0:0:0:0:
119,272,42548,6,0,B|142:210|142:210|111:78,1,200,6|2,0:0|0:0,0:0:0:0:
30,20,43471,2,0,P|95:55|217:21,1,200
311,10,44394,2,0,L|317:117,1,99.9999999999999
321,159,44855,1,0,0:0:0:0:
321,159,45009,5,0,0:0:0:0:
301,257,45317,2,0,L|511:269,1,200,14|10,0:0|0:0,0:0:0:0:
467,173,46240,2,0,P|477:141|473:58,1,99.9999999999999,2|10,0:0|0:0,0:0:0:0:
378,94,46855,2,0,P|354:59|298:35,1,99.9999999999999,2|10,0:0|0:0,0:0:0:0:
203,50,47471,5,0,0:0:0:0:
126,114,47778,2,0,L|118:323,1,200,14|10,0:0|0:0,0:0:0:0:
210,353,48702,2,0,P|277:317|390:377,1,200,2|10,0:0|0:0,0:0:0:0:
458,152,49932,6,0,P|422:128|359:127,1,99.9999999999999,0|4,0:0|0:0,0:0:0:0:
282,179,50548,2,0,P|246:203|183:204,1,99.9999999999999,0|4,0:0|0:0,0:0:0:0:
110,146,51163,2,0,L|97:251,1,99.9999999999999,0|8,0:0|0:0,0:0:0:0:
89,344,51778,2,0,L|186:302,1,99.9999999999999,0|8,0:0|0:0,0:0:0:0:
278,329,52394,6,0,B|304:270|304:270|285:136,1,200,14|2,0:0|0:0,0:0:0:0:
274,36,53317,1,10,0:0:0:0:
179,69,53625,2,0,P|64:109|73:166,1,200,2|2,0:0|0:0,0:0:0:0:
192,322,54855,5,0,0:0:0:0:
287,353,55163,2,0,L|488:338,1,200,4|10,0:0|0:0,0:0:0:0:
478,238,56086,2,0,P|504:161|501:127,1,99.9999999999999,2|10,0:0|0:0,0:0:0:0:
457,53,56702,2,0,P|380:27|346:30,1,99.9999999999999,2|2,0:0|0:0,0:0:0:0:
262,30,57317,5,0,0:0:0:0:
309,117,57625,2,0,P|297:188|184:224,1,200,14|10,0:0|0:0,0:0:0:0:
91,193,58548,2,0,P|109:254|109:300,1,99.9999999999999,2|10,0:0|0:0,0:0:0:0:
158,377,59163,2,0,P|201:330|241:307,1,99.9999999999999,2|10,0:0|0:0,0:0:0:0:
331,318,59778,6,0,P|409:336|448:335,1,99.9999999999999,0|14,0:0|0:0,0:0:0:0:
459,240,60394,2,0,P|381:222|342:223,1,99.9999999999999,0|14,0:0|0:0,0:0:0:0:
264,225,61009,2,0,P|261:175|237:132,1,99.9999999999999,0|14,0:0|0:0,0:0:0:0:
185,45,61625,2,0,L|133:48,1,50
101,84,61932,2,0,L|49:81,1,50,4|0,0:0|0:0,0:0:0:0:
0,80,62240,5,14,0:0:0:0:
256,192,62317,12,0,64394,0:0:0:0:
256,192,64702,12,8,65932,0:0:0:0:
85,340,67163,6,0,L|76:203,1,119.999996337891,4|8,0:0|0:0,0:0:0:0:
72,160,67625,2,0,P|112:171|187:136,1,119.999996337891
211,89,68086,1,8,0:0:0:0:
329,106,68394,2,0,P|350:168|338:240,1,119.999996337891,0|8,0:0|0:0,0:0:0:0:
312,272,68855,1,0,0:0:0:0:
312,272,69009,2,0,L|245:282,1,59.9999981689453
225,334,69317,2,0,L|158:324,1,59.9999981689453,8|0,0:0|0:0,0:0:0:0:
105,323,69625,5,0,0:0:0:0:
27,232,69932,1,8,0:0:0:0:
80,124,70240,1,0,0:0:0:0:
80,124,70394,2,0,L|212:108,1,119.999996337891
256,90,70855,2,0,B|246:157|246:157|269:275,1,179.999994506836
383,298,71625,2,0,L|388:216,2,59.9999981689453,0|8|0,0:0|0:0|0:0,0:0:0:0:
356,351,72086,6,0,L|219:357,1,119.999996337891,0|8,0:0|0:0,0:0:0:0:
175,356,72548,1,0,0:0:0:0:
175,356,72702,2,0,P|184:314|162:239,1,119.999996337891,0|8,0:0|0:0,0:0:0:0:
91,145,73317,2,0,P|69:79|81:10,2,119.999996337891,0|8|0,0:0|0:0|0:0,0:0:0:0:
150,148,74086,2,0,L|345:127,1,179.999994506836
369,241,74855,6,0,L|293:250,2,59.9999981689453,8|0|0,0:0|0:0|0:0,0:0:0:0:
326,353,75471,2,0,L|203:346,1,119.999996337891,8|0,0:0|0:0,0:0:0:0:
182,228,76086,2,0,L|173:152,2,59.9999981689453,12|0|0,0:0|0:0|0:0,0:0:0:0:
114,327,76702,1,8,0:0:0:0:
29,242,77010,6,0,L|8:63,1,179.999994506836,4|0,0:0|0:0,0:0:0:0:
43,14,77625,2,0,P|95:-12|151:4,1,119.999996337891,0|8,0:0|0:0,0:0:0:0:
267,35,78241,2,0,P|286:91|282:150,1,119.999996337891,0|8,0:0|0:0,0:0:0:0:
255,204,78702,1,0,0:0:0:0:
255,204,78856,2,0,L|196:213,1,59.9999981689453
154,257,79163,2,0,L|95:249,1,59.9999981689453,8|0,0:0|0:0,0:0:0:0:
34,236,79472,5,0,0:0:0:0:
77,124,79779,1,8,0:0:0:0:
194,147,80086,2,0,L|313:153,1,119.999996337891,0|8,0:0|0:0,0:0:0:0:
373,163,80548,2,0,P|327:236|362:315,1,179.999994506836,0|8,0:0|0:0,0:0:0:0:
188,362,81471,2,0,L|128:358,2,59.9999981689453,0|8|0,0:0|0:0|0:0,0:0:0:0:
214,307,81933,6,12,L|191:190,1,119.999996337891,12|8,0:0|0:0,0:0:0:0:
183,129,82395,1,0,0:0:0:0:
183,129,82549,2,0,P|238:109|297:117,1,119.999996337891,0|8,0:0|0:0,0:0:0:0:
411,80,83163,2,0,P|407:139|428:195,2,119.999996337891,0|8|0,0:0|0:0|0:0,0:0:0:0:
421,20,83933,2,0,L|239:18,1,179.999994506836
123,45,84702,6,0,L|135:103,2,59.9999981689453,8|0|0,0:0|0:0|0:0,0:0:0:0:
231,96,85317,2,0,L|228:215,1,119.999996337891
340,259,85932,2,0,L|416:250,2,59.9999981689453,4|0|0,0:0|0:0|0:0,0:0:0:0:
237,323,86549,1,0,0:0:0:0:
150,273,86855,6,0,L|130:174,1,99.9999999999999,12|8,0:0|0:0,0:0:0:0:
126,124,87317,1,0,0:0:0:0:
126,124,87471,2,0,L|249:124,1,99.9999999999999,0|8,0:0|0:0,0:0:0:0:
323,147,88086,2,0,P|314:87|319:46,1,99.9999999999999,0|8,0:0|0:0,0:0:0:0:
413,80,88702,2,0,P|417:129|408:178,1,99.9999999999999,0|8,0:0|0:0,0:0:0:0:
388,276,89317,6,0,L|276:257,1,99.9999999999999,0|8,0:0|0:0,0:0:0:0:
202,209,89932,2,0,L|90:228,1,99.9999999999999,0|8,0:0|0:0,0:0:0:0:
31,156,90548,2,0,L|238:119,1,200,0|8,0:0|0:0,0:0:0:0:
322,88,91471,1,0,0:0:0:0:
418,111,91778,6,0,B|453:184|415:205|377:229|420:311,1,200,12|0,0:0|0:0,0:0:0:0:
352,379,92702,1,8,0:0:0:0:
278,311,93009,2,0,P|207:277|100:318,1,200
14,137,94240,2,0,B|40:84|27:-7|27:-7|76:19|98:13,1,200,12|0,0:0|0:0,0:0:0:0:
173,37,95163,1,8,0:0:0:0:
219,125,95471,2,0,P|297:95|411:121,1,200
479,188,96394,1,0,0:0:0:0:
423,271,96702,6,0,P|356:295|279:266,2,150
351,201,97932,2,0,L|365:372,2,150
314,107,99163,6,0,P|267:92|222:112,1,99.9999999999999,12|8,0:0|0:0,0:0:0:0:
183,144,99625,1,8,0:0:0:0:
183,144,99778,2,8,L|185:198,1,50
223,225,100086,2,8,L|221:279,1,50
219,320,100380,1,8,0:0:0:0:
120,92,101610,6,0,L|128:296,2,200,6|2|0,0:0|0:0|0:0,0:0:0:0:
294,189,103456,2,0,L|302:307,1,99.9999999999999
377,353,104072,6,0,P|297:385|204:324,2,200,6|2|0,0:0|0:0|0:0,0:0:0:0:
436,272,105610,1,0,0:0:0:0:
436,272,105918,2,0,P|440:217|428:169,1,99.9999999999999,0|2,0:0|0:0,0:0:0:0:
369,94,106533,6,0,P|253:74|153:98,2,200,6|2|0,0:0|0:0|0:0,0:0:0:0:
444,160,108072,2,0,P|414:184|333:184,1,99.9999999999999
304,186,108533,2,0,P|339:199|380:270,1,99.9999999999999
372,297,108994,6,0,B|278:285|278:285|174:305,1,200,2|2,0:0|0:0,0:0:0:0:
79,336,109918,1,0,0:0:0:0:
43,242,110226,2,0,B|31:148|31:148|51:44,1,200,2|2,0:0|0:0,0:0:0:0:
249,22,111456,6,0,L|257:226,1,200,6|2,0:0|0:0,0:0:0:0:
427,325,112687,2,0,L|434:125,1,200,0|2,0:0|0:0,0:0:0:0:
439,75,113456,2,0,P|389:135|356:142,1,99.9999999999999
333,107,113918,6,0,P|251:91|150:162,1,200
300,289,115148,2,0,L|412:269,2,99.9999999999999,2|2|0,0:0|0:0|0:0,0:0:0:0:
223,224,116071,1,0,0:0:0:0:
317,191,116379,6,0,P|377:287|346:386,1,200,2|2,0:0|0:0,0:0:0:0:
205,239,117610,2,0,P|193:190|201:141,1,99.9999999999999,2|2,0:0|0:0,0:0:0:0:
174,45,118225,2,0,P|223:36|271:47,1,99.9999999999999,2|2,0:0|0:0,0:0:0:0:
371,44,118840,6,0,B|391:148|391:148|379:244,2,200,2|2|0,0:0|0:0|0:0,0:0:0:0:
284,167,120687,1,0,0:0:0:0:
433,148,121303,5,12,0:0:0:0:
256,192,121380,12,0,129841,0:0:0:0:
