osu file format v14

[General]
AudioFilename: audio.mp3
AudioLeadIn: 0
PreviewTime: 66086
Countdown: 0
SampleSet: Soft
StackLeniency: 0.7
Mode: 0
LetterboxInBreaks: 0
WidescreenStoryboard: 0

[Editor]
DistanceSpacing: 1.5
BeatDivisor: 4
GridSize: 32
TimelineZoom: 1.7

[Metadata]
Title:STAR BEAT!~Hoshi no Kodou~
TitleUnicode:STAR BEAT!~ホシノコドウ~
Artist:Poppin'Party
ArtistUnicode:Poppin'Party
Creator:[ L u k a s ]
Version:Gaia's InsanE!
Source:BanG Dream!
Tags:Firis_Mistlud Suzuki_1112 Gaia kawaiwkyik Rizia Lukas Asuka_- joker- kurantemelodii
BeatmapID:1414685
BeatmapSetID:650607

[Difficulty]
HPDrainRate:6
CircleSize:4
OverallDifficulty:8
ApproachRate:9
SliderMultiplier:1.6
SliderTickRate:1

[Events]
//Background and Video events
0,0,"sta beet.jpg",0,0
//Break Periods
//Storyboard Layer 0 (Background)
//Storyboard Layer 1 (Fail)
//Storyboard Layer 2 (Pass)
//Storyboard Layer 3 (Foreground)
//Storyboard Sound Samples

[TimingPoints]
702,307.692307692308,4,2,7,70,1,0
10240,-166.666666666667,4,2,7,50,0,0
10548,-125,4,2,7,60,0,0
20394,-125,4,2,7,40,0,0
22855,-200,4,2,7,40,0,0
23625,-142.857142857143,4,2,7,40,0,0
24086,-200,4,2,7,40,0,0
24855,-166.666666666667,4,2,7,40,0,0
25317,-111.111111111111,4,2,7,40,0,0
25625,-142.857142857143,4,2,7,40,0,0
26548,-111.111111111111,4,2,7,40,0,0
27009,-142.857142857143,4,2,7,40,0,0
27317,-111.111111111111,4,2,7,40,0,0
27778,-200,4,2,7,40,0,0
28548,-142.857142857143,4,2,7,40,0,0
29009,-125,4,2,7,40,0,0
30240,-200,4,2,7,40,0,0
31163,-142.857142857143,4,2,7,40,0,0
31471,-200,4,2,7,40,0,0
32394,-200,4,2,7,60,0,0
32702,-100,4,2,7,60,0,0
45009,-125,4,2,7,60,0,0
45317,-142.857142857143,4,2,7,60,0,0
46240,-100,4,2,7,60,0,0
47471,-125,4,2,7,60,0,0
47778,-142.857142857143,4,2,7,60,0,0
48702,-100,4,2,7,60,0,0
49471,-83.3333333333333,4,2,7,60,0,0
52394,-100,4,2,7,60,0,0
53009,-125,4,2,7,60,0,0
55163,-142.857142857143,4,2,7,60,0,0
56086,-100,4,2,7,60,0,0
57317,-125,4,2,7,60,0,0
57625,-142.857142857143,4,2,7,60,0,0
58548,-100,4,2,7,60,0,0
59317,-83.3333333333333,4,2,7,60,0,0
62240,-125,4,2,7,60,0,0
66855,-166.666666666667,4,2,7,60,0,0
67163,-90.9090909090909,4,2,7,70,0,0
85625,-125,4,2,7,70,0,0
85932,-90.9090909090909,4,2,7,70,0,0
86855,-100,4,2,7,60,0,0
91778,-125,4,2,7,60,0,0
96702,-100,4,2,7,40,0,0
99163,-100,4,2,7,60,0,0
100380,307.692307692308,4,2,7,60,1,0
101610,-100,4,2,7,50,0,0
115763,-83.3333333333333,4,2,7,60,0,0
116379,-100,4,2,7,50,0,0
118225,-125,4,2,7,50,0,0
118840,-100,4,2,7,50,0,0
121302,-100,4,2,7,30,0,0
127456,-100,4,2,7,40,0,0
128687,-100,4,2,7,50,0,0
129302,-100,4,2,7,60,0,0
129840,-100,4,2,7,5,0,0

[Colours]
Combo1 : 128,0,128
Combo2 : 240,152,0
Combo3 : 255,0,0
Combo4 : 255,255,0
Combo5 : 255,128,192
Combo6 : 255,0,128

[HitObjects]
195,121,548,5,4,0:3:0:0:
195,121,625,1,4,0:3:0:0:
195,121,702,1,6,0:0:0:0:
256,192,778,12,2,1932,0:0:0:0:
314,240,2394,5,8,0:3:0:0:
314,240,2702,1,8,0:3:0:0:
172,212,2855,1,4,0:3:0:0:
245,329,3009,1,4,0:3:0:0:
294,133,3163,5,6,0:2:0:0:
256,192,3240,12,2,4394,0:0:0:0:
320,206,5009,5,8,0:3:0:0:
205,244,5163,1,8,0:3:0:0:
166,123,5317,1,4,0:3:0:0:
284,88,5471,1,4,0:3:0:0:
255,318,5625,5,6,0:0:0:0:
256,192,5702,12,2,6855,0:0:0:0:
205,244,7317,5,4,0:3:0:0:
399,94,7471,1,0,1:0:0:0:
285,54,7625,1,4,0:3:0:0:
383,223,7778,2,0,P|419:214|467:209,1,80,8|8,0:3|0:3,0:0:0:0:
136,144,8086,5,6,0:0:0:0:
256,192,8163,12,4,9317,0:3:0:0:
200,262,9471,6,0,P|156:248|146:127,1,160,6|4,1:2|0:3,0:0:0:0:
259,163,9932,2,0,P|320:156|388:143,1,120,0|4,1:0|0:3,0:0:0:0:
395,141,10240,6,0,P|368:183|370:224,1,71.9999978027344,8|0,0:3|0:0,0:0:0:0:
436,354,10548,6,0,P|430:320|395:286,1,64,6|0,0:0|0:0,0:0:0:0:
246,298,10855,2,0,L|334:285,1,64,4|0,0:3|0:0,0:0:0:0:
259,163,11163,2,0,L|195:172,1,64,4|0,0:3|0:0,0:0:0:0:
61,265,11471,1,4,0:3:0:0:
172,177,11625,1,0,0:0:0:0:
38,86,11778,6,0,P|52:113|60:174,1,64,4|0,0:3|0:0,0:0:0:0:
149,314,12086,2,0,P|150:282|161:245,1,64,4|0,0:3|0:0,0:0:0:0:
283,68,12394,2,0,P|280:108|258:151,1,64,4|0,0:3|0:0,0:0:0:0:
246,298,12702,1,4,0:3:0:0:
259,163,12855,1,0,1:0:0:0:
259,163,12932,1,0,1:0:0:0:
259,163,13009,6,0,P|330:125|391:133,1,128,6|4,1:2|0:3,0:0:0:0:
509,203,13471,1,0,0:0:0:0:
405,251,13625,2,0,P|376:241|341:218,1,64,4|0,0:3|0:0,0:0:0:0:
266,66,13932,2,0,P|272:95|269:137,1,64,4|0,0:3|0:0,0:0:0:0:
178,283,14240,6,0,P|200:262|238:244,1,64,4|0,0:3|0:0,0:0:0:0:
406,154,14548,1,4,0:3:0:0:
162,110,14702,1,8,0:3:0:0:
256,257,14855,1,4,0:3:0:0:
266,66,15009,5,8,0:3:0:0:
230,247,15163,1,8,0:3:0:0:
375,127,15317,1,8,0:3:0:0:
132,104,15471,6,0,L|44:90,1,64,6|0,0:0|0:0,0:0:0:0:
129,264,15778,2,0,L|217:250,1,64,4|0,0:3|0:0,0:0:0:0:
375,127,16086,2,0,P|360:171|357:218,1,64,4|0,0:3|0:0,0:0:0:0:
353,370,16394,1,4,0:3:0:0:
451,255,16548,1,2,0:0:0:0:
451,255,16625,1,2,0:0:0:0:
451,255,16702,6,0,P|404:223|308:231,1,128,6|0,0:0|0:0,0:0:0:0:
132,105,17163,1,4,0:3:0:0:
118,213,17317,2,0,P|153:211|197:194,1,64,4|8,0:3|0:3,0:0:0:0:
294,35,17625,1,8,0:3:0:0:
271,141,17778,1,8,0:3:0:0:
159,39,17932,6,0,P|170:103|178:181,2,128,6|4|4,0:2|0:3|0:3,0:0:0:0:
279,269,18855,2,0,P|272:302|269:339,1,64,4|0,0:3|0:0,0:0:0:0:
444,292,19163,6,0,L|361:310,1,64,4|0,0:3|0:0,0:0:0:0:
118,213,19471,2,0,L|180:226,1,64,4|0,0:3|0:0,0:0:0:0:
458,142,19778,2,0,L|375:160,1,64,4|0,0:3|0:0,0:0:0:0:
115,69,20086,2,0,L|177:82,1,64,4|0,0:3|0:0,0:0:0:0:
366,146,20394,5,2,0:0:0:0:
201,88,20548,1,2,0:0:0:0:
312,55,20702,1,2,0:0:0:0:
312,55,20855,1,0,0:0:0:0:
225,208,21009,5,2,0:0:0:0:
177,82,21163,1,2,0:0:0:0:
333,136,21317,1,2,0:0:0:0:
333,136,21471,1,0,0:0:0:0:
137,188,21625,5,2,0:0:0:0:
115,69,21778,1,2,0:0:0:0:
137,188,21932,1,2,0:0:0:0:
115,69,22086,1,2,0:0:0:0:
42,207,22240,5,2,0:0:0:0:
137,188,22394,1,2,0:0:0:0:
229,170,22548,1,2,0:0:0:0:
229,170,22855,6,0,P|235:219|243:337,1,160,2|0,0:0|0:0,0:0:0:0:
146,277,23625,2,0,L|139:205,1,55.9999982910157,2|0,0:0|0:0,0:0:0:0:
136,86,23932,1,0,0:0:0:0:
313,117,24086,6,0,P|230:123|166:72,1,160,2|0,0:0|0:0,0:0:0:0:
428,80,24855,2,0,P|472:48|527:53,1,95.9999970703126,2|0,0:0|0:0,0:0:0:0:
405,192,25317,6,0,P|408:235|383:270,1,71.9999978027344,2|0,0:0|0:0,0:0:0:0:
293,242,25625,2,0,L|310:371,1,111.999996582031,2|0,0:0|0:0,0:0:0:0:
195,287,26086,2,0,P|180:254|185:219,1,55.9999982910157,2|0,0:0|0:0,0:0:0:0:
304,140,26394,1,0,0:0:0:0:
140,133,26548,6,0,P|210:149|282:161,1,143.999995605469,2|0,0:0|0:0,0:0:0:0:
395,259,27009,2,0,P|396:223|403:187,1,55.9999982910157,2|0,0:0|0:0,0:0:0:0:
508,50,27317,2,0,P|436:61|366:77,1,143.999995605469,2|0,0:0|0:0,0:0:0:0:
216,39,27778,6,0,P|275:77|274:174,1,160,2|0,0:0|0:0,0:0:0:0:
286,284,28548,2,0,P|231:273|175:270,1,111.999996582031,2|0,0:0|0:0,0:0:0:0:
49,195,29009,6,0,P|83:190|136:173,1,64,2|0,0:0|0:0,0:0:0:0:
228,151,29317,2,0,P|196:85|238:21,1,128,2|0,0:0|0:0,0:0:0:0:
366,77,29778,2,0,P|355:145|348:227,1,128,2|0,0:0|0:0,0:0:0:0:
419,334,30240,6,0,B|319:300|319:394|212:349,1,200,2|0,0:0|0:0,0:0:0:0:
243,205,31163,2,0,P|256:231|260:281,1,55.9999982910157,2|0,0:0|0:0,0:0:0:0:
126,362,31471,6,0,P|81:313|95:215,1,160,2|0,0:0|0:0,0:0:0:0:
101,232,32394,5,0,1:0:0:0:
344,121,32702,6,0,P|267:114|182:92,1,160,6|0,0:0|1:0,0:0:0:0:
291,14,33163,1,2,0:0:0:0:
243,205,33317,1,4,0:3:0:0:
426,171,33471,2,0,P|430:133|440:73,1,80,4|0,0:3|1:0,0:0:0:0:
243,205,33778,1,2,0:0:0:0:
364,257,33932,6,0,P|417:218|529:222,1,160,4|0,0:3|1:0,0:0:0:0:
407,378,34394,2,0,P|328:378|262:334,1,160,4|4,0:3|0:3,0:0:0:0:
121,222,34855,1,0,1:0:0:0:
243,205,35009,1,2,0:0:0:0:
134,346,35163,6,0,P|99:343|52:331,1,80,4|2,0:3|0:0,0:0:0:0:
101,115,35471,2,0,L|116:199,1,80,0|2,1:0|0:0,0:0:0:0:
255,320,35778,1,4,0:3:0:0:
121,222,35932,1,4,0:3:0:0:
263,90,36086,2,0,L|248:174,1,80,0|2,1:0|0:0,0:0:0:0:
376,289,36394,6,0,P|350:238|389:131,1,160,4|0,0:3|1:0,0:0:0:0:
433,29,36855,2,0,L|273:51,1,160,4|4,0:3|0:3,0:0:0:0:
135,169,37317,1,0,1:0:0:0:
35,71,37471,1,2,0:0:0:0:
62,248,37625,6,0,P|130:208|209:207,1,160,4|0,0:3|1:0,0:0:0:0:
440,219,38086,1,2,0:0:0:0:
323,84,38240,2,0,P|287:103|236:107,1,80,4|4,0:3|0:3,0:0:0:0:
35,71,38548,2,0,P|74:76|109:95,1,80,0|2,1:2|0:0,0:0:0:0:
213,286,38855,6,0,P|210:231|220:118,1,160,4|0,0:3|1:0,0:0:0:0:
260,14,39317,1,4,0:3:0:0:
334,160,39471,2,0,P|344:202|339:259,1,80,2|4,0:0|0:3,0:0:0:0:
80,321,39778,2,0,P|79:281|89:242,1,80,2|0,1:2|0:0,0:0:0:0:
213,286,40086,6,0,L|386:265,1,160,4|0,0:3|1:0,0:0:0:0:
483,93,40548,1,2,0:0:0:0:
355,161,40702,2,0,P|341:198|346:249,1,80,4|4,0:3|0:3,0:0:0:0:
225,384,41009,2,0,L|214:300,1,80,0|2,1:3|0:0,0:0:0:0:
216,104,41317,5,4,0:3:0:0:
133,222,41471,1,4,0:3:0:0:
78,122,41625,2,0,P|35:114|-3:105,1,80,0|4,1:0|0:3,0:0:0:0:
248,244,41932,2,0,P|286:234|326:227,1,80,2|4,0:0|0:3,0:0:0:0:
342,237,42163,1,2,0:0:0:0:
342,237,42240,2,0,P|329:179|381:103,1,120,0|0,1:0|0:0,0:0:0:0:
403,49,42548,6,0,P|347:96|245:83,1,160,6|0,0:0|1:0,0:0:0:0:
140,29,43009,2,0,P|149:62|152:119,1,80,2|4,0:0|0:3,0:0:0:0:
0,106,43317,1,4,0:3:0:0:
64,263,43471,2,0,P|66:223|76:184,1,80,6|4,1:2|0:3,0:0:0:0:
254,262,43778,6,0,P|232:253|172:243,1,80,4|4,0:3|0:3,0:0:0:0:
426,137,44086,2,0,P|404:146|344:156,1,80,0|4,1:2|0:3,0:0:0:0:
238,87,44394,1,0,1:2:0:0:
359,308,44548,1,2,0:0:0:0:
374,280,44625,1,0,1:0:0:0:
369,245,44702,1,0,1:0:0:0:
176,207,44855,1,0,1:0:0:0:
353,64,45009,6,0,P|350:106|345:155,1,64,0|4,1:0|0:3,0:0:0:0:
176,207,45317,6,0,P|158:150|46:147,1,167.999994873047,6|4,1:2|0:3,0:0:0:0:
6,241,45932,1,0,1:0:0:0:
6,241,46086,1,2,0:0:0:0:
187,338,46240,6,0,P|153:328|102:319,1,80,4|4,0:3|0:3,0:0:0:0:
176,207,46548,1,0,1:0:0:0:
287,266,46702,2,0,P|365:265|446:246,1,160,4|4,0:3|0:3,0:0:0:0:
479,93,47163,2,0,L|379:83,1,80,0|0,1:0|0:0,0:0:0:0:
366,81,47394,1,8,0:3:0:0:
366,81,47471,6,0,P|350:110|362:155,1,64,0|4,1:0|0:3,0:0:0:0:
233,331,47778,6,0,B|276:289|264:228|264:228|188:207,1,167.999994873047,6|0,1:2|0:0,0:0:0:0:
71,173,48394,1,0,1:0:0:0:
71,173,48548,1,2,0:0:0:0:
242,85,48702,6,0,P|206:92|158:98,1,80,4|4,0:3|0:3,0:0:0:0:
42,275,49009,2,0,P|81:279|120:287,1,80,0|2,1:2|0:0,0:0:0:0:
338,194,49317,1,4,0:3:0:0:
71,173,49471,6,0,L|55:106,2,47.9999985351563,0|0|0,1:0|1:0|1:0,0:0:0:0:
334,101,49778,2,0,L|350:34,2,47.9999985351563,0|0|4,1:0|1:0|1:3,0:0:0:0:
359,296,50086,1,4,0:3:0:0:
409,170,50240,6,0,P|350:201|238:134,1,191.999994140625,6|4,1:2|0:3,0:0:0:0:
71,173,50702,1,4,0:3:0:0:
262,318,50855,6,0,P|356:296|472:278,1,191.999994140625,6|4,1:2|0:3,0:0:0:0:
409,170,51317,1,4,0:3:0:0:
210,177,51471,6,0,B|235:228|243:285|243:285|224:324|163:349,1,191.999994140625,6|4,1:2|0:3,0:0:0:0:
42,275,51932,1,4,0:3:0:0:
316,173,52086,1,4,1:2:0:0:
110,54,52240,1,0,1:0:0:0:
98,80,52317,1,0,1:0:0:0:
106,106,52394,6,0,P|191:106|269:69,1,160,6|0,1:2|1:0,0:0:0:0:
414,45,52855,1,0,0:0:0:0:
406,51,52932,1,8,0:3:0:0:
399,59,53009,2,0,P|403:96|413:136,1,64,8|8,0:3|0:3,0:0:0:0:
453,276,53317,2,0,P|427:268|371:263,1,64,0|0,1:0|0:0,0:0:0:0:
269,315,53625,5,4,0:3:0:0:
316,173,53778,1,4,0:3:0:0:
118,225,53932,2,0,P|149:220|180:212,1,64,6|0,1:2|0:0,0:0:0:0:
194,198,54163,1,4,0:3:0:0:
194,198,54240,1,4,0:3:0:0:
209,32,54394,5,0,1:0:0:0:
191,20,54470,1,0,1:0:0:0:
170,17,54547,1,8,0:3:0:0:
149,22,54624,1,8,0:3:0:0:
133,35,54701,1,8,0:3:0:0:
123,54,54778,1,8,0:3:0:0:
122,75,54855,6,0,P|132:108|135:143,1,64,0|4,1:2|0:3,0:0:0:0:
13,295,55163,6,0,B|49:256|49:256|118:259|147:315,1,167.999994873047,6|4,1:2|0:3,0:0:0:0:
289,225,55778,1,0,1:0:0:0:
289,225,55932,1,2,0:0:0:0:
242,384,56086,6,0,P|231:346|235:286,1,80,4|4,0:3|0:3,0:0:0:0:
391,315,56394,1,0,1:2:0:0:
351,172,56548,2,0,P|280:185|158:201,1,160,4|4,0:3|0:3,0:0:0:0:
51,71,57009,5,8,0:3:0:0:
48,87,57085,1,8,0:3:0:0:
45,104,57162,1,8,0:3:0:0:
42,121,57239,1,8,0:3:0:0:
39,137,57317,6,0,L|129:149,1,64,4|4,0:3|0:3,0:0:0:0:
286,11,57625,6,0,B|243:-11|243:-11|187:27|215:108,1,167.999994873047,6|4,1:2|0:3,0:0:0:0:
249,294,58240,1,0,1:0:0:0:
249,294,58394,1,2,0:0:0:0:
272,186,58548,6,0,L|193:197,1,80,4|4,0:3|0:3,0:0:0:0:
357,310,58855,2,0,L|436:320,1,80,0|4,1:2|0:3,0:0:0:0:
411,184,59163,1,0,0:0:0:0:
249,294,59317,6,0,L|260:355,2,47.9999985351563,0|0|0,1:0|1:0|1:0,0:0:0:0:
416,154,59625,2,0,L|427:93,2,47.9999985351563,0|0|4,1:0|1:0|1:3,0:0:0:0:
357,310,59932,1,4,0:3:0:0:
133,272,60086,6,0,P|179:192|271:185,1,191.999994140625,6|4,1:2|0:3,0:0:0:0:
396,94,60548,1,4,0:3:0:0:
204,82,60702,6,0,P|221:164|230:283,1,191.999994140625,6|4,1:2|0:3,0:0:0:0:
110,363,61163,1,4,0:3:0:0:
343,311,61317,6,0,P|300:304|241:291,1,95.9999970703126,6|0,1:2|0:0,0:0:0:0:
110,175,61625,1,4,0:3:0:0:
133,272,61778,1,4,0:3:0:0:
48,90,61932,2,0,P|94:79|142:72,1,95.9999970703126,6|0,1:2|0:0,0:0:0:0:
248,293,62240,6,0,P|240:336|239:376,1,64,6|4,1:2|0:3,0:0:0:0:
374,337,62548,1,4,0:3:0:0:
259,228,62702,6,0,P|266:271|268:311,1,64,6|4,1:2|0:3,0:0:0:0:
133,272,63010,1,4,0:3:0:0:
248,163,63163,6,0,P|240:206|239:246,1,64,6|4,1:2|0:3,0:0:0:0:
374,207,63471,1,4,0:3:0:0:
259,98,63625,6,0,P|266:141|268:181,1,64,6|4,1:2|0:3,0:0:0:0:
133,142,63933,1,4,0:3:0:0:
248,33,64086,6,0,P|240:76|239:116,1,64,6|4,1:2|0:3,0:0:0:0:
276,354,64394,2,0,P|273:322|267:290,1,64,6|4,1:2|0:3,0:0:0:0:
133,142,64702,5,6,1:2:0:0:
252,180,64855,1,4,0:3:0:0:
133,272,65009,1,4,0:3:0:0:
267,161,65163,1,4,0:3:0:0:
98,162,65317,5,0,1:0:0:0:
280,274,65471,1,0,1:0:0:0:
335,86,65625,1,0,1:0:0:0:
252,180,65778,1,0,1:0:0:0:
452,196,65932,5,0,1:0:0:0:
267,161,66702,5,4,0:3:0:0:
208,324,66855,2,0,P|193:275|201:240,1,71.9999978027344,0|0,1:0|0:0,0:0:0:0:
267,161,67163,6,0,P|216:212|95:196,1,176.000005371094,6|0,0:2|1:0,0:0:0:0:
166,98,67625,1,2,0:0:0:0:
374,123,67778,2,0,P|367:175|365:227,1,88.000002685547,4|4,0:3|0:3,0:0:0:0:
322,372,68086,2,0,P|362:350|430:352,1,88.000002685547,0|2,1:0|0:0,0:0:0:0:
208,324,68394,6,0,B|82:317|82:317|72:295|47:258,1,176.000005371094,4|0,0:3|1:0,0:0:0:0:
30,130,68855,1,2,0:0:0:0:
166,98,69009,2,0,P|169:138|153:196,1,88.000002685547,4|4,0:3|0:3,0:0:0:0:
303,339,69317,2,0,P|292:296|295:252,1,88.000002685547,0|2,1:2|0:0,0:0:0:0:
343,113,69625,6,0,B|435:133|429:63|536:89,2,176.000005371094,4|0|4,0:3|1:0|0:3,0:0:0:0:
262,32,70394,1,4,0:3:0:0:
386,221,70548,2,0,P|429:232|479:231,1,88.000002685547,0|2,1:0|0:0,0:0:0:0:
208,324,70855,6,0,P|164:323|121:335,1,88.000002685547,4|4,0:3|0:3,0:0:0:0:
322,372,71163,1,0,1:0:0:0:
168,224,71317,2,0,P|153:139|152:37,1,176.000005371094,4|4,0:3|0:3,0:0:0:0:
348,137,71778,2,0,P|352:183|342:241,1,88.000002685547,0|2,1:0|0:0,0:0:0:0:
303,339,72086,6,0,P|321:287|452:275,1,176.000005371094,4|0,0:3|1:0,0:0:0:0:
260,147,72548,1,2,0:0:0:0:
263,167,72625,1,4,0:3:0:0:
266,185,72702,1,4,0:3:0:0:
396,347,72855,1,4,0:3:0:0:
480,107,73009,2,0,P|430:124|375:128,1,88.000002685547,0|2,1:0|0:0,0:0:0:0:
177,10,73317,6,0,P|220:16|261:31,1,88.000002685547,4|2,0:3|0:0,0:0:0:0:
348,137,73625,1,0,1:0:0:0:
204,119,73778,2,0,P|216:197|226:312,1,176.000005371094,4|4,0:3|0:3,0:0:0:0:
107,200,74240,2,0,P|106:240|100:301,1,88.000002685547,0|2,1:0|0:0,0:0:0:0:
0,384,74548,5,4,0:3:0:0:
27,245,74702,1,4,0:3:0:0:
222,342,74855,2,0,P|182:359|117:360,1,88.000002685547,0|2,1:0|0:0,0:0:0:0:
352,262,75163,2,0,P|395:265|436:282,1,88.000002685547,4|2,0:3|0:0,0:0:0:0:
224,203,75471,2,0,P|207:163|206:98,1,88.000002685547,0|2,1:0|1:2,0:0:0:0:
220,98,75702,1,0,1:0:0:0:
220,98,75778,5,4,1:3:0:0:
351,124,75932,1,4,0:3:0:0:
93,63,76086,2,0,P|104:111|117:254,1,176.000005371094,6|4,1:2|0:3,0:0:0:0:
25,344,76548,1,4,0:3:0:0:
222,342,76702,1,0,1:0:0:0:
222,342,76778,2,0,P|269:315|322:318,1,88.000002685547,0|0,1:0|1:0,0:0:0:0:
404,262,77009,6,0,P|350:280|248:216,1,176.000005371094,6|0,0:0|1:0,0:0:0:0:
346,50,77471,1,2,0:0:0:0:
353,61,77548,1,4,0:3:0:0:
358,72,77625,2,0,P|358:108|350:171,1,88.000002685547,4|4,0:3|0:3,0:0:0:0:
152,97,77932,2,0,L|251:108,1,88.000002685547,0|2,1:0|0:0,0:0:0:0:
443,176,78240,5,4,0:3:0:0:
266,112,78394,1,4,0:3:0:0:
439,31,78548,1,0,1:0:0:0:
340,194,78702,2,0,P|249:218|144:223,1,176.000005371094,4|4,0:3|0:3,0:0:0:0:
29,152,79163,1,0,1:0:0:0:
29,152,79471,6,0,P|41:194|44:257,1,88.000002685547,4|0,0:3|0:0,0:0:0:0:
163,351,79778,2,0,P|166:307|178:264,1,88.000002685547,0|2,1:2|0:0,0:0:0:0:
352,159,80086,1,4,0:3:0:0:
167,223,80240,1,4,0:3:0:0:
299,327,80394,2,0,P|345:338|392:342,1,88.000002685547,0|2,1:0|0:0,0:0:0:0:
197,111,80702,6,0,P|153:115|110:125,1,88.000002685547,4|4,0:3|0:3,0:0:0:0:
340,194,81009,1,0,1:0:0:0:
167,223,81163,2,0,P|126:269|179:391,1,176.000005371094,4|4,0:3|0:3,0:0:0:0:
340,194,81625,2,0,L|325:101,1,88.000002685547,0|2,1:0|0:0,0:0:0:0:
274,314,81932,6,0,P|368:296|478:293,1,176.000005371094,6|0,0:0|1:0,0:0:0:0:
434,110,82394,1,2,0:0:0:0:
421,129,82471,1,4,0:3:0:0:
422,152,82548,1,4,0:3:0:0:
470,315,82702,1,4,0:3:0:0:
340,194,82855,2,0,P|305:185|236:180,1,88.000002685547,0|2,1:0|0:0,0:0:0:0:
16,327,83163,6,0,P|59:322|102:313,1,88.000002685547,4|4,0:3|0:3,0:0:0:0:
228,178,83471,1,0,1:0:0:0:
76,84,83625,2,0,B|22:69|22:69|47:224,1,176.000005371094,4|4,0:3|0:3,0:0:0:0:
208,360,84086,2,0,P|219:322|221:268,1,88.000002685547,0|2,1:0|0:0,0:0:0:0:
167,104,84394,5,4,0:3:0:0:
114,301,84548,1,4,0:3:0:0:
315,187,84702,2,0,L|217:176,1,88.000002685547,0|2,1:0|0:0,0:0:0:0:
35,199,85009,1,4,0:3:0:0:
160,72,85163,2,0,L|151:18,2,44.0000013427735,8|8|8,0:3|0:3|0:3,0:0:0:0:
359,28,85471,1,8,0:3:0:0:
355,47,85548,1,8,0:3:0:0:
351,69,85625,6,0,P|376:88|428:90,1,64,4|4,0:3|0:3,0:0:0:0:
491,238,85932,2,0,B|456:192|456:192|397:193|322:220,1,176.000005371094,6|4,1:2|0:3,0:0:0:0:
199,156,86394,2,0,P|193:205|192:256,1,88.000002685547,4|0,0:3|1:0,0:0:0:0:
334,383,86702,1,0,1:0:0:0:
329,364,86778,1,0,1:0:0:0:
322,340,86855,6,0,B|254:328|252:386|152:359,1,160,6|0,0:0|1:0,0:0:0:0:
152,379,87471,1,4,0:3:0:0:
203,261,87625,1,4,0:3:0:0:
78,290,87778,2,0,P|37:286|-7:277,1,80,0|0,1:0|0:0,0:0:0:0:
147,159,88086,6,0,P|186:150|225:147,1,80,4|4,0:3|0:3,0:0:0:0:
203,261,88394,1,0,1:0:0:0:
274,60,88548,2,0,P|193:56|98:43,1,160,4|4,0:3|0:3,0:0:0:0:
373,6,89009,2,0,P|379:48|379:108,1,80,0|0,1:0|0:0,0:0:0:0:
325,219,89317,6,0,P|365:231|413:233,1,80,4|4,0:3|0:3,0:0:0:0:
309,349,89625,2,0,P|221:361|129:366,1,160,0|4,1:0|0:3,0:0:0:0:
26,278,90086,1,4,0:3:0:0:
141,195,90240,2,0,P|161:234|166:283,1,80,0|0,1:0|0:0,0:0:0:0:
33,149,90548,6,0,P|39:109|58:74,2,80,4|4|0,0:3|0:3|1:0,0:0:0:0:
66,266,91009,1,0,0:0:0:0:
259,241,91163,1,0,1:0:0:0:
170,26,91317,1,6,0:0:0:0:
148,148,91471,2,0,P|189:142|241:127,1,80,8|8,0:3|0:3,0:0:0:0:
381,29,91778,6,0,P|351:61|358:161,1,128,6|0,0:0|1:0,0:0:0:0:
457,187,92240,2,0,L|473:137,2,32,8|8|8,0:3|0:3|0:3,0:0:0:0:
462,303,92548,2,0,P|440:295|385:288,1,64,4|0,0:3|1:0,0:0:0:0:
378,309,93009,6,0,P|356:316|301:324,1,64,4|4,0:3|0:3,0:0:0:0:
246,231,93317,1,0,1:0:0:0:
184,336,93471,2,0,L|196:382,2,32,8|8|8,0:3|0:3|0:3,0:0:0:0:
79,263,93778,2,0,L|70:337,2,64,4|0|4,0:3|1:0|0:3,0:0:0:0:
131,149,94240,6,0,P|99:145|48:136,1,64,6|4,0:2|0:3,0:0:0:0:
192,56,94548,2,0,L|292:44,1,96,0|8,1:0|0:3,0:0:0:0:
305,43,94855,1,4,0:3:0:0:
264,150,95009,2,0,P|254:190|256:228,1,64,4|0,0:3|1:0,0:0:0:0:
275,227,95471,6,0,P|284:267|283:305,1,64,4|4,0:3|0:3,0:0:0:0:
168,281,95778,1,0,1:0:0:0:
257,379,95932,2,0,L|309:388,2,32,8|8|8,0:3|0:3|0:3,0:0:0:0:
140,285,96240,2,0,L|70:297,2,64,4|4|8,0:3|1:2|0:3,0:0:0:0:
191,137,96702,6,0,L|174:89,3,40,6|0|0|0,1:2|1:2|1:2|1:2,0:0:0:0:
287,44,97009,6,0,L|280:83,3,40,0|0|2|0,1:2|1:2|1:2|1:2,0:0:0:0:
384,82,97317,6,0,L|410:52,3,40,0|0|0|0,1:2|1:2|1:2|1:2,0:0:0:0:
511,122,97625,6,0,L|473:135,3,40,2|0|0|0,1:2|1:2|1:2|1:2,0:0:0:0:
454,225,97932,6,0,P|436:266|439:309,1,80,2|0,1:2|1:0,0:0:0:0:
369,384,98163,1,0,1:0:0:0:
375,373,98240,6,0,P|348:336|309:318,1,80,0|2,1:2|1:2,0:0:0:0:
277,243,98471,1,0,1:0:0:0:
269,251,98548,6,0,P|230:267|188:270,1,80,0|0,1:0|1:0,0:0:0:0:
136,341,98778,1,0,1:0:0:0:
122,335,98855,6,0,L|35:327,1,80,2|0,1:2|1:0,0:0:0:0:
0,247,99086,1,0,0:0:0:0:
14,246,99163,6,0,P|61:201|41:107,1,160,6|0,1:2|1:0,0:0:0:0:
268,85,99625,1,0,1:0:0:0:
174,29,99778,2,0,P|163:71|162:125,1,80,4|0,1:3|1:0,0:0:0:0:
269,256,100086,1,0,1:0:0:0:
413,126,100240,1,0,1:0:0:0:
178,136,100380,5,2,1:2:0:0:
178,136,101610,6,0,P|254:131|371:106,1,160,6|0,0:2|1:0,0:0:0:0:
507,68,102071,1,2,0:0:0:0:
493,75,102148,1,4,0:3:0:0:
480,84,102226,2,0,P|462:129|462:167,1,80,4|4,0:3|0:3,0:0:0:0:
459,332,102533,1,2,0:0:0:0:
512,220,102687,6,0,P|457:204|362:259,1,160,0|4,1:0|0:3,0:0:0:0:
262,371,103149,2,0,P|225:367|181:349,1,80,2|2,1:2|0:0,0:0:0:0:
184,167,103456,1,4,0:3:0:0:
253,266,103610,1,4,0:3:0:0:
77,372,103764,2,0,L|85:278,1,80,2|4,1:2|0:3,0:0:0:0:
98,267,103994,1,4,0:3:0:0:
98,267,104072,6,0,P|56:234|77:109,1,160,6|0,0:0|1:0,0:0:0:0:
147,54,104533,2,0,L|135:12,2,40,4|4|4,0:3|0:3|0:3,0:0:0:0:
184,167,104841,2,0,P|232:151|343:135,1,160,4|0,0:3|1:0,0:0:0:0:
468,80,105303,6,0,L|458:183,1,80,2|4,0:0|0:3,0:0:0:0:
445,349,105610,1,0,1:0:0:0:
384,268,105764,2,0,P|417:255|472:249,1,80,8|4,0:3|0:3,0:0:0:0:
334,372,106072,2,0,P|294:366|257:352,1,80,8|0,0:3|1:0,0:0:0:0:
87,229,106379,1,4,0:3:0:0:
91,245,106456,1,4,0:3:0:0:
96,264,106533,6,0,B|204:245|204:245|217:180,1,160,6|0,0:0|1:0,0:0:0:0:
428,55,107148,1,2,0:0:0:0:
321,31,107303,2,0,L|339:125,1,80,4|2,0:3|0:0,0:0:0:0:
478,217,107610,6,0,B|402:206|403:269|296:240,1,160,0|4,1:0|0:3,0:0:0:0:
228,171,108071,1,2,1:2:0:0:
242,302,108226,2,0,L|253:351,2,40,2|4|0,0:0|0:3|1:0,0:0:0:0:
323,130,108533,2,0,P|257:131|199:38,1,160,6|6,0:0|1:2,0:0:0:0:
86,5,108995,6,0,P|101:48|104:103,1,80,4|4,0:3|0:3,0:0:0:0:
71,200,109303,2,0,P|143:181|235:170,1,160,0|4,1:0|0:3,0:0:0:0:
300,42,109763,1,4,0:3:0:0:
352,301,109918,2,0,P|319:301|260:281,1,80,6|2,1:2|0:0,0:0:0:0:
258,273,110148,1,0,0:0:0:0:
258,273,110225,5,4,0:3:0:0:
383,144,110379,1,0,1:0:0:0:
378,163,110456,1,0,1:0:0:0:
373,182,110533,1,0,1:0:0:0:
201,177,110687,2,0,L|154:169,2,40,8|8|8,0:3|0:3|0:3,0:0:0:0:
373,182,110994,1,8,0:3:0:0:
147,300,111149,2,0,L|100:312,2,40,4|8|8,0:3|0:3|0:3,0:0:0:0:
258,273,111456,6,0,L|243:95,1,160,6|4,1:2|1:2,0:0:0:0:
244,94,112071,1,2,0:0:0:0:
373,182,112226,2,0,P|391:232|391:277,1,80,4|2,0:3|0:0,0:0:0:0:
157,379,112533,6,0,P|123:324|137:210,1,160,2|4,1:2|0:3,0:0:0:0:
163,99,112995,2,0,P|126:110|75:115,1,80,0|2,1:0|0:0,0:0:0:0:
64,106,113225,1,4,0:3:0:0:
64,106,113302,1,4,0:3:0:0:
263,25,113456,2,0,P|277:66|282:121,1,80,6|4,0:0|0:3,0:0:0:0:
241,281,113763,1,0,1:3:0:0:
275,138,113918,6,0,P|348:97|449:112,1,160,6|6,1:2|1:2,0:0:0:0:
505,198,114380,2,0,L|516:149,2,40,4|4|4,0:3|0:3|0:3,0:0:0:0:
375,229,114687,2,0,P|380:271|385:313,1,80,4|2,0:3|0:0,0:0:0:0:
241,281,114995,6,0,B|131:264|131:264|150:205,1,160,0|4,1:0|0:3,0:0:0:0:
64,106,115456,2,0,B|189:86|189:86,1,120,4|4,1:2|0:3,0:0:0:0:
210,83,115764,6,0,L|216:12,2,63.9999980468751,0|0|0,1:0|1:0|1:0,0:0:0:0:
309,158,116072,2,0,L|315:229,2,63.9999980468751,0|0|0,1:0|1:0|1:0,0:0:0:0:
449,80,116380,6,0,P|404:134|419:228,1,160,6|6,1:2|0:2,0:0:0:0:
457,344,116841,2,0,L|508:327,2,40,4|4|4,0:3|0:3|0:3,0:0:0:0:
343,306,117149,2,0,L|253:294,1,80,4|2,0:3|0:0,0:0:0:0:
68,197,117456,6,0,B|91:232|91:232|213:200,1,160,0|4,1:2|0:3,0:0:0:0:
289,60,117918,2,0,P|277:99|296:149,1,80,6|8,1:2|0:3,0:0:0:0:
309,158,118148,1,0,0:0:0:0:
309,158,118226,2,0,L|391:143,1,64,8|8,0:3|0:3,0:0:0:0:
376,259,118533,2,0,L|458:244,1,64,8|8,0:3|0:3,0:0:0:0:
322,377,118841,6,0,P|286:336|174:345,1,160,6|6,1:2|1:2,0:0:0:0:
35,223,119302,1,2,0:0:0:0:
37,241,119379,1,2,0:0:0:0:
41,262,119456,2,0,P|86:267|121:237,1,80,4|4,0:3|0:3,0:0:0:0:
309,158,119763,1,6,1:2:0:0:
120,61,119917,1,4,0:3:0:0:
223,27,120072,6,0,B|246:102|172:122|217:218,1,160,6|0,1:2|1:0,0:0:0:0:
336,267,120533,1,0,1:0:0:0:
336,267,120610,1,0,1:0:0:0:
336,267,120687,2,0,L|400:253,3,40,0|0|0|0,1:0|1:0|1:0|1:0,0:0:0:0:
288,355,120995,2,0,L|352:369,3,40,0|0|0|0,1:0|1:0|1:0|1:0,0:0:0:0:
174,344,121302,5,6,0:0:0:0:
206,196,121456,1,2,0:0:0:0:
305,269,121610,1,0,0:0:0:0:
305,269,121917,5,2,0:0:0:0:
124,245,122071,1,2,0:0:0:0:
305,269,122225,1,2,0:0:0:0:
124,245,122379,1,2,0:0:0:0:
225,174,122533,5,2,0:0:0:0:
161,336,122687,1,2,0:0:0:0:
18,213,122840,1,0,0:0:0:0:
18,213,123148,5,2,0:0:0:0:
142,291,123302,1,2,0:0:0:0:
131,117,123456,1,0,0:0:0:0:
131,117,123763,5,2,0:0:0:0:
227,203,123917,1,2,0:0:0:0:
348,77,124071,1,0,0:0:0:0:
348,77,124379,5,2,0:0:0:0:
396,208,124533,1,2,0:0:0:0:
348,77,124687,1,2,0:0:0:0:
396,208,124841,1,2,0:0:0:0:
246,178,124994,5,2,0:0:0:0:
371,100,125148,1,2,0:0:0:0:
323,283,125302,1,0,0:0:0:0:
323,283,125610,5,2,0:0:0:0:
225,174,125763,1,2,0:0:0:0:
169,357,125917,1,0,0:0:0:0:
256,192,125994,12,0,129841,0:0:0:0:
